  0
SECTION
  2
HEADER
  9
$ACADVER
  1
AC1015
  9
$ACADMAINTVER
 70
     6
  9
$DWGCODEPAGE
  3
ANSI_1252
  9
$INSBASE
 10
0.0
 20
0.0
 30
0.0
  9
$EXTMIN
 10
0.0
 20
0.0
 30
0.0
  9
$EXTMAX
 10
2100.0
 20
1485.0
 30
0.0
  9
$LIMMIN
 10
0.0
 20
0.0
  9
$LIMMAX
 10
2100.0
 20
1485.0
  9
$ORTHOMODE
 70
     0
  9
$REGENMODE
 70
     1
  9
$FILLMODE
 70
     1
  9
$QTEXTMODE
 70
     0
  9
$MIRRTEXT
 70
     1
  9
$LTSCALE
 40
5.0
  9
$ATTMODE
 70
     1
  9
$TEXTSIZE
 40
17.5
  9
$TRACEWID
 40
1.0
  9
$TEXTSTYLE
  7
STANDARD
  9
$CLAYER
  8
0
  9
$CELTYPE
  6
ByLayer
  9
$CECOLOR
 62
   256
  9
$CELTSCALE
 40
1.0
  9
$DISPSILH
 70
     0
  9
$DIMSCALE
 40
1.0
  9
$DIMASZ
 40
16.51
  9
$DIMEXO
 40
5.0
  9
$DIMDLI
 40
3.75
  9
$DIMRND
 40
0.0
  9
$DIMDLE
 40
0.0
  9
$DIMEXE
 40
5.0
  9
$DIMTP
 40
0.0
  9
$DIMTM
 40
0.0
  9
$DIMTXT
 40
17.5
  9
$DIMCEN
 40
2.5
  9
$DIMTSZ
 40
0.0
  9
$DIMTOL
 70
     0
  9
$DIMLIM
 70
     0
  9
$DIMTIH
 70
     1
  9
$DIMTOH
 70
     1
  9
$DIMSE1
 70
     0
  9
$DIMSE2
 70
     0
  9
$DIMTAD
 70
     1
  9
$DIMZIN
 70
     0
  9
$DIMBLK
  1

  9
$DIMASO
 70
     1
  9
$DIMSHO
 70
     1
  9
$DIMPOST
  1

  9
$DIMAPOST
  1

  9
$DIMALT
 70
     0
  9
$DIMALTD
 70
     3
  9
$DIMALTF
 40
0.0393700787
  9
$DIMLFAC
 40
1.0
  9
$DIMTOFL
 70
     1
  9
$DIMTVP
 40
0.0
  9
$DIMTIX
 70
     0
  9
$DIMSOXD
 70
     0
  9
$DIMSAH
 70
     0
  9
$DIMBLK1
  1

  9
$DIMBLK2
  1

  9
$DIMSTYLE
  2
ISO-25
  9
$DIMCLRD
 70
     0
  9
$DIMCLRE
 70
     0
  9
$DIMCLRT
 70
     0
  9
$DIMTFAC
 40
1.0
  9
$DIMGAP
 40
15.0
  9
$DIMJUST
 70
     0
  9
$DIMSD1
 70
     0
  9
$DIMSD2
 70
     0
  9
$DIMTOLJ
 70
     0
  9
$DIMTZIN
 70
     0
  9
$DIMALTZ
 70
     0
  9
$DIMALTTZ
 70
     0
  9
$DIMUPT
 70
     0
  9
$DIMDEC
 70
     2
  9
$DIMTDEC
 70
     2
  9
$DIMALTU
 70
     2
  9
$DIMALTTD
 70
     3
  9
$DIMTXSTY
  7
STANDARD
  9
$DIMAUNIT
 70
     0
  9
$DIMADEC
 70
     2
  9
$DIMALTRND
 40
0.0
  9
$DIMAZIN
 70
     0
  9
$DIMDSEP
 70
    44
  9
$DIMATFIT
 70
     3
  9
$DIMFRAC
 70
     0
  9
$DIMLDRBLK
  1

  9
$DIMLUNIT
 70
     2
  9
$DIMLWD
 70
    -2
  9
$DIMLWE
 70
    -2
  9
$DIMTMOVE
 70
     0
  9
$LUNITS
 70
     2
  9
$LUPREC
 70
     2
  9
$SKETCHINC
 40
1.0
  9
$FILLETRAD
 40
10.0
  9
$AUNITS
 70
     0
  9
$AUPREC
 70
     2
  9
$MENU
  1
.
  9
$ELEVATION
 40
0.0
  9
$PELEVATION
 40
0.0
  9
$THICKNESS
 40
0.0
  9
$LIMCHECK
 70
     0
  9
$CHAMFERA
 40
0.0
  9
$CHAMFERB
 40
0.0
  9
$CHAMFERC
 40
0.0
  9
$CHAMFERD
 40
0.0
  9
$SKPOLY
 70
     0
  9
$TDCREATE
 40
2460329.279023345
  9
$TDUCREATE
 40
2460329.237356678
  9
$TDUPDATE
 40
2460329.279027164
  9
$TDUUPDATE
 40
2460329.237360497
  9
$TDINDWG
 40
0.0000000116
  9
$TDUSRTIMER
 40
0.0000000116
  9
$USRTIMER
 70
     1
  9
$ANGBASE
 50
0.0
  9
$ANGDIR
 70
     0
  9
$PDMODE
 70
     0
  9
$PDSIZE
 40
-1.0
  9
$PLINEWID
 40
0.0
  9
$SPLFRAME
 70
     0
  9
$SPLINETYPE
 70
     6
  9
$SPLINESEGS
 70
     8
  9
$HANDSEED
  5
563
  9
$SURFTAB1
 70
     6
  9
$SURFTAB2
 70
     6
  9
$SURFTYPE
 70
     6
  9
$SURFU
 70
     6
  9
$SURFV
 70
     6
  9
$UCSBASE
  2

  9
$UCSNAME
  2

  9
$UCSORG
 10
0.0
 20
0.0
 30
0.0
  9
$UCSXDIR
 10
1.0
 20
0.0
 30
0.0
  9
$UCSYDIR
 10
0.0
 20
1.0
 30
0.0
  9
$UCSORTHOREF
  2

  9
$UCSORTHOVIEW
 70
     0
  9
$UCSORGTOP
 10
0.0
 20
0.0
 30
0.0
  9
$UCSORGBOTTOM
 10
0.0
 20
0.0
 30
0.0
  9
$UCSORGLEFT
 10
0.0
 20
0.0
 30
0.0
  9
$UCSORGRIGHT
 10
0.0
 20
0.0
 30
0.0
  9
$UCSORGFRONT
 10
0.0
 20
0.0
 30
0.0
  9
$UCSORGBACK
 10
0.0
 20
0.0
 30
0.0
  9
$PUCSBASE
  2

  9
$PUCSNAME
  2

  9
$PUCSORG
 10
0.0
 20
0.0
 30
0.0
  9
$PUCSXDIR
 10
1.0
 20
0.0
 30
0.0
  9
$PUCSYDIR
 10
0.0
 20
1.0
 30
0.0
  9
$PUCSORTHOREF
  2

  9
$PUCSORTHOVIEW
 70
     0
  9
$PUCSORGTOP
 10
0.0
 20
0.0
 30
0.0
  9
$PUCSORGBOTTOM
 10
0.0
 20
0.0
 30
0.0
  9
$PUCSORGLEFT
 10
0.0
 20
0.0
 30
0.0
  9
$PUCSORGRIGHT
 10
0.0
 20
0.0
 30
0.0
  9
$PUCSORGFRONT
 10
0.0
 20
0.0
 30
0.0
  9
$PUCSORGBACK
 10
0.0
 20
0.0
 30
0.0
  9
$USERI1
 70
     0
  9
$USERI2
 70
     0
  9
$USERI3
 70
     0
  9
$USERI4
 70
     0
  9
$USERI5
 70
     0
  9
$USERR1
 40
0.0
  9
$USERR2
 40
0.0
  9
$USERR3
 40
0.0
  9
$USERR4
 40
0.0
  9
$USERR5
 40
0.0
  9
$WORLDVIEW
 70
     1
  9
$SHADEDGE
 70
     3
  9
$SHADEDIF
 70
    70
  9
$TILEMODE
 70
     1
  9
$MAXACTVP
 70
    64
  9
$PINSBASE
 10
0.0
 20
0.0
 30
0.0
  9
$PLIMCHECK
 70
     0
  9
$PEXTMIN
 10
1.0000000000E+20
 20
1.0000000000E+20
 30
1.0000000000E+20
  9
$PEXTMAX
 10
-1.0000000000E+20
 20
-1.0000000000E+20
 30
-1.0000000000E+20
  9
$PLIMMIN
 10
0.0
 20
0.0
  9
$PLIMMAX
 10
420.0
 20
297.0
  9
$UNITMODE
 70
     0
  9
$VISRETAIN
 70
     1
  9
$PLINEGEN
 70
     0
  9
$PSLTSCALE
 70
     1
  9
$TREEDEPTH
 70
  3020
  9
$CMLSTYLE
  2
Standard
  9
$CMLJUST
 70
     0
  9
$CMLSCALE
 40
20.0
  9
$PROXYGRAPHICS
 70
     1
  9
$MEASUREMENT
 70
     1
  9
$CELWEIGHT
370
    -1
  9
$ENDCAPS
280
     0
  9
$JOINSTYLE
280
     0
  9
$LWDISPLAY
290
     1
  9
$INSUNITS
 70
     4
  9
$HYPERLINKBASE
  1

  9
$STYLESHEET
  1

  9
$XEDIT
290
     1
  9
$CEPSNTYPE
380
     0
  9
$PSTYLEMODE
290
     1
  9
$FINGERPRINTGUID
  2
{e47adbce-c186-48ab-8bc8-db97d91cf65e}
  9
$VERSIONGUID
  2
{FAEB1C32-E019-11D5-929B-00C0DF256EC4}
  9
$EXTNAMES
290
     1
  9
$PSVPSCALE
 40
0.0
  9
$OLESTARTUP
290
     0
  0
ENDSEC
  0
SECTION
  2
CLASSES
  0
CLASS
  1
ACDBDICTIONARYWDFLT
  2
AcDbDictionaryWithDefault
  3
ObjectDBX Classes
 90
        0
280
     0
281
     0
  0
CLASS
  1
VISUALSTYLE
  2
AcDbVisualStyle
  3
ObjectDBX Classes
 90
     4095
280
     0
281
     0
  0
CLASS
  1
MATERIAL
  2
AcDbMaterial
  3
ObjectDBX Classes
 90
     1153
280
     0
281
     0
  0
CLASS
  1
SCALE
  2
AcDbScale
  3
ObjectDBX Classes
 90
     1153
280
     0
281
     0
  0
CLASS
  1
TABLESTYLE
  2
AcDbTableStyle
  3
ObjectDBX Classes
 90
     4095
280
     0
281
     0
  0
CLASS
  1
MLEADERSTYLE
  2
AcDbMLeaderStyle
  3
ACDB_MLEADERSTYLE_CLASS
 90
     4095
280
     0
281
     0
  0
CLASS
  1
SUN
  2
AcDbSun
  3
SCENEOE
 90
     1153
280
     0
281
     0
  0
CLASS
  1
ACDBPLACEHOLDER
  2
AcDbPlaceHolder
  3
ObjectDBX Classes
 90
        0
280
     0
281
     0
  0
CLASS
  1
LAYOUT
  2
AcDbLayout
  3
ObjectDBX Classes
 90
        0
280
     0
281
     0
  0
ENDSEC
  0
SECTION
  2
TABLES
  0
TABLE
  2
VPORT
  5
8
330
0
100
AcDbSymbolTable
 70
     1
  0
VPORT
  5
29
330
8
100
AcDbSymbolTableRecord
100
AcDbViewportTableRecord
  2
*Active
 70
     0
 10
0.0
 20
0.0
 11
1.0
 21
1.0
 12
1050.0
 22
742.5
 13
0.0
 23
0.0
 14
10.0
 24
10.0
 15
10.0
 25
10.0
 16
0.0
 26
0.0
 36
1.0
 17
0.0
 27
0.0
 37
0.0
 40
1485.0
 41
1.4141414141
 42
50.0
 43
0.0
 44
0.0
 50
0.0
 51
0.0
 71
     0
 72
  2000
 73
     1
 74
     3
 75
     0
 76
     0
 77
     0
 78
     0
281
     0
 65
     1
110
0.0
120
0.0
130
0.0
111
1.0
121
0.0
131
0.0
112
0.0
122
1.0
132
0.0
 79
     0
146
0.0
  0
ENDTAB
  0
TABLE
  2
LTYPE
  5
5
330
0
100
AcDbSymbolTable
 70
     6
  0
LTYPE
  5
14
330
5
100
AcDbSymbolTableRecord
100
AcDbLinetypeTableRecord
  2
ByBlock
 70
     0
  3

 72
    65
 73
     0
 40
0.0
  0
LTYPE
  5
15
330
5
100
AcDbSymbolTableRecord
100
AcDbLinetypeTableRecord
  2
ByLayer
 70
     0
  3

 72
    65
 73
     0
 40
0.0
  0
LTYPE
  5
16
330
5
100
AcDbSymbolTableRecord
100
AcDbLinetypeTableRecord
  2
Continuous
 70
     0
  3
Solid line
 72
    65
 73
     0
 40
0.0
  0
LTYPE
  5
6E
330
5
100
AcDbSymbolTableRecord
100
AcDbLinetypeTableRecord
  2
HIDDEN
 70
     0
  3
Hidden __ __ __ __ __ __ __ __ __ __ __ __ __ __
 72
    65
 73
     2
 40
1.905
 49
1.27
 74
     0
 49
-0.635
 74
     0
  0
LTYPE
  5
6F
330
5
100
AcDbSymbolTableRecord
100
AcDbLinetypeTableRecord
  2
PHANTOM
 70
     0
  3
Phantom ______  __  __  ______  __  __  ______
 72
    65
 73
     6
 40
12.7
 49
6.35
 74
     0
 49
-1.27
 74
     0
 49
1.27
 74
     0
 49
-1.27
 74
     0
 49
1.27
 74
     0
 49
-1.27
 74
     0
  0
LTYPE
  5
70
330
5
100
AcDbSymbolTableRecord
100
AcDbLinetypeTableRecord
  2
CENTER
 70
     0
  3
Center ____ _ ____ _ ____ _ ____ _ ____ _ ____
 72
    65
 73
     4
 40
10.16
 49
6.35
 74
     0
 49
-1.27
 74
     0
 49
1.27
 74
     0
 49
-1.27
 74
     0
  0
LTYPE
  5
71
330
5
100
AcDbSymbolTableRecord
100
AcDbLinetypeTableRecord
  2
CENTERX2
 70
     0
  3
Center (2x) ________  __  ________  __  _____
 72
    65
 73
     4
 40
20.32
 49
12.7
 74
     0
 49
-2.54
 74
     0
 49
2.54
 74
     0
 49
-2.54
 74
     0
  0
LTYPE
  5
72
330
5
100
AcDbSymbolTableRecord
100
AcDbLinetypeTableRecord
  2
DOT2
 70
     0
  3
Dot (.5x) ........................................
 72
    65
 73
     2
 40
0.635
 49
0.0
 74
     0
 49
-0.635
 74
     0
  0
ENDTAB
  0
TABLE
  2
LAYER
  5
2
330
0
100
AcDbSymbolTable
 70
     9
  0
LAYER
  5
10
330
2
100
AcDbSymbolTableRecord
100
AcDbLayerTableRecord
  2
0
 70
     0
 62
     7
  6
Continuous
370
    -3
390
F
  0
LAYER
  5
73
330
2
100
AcDbSymbolTableRecord
100
AcDbLayerTableRecord
  2
FORMAT
 70
     0
 62
     7
  6
Continuous
370
    -3
390
F
  0
LAYER
  5
74
330
2
100
AcDbSymbolTableRecord
100
AcDbLayerTableRecord
  2
VORLAGE
 70
     0
 62
     7
  6
Continuous
370
    -3
390
F
  0
LAYER
  5
75
330
2
100
AcDbSymbolTableRecord
100
AcDbLayerTableRecord
  2
1
 70
     0
 62
   179
  6
Continuous
370
    -3
390
F
  0
LAYER
  5
76
330
2
100
AcDbSymbolTableRecord
100
AcDbLayerTableRecord
  2
LAYER0
 70
     0
 62
     7
  6
Continuous
370
    -3
390
F
  0
LAYER
  5
77
330
2
100
AcDbSymbolTableRecord
100
AcDbLayerTableRecord
  2
BEMASSUNG
 70
     0
 62
     1
  6
Continuous
370
    -3
390
F
  0
LAYER
  5
78
330
2
100
AcDbSymbolTableRecord
100
AcDbLayerTableRecord
  2
ÄNDERUNG
 70
     0
 62
     1
  6
Continuous
370
    -3
390
F
  0
LAYER
  5
79
330
2
100
AcDbSymbolTableRecord
100
AcDbLayerTableRecord
  2
KENNZEICHNUNG
 70
     0
 62
     7
  6
Continuous
370
    -3
390
F
  0
LAYER
  5
7A
330
2
100
AcDbSymbolTableRecord
100
AcDbLayerTableRecord
  2
NICHT_DRUCKEN
 70
     0
 62
     1
  6
Continuous
290
     0
370
    -3
390
F
  0
ENDTAB
  0
TABLE
  2
STYLE
  5
3
330
0
100
AcDbSymbolTable
 70
     5
  0
STYLE
  5
11
330
3
100
AcDbSymbolTableRecord
100
AcDbTextStyleTableRecord
  2
STANDARD
 70
     0
 40
0.0
 41
1.0
 50
0.0
 71
     0
 42
17.5
  3
ARIAL.TTF
  4

1001
ACAD
1000
ARIAL
1071
       34
  0
STYLE
  5
8C
330
3
100
AcDbSymbolTableRecord
100
AcDbTextStyleTableRecord
  2
SLDTEXTSTYLE0
 70
     0
 40
0.0
 41
0.948
 50
0.0
 71
     0
 42
17.5
  3
ARIAL.TTF
  4

1001
ACAD
1000
Arial
1071
      290
  0
STYLE
  5
B3
330
3
100
AcDbSymbolTableRecord
100
AcDbTextStyleTableRecord
  2
SLDTEXTSTYLE1
 70
     0
 40
0.0
 41
1.0
 50
0.0
 71
     0
 42
17.5
  3
ARIALUNI.TTF
  4

1001
ACAD
1000
Arial Unicode MS
1071
 33554722
  0
STYLE
  5
B9
330
3
100
AcDbSymbolTableRecord
100
AcDbTextStyleTableRecord
  2
SLDTEXTSTYLE2
 70
     0
 40
0.0
 41
0.87
 50
0.0
 71
     0
 42
17.5
  3
ARIALN.TTF
  4

1001
ACAD
1000
Arial Narrow
1071
      290
  0
STYLE
  5
E1
330
3
100
AcDbSymbolTableRecord
100
AcDbTextStyleTableRecord
  2
SLDTEXTSTYLE3
 70
     0
 40
0.0
 41
0.948
 50
0.0
 71
     0
 42
17.5
  3
ARIALBD.TTF
  4

1001
ACAD
1000
Arial
1071
 33554722
  0
ENDTAB
  0
TABLE
  2
VIEW
  5
6
330
0
100
AcDbSymbolTable
 70
     0
  0
ENDTAB
  0
TABLE
  2
UCS
  5
7
330
0
100
AcDbSymbolTable
 70
     0
  0
ENDTAB
  0
TABLE
  2
APPID
  5
9
330
0
100
AcDbSymbolTable
 70
     1
  0
APPID
  5
12
330
9
100
AcDbSymbolTableRecord
100
AcDbRegAppTableRecord
  2
ACAD
 70
     0
  0
ENDTAB
  0
TABLE
  2
DIMSTYLE
  5
A
330
0
100
AcDbSymbolTable
 70
     7
100
AcDbDimStyleTable
  0
DIMSTYLE
105
27
330
A
100
AcDbSymbolTableRecord
100
AcDbDimStyleTableRecord
  2
ISO-25
 70
     0
 41
2.5
 42
0.625
 43
3.75
 44
1.25
 73
     0
 74
     0
 77
     1
 78
     8
140
2.5
141
2.5
143
0.0393700787
147
0.625
171
     3
172
     1
178
     0
271
     2
272
     2
274
     3
278
    44
283
     0
284
     8
340
11
  0
DIMSTYLE
105
2AE
102
{ACAD_REACTORS
330
2AD
330
2B9
330
2C3
330
366
102
}
330
A
100
AcDbSymbolTableRecord
100
AcDbDimStyleTableRecord
  2
SLDDIMSTYLE0
 70
     0
 41
16.51
 44
0.0
 45
0.000000001
 73
     0
 74
     0
 77
     1
 78
    12
 79
     3
140
17.5
147
4.375
173
     1
178
     0
271
     2
272
     2
276
     2
284
    12
340
8C
  0
DIMSTYLE
105
2F4
102
{ACAD_REACTORS
330
2F3
330
315
102
}
330
A
100
AcDbSymbolTableRecord
100
AcDbDimStyleTableRecord
  2
SLDDIMSTYLE1
 70
     0
 41
16.51
 44
0.0
 45
0.000000001
 73
     0
 74
     0
 77
     1
 78
    12
 79
     3
140
17.5
147
4.375
173
     1
178
     0
271
     2
272
     0
276
     2
284
    12
340
8C
  0
DIMSTYLE
105
2FF
102
{ACAD_REACTORS
330
2FE
330
31E
102
}
330
A
100
AcDbSymbolTableRecord
100
AcDbDimStyleTableRecord
  2
SLDDIMSTYLE2
 70
     0
 41
16.51
 44
0.0
 45
0.000000001
 73
     0
 74
     0
 77
     1
 78
    12
 79
     3
140
17.5
147
4.375
173
     1
178
     0
271
     2
272
     1
276
     2
284
    12
340
8C
  0
DIMSTYLE
105
30A
102
{ACAD_REACTORS
330
309
330
335
102
}
330
A
100
AcDbSymbolTableRecord
100
AcDbDimStyleTableRecord
  2
SLDDIMSTYLE3
 70
     0
 41
16.51
 44
0.0
 45
0.000000001
 73
     0
 74
     0
 77
     1
 78
    12
 79
     3
140
17.5
147
4.375
172
     1
173
     1
178
     0
271
     2
272
     0
276
     2
284
    12
289
     0
340
8C
  0
DIMSTYLE
105
329
102
{ACAD_REACTORS
330
328
102
}
330
A
100
AcDbSymbolTableRecord
100
AcDbDimStyleTableRecord
  2
SLDDIMSTYLE4
 70
     0
 41
16.51
 44
0.0
 45
0.000000001
 73
     0
 74
     0
 77
     1
 78
    12
 79
     3
140
17.5
147
4.375
172
     1
173
     1
178
     0
271
     2
272
     1
276
     2
284
    12
289
     0
340
8C
  0
DIMSTYLE
105
341
102
{ACAD_REACTORS
330
340
330
34E
330
35A
330
549
330
555
102
}
330
A
100
AcDbSymbolTableRecord
100
AcDbDimStyleTableRecord
  2
SLDDIMSTYLE5
 70
     0
 41
16.51
 44
0.0
 45
0.000000001
 73
     0
 74
     0
 77
     1
 78
    12
 79
     3
140
17.5
147
4.375
172
     1
173
     1
178
     0
271
     2
272
     2
276
     2
284
    12
289
     0
340
8C
  0
ENDTAB
  0
TABLE
  2
BLOCK_RECORD
  5
1
330
0
100
AcDbSymbolTable
 70
    35
  0
BLOCK_RECORD
  5
1F
330
1
100
AcDbSymbolTableRecord
100
AcDbBlockTableRecord
  2
*Model_Space
340
22
  0
BLOCK_RECORD
  5
1B
330
1
100
AcDbSymbolTableRecord
100
AcDbBlockTableRecord
  2
*Paper_Space
340
1E
  0
BLOCK_RECORD
  5
23
330
1
100
AcDbSymbolTableRecord
100
AcDbBlockTableRecord
  2
*Paper_Space0
340
26
  0
BLOCK_RECORD
  5
7B
330
1
100
AcDbSymbolTableRecord
100
AcDbBlockTableRecord
  2
Block1_3_1
340
0
102
{BLKREFS
331
DA
102
}
  0
BLOCK_RECORD
  5
89
330
1
100
AcDbSymbolTableRecord
100
AcDbBlockTableRecord
  2
SW_NOTE_0
340
0
102
{BLKREFS
331
8F
102
}
  0
BLOCK_RECORD
  5
90
330
1
100
AcDbSymbolTableRecord
100
AcDbBlockTableRecord
  2
Block2_3_1
340
0
102
{BLKREFS
331
D9
102
}
  0
BLOCK_RECORD
  5
B0
330
1
100
AcDbSymbolTableRecord
100
AcDbBlockTableRecord
  2
SW_NOTE_0_1
340
0
102
{BLKREFS
331
B5
102
}
  0
BLOCK_RECORD
  5
B6
330
1
100
AcDbSymbolTableRecord
100
AcDbBlockTableRecord
  2
SW_NOTE_0_2
340
0
102
{BLKREFS
331
BD
102
}
  0
BLOCK_RECORD
  5
BE
330
1
100
AcDbSymbolTableRecord
100
AcDbBlockTableRecord
  2
rechtlicher_Hinweis_Katalogzeichnungen_1
340
0
102
{BLKREFS
331
DB
102
}
  0
BLOCK_RECORD
  5
C1
330
1
100
AcDbSymbolTableRecord
100
AcDbBlockTableRecord
  2
SW_NOTE_0_3
340
0
102
{BLKREFS
331
CA
102
}
  0
BLOCK_RECORD
  5
2AF
330
1
100
AcDbSymbolTableRecord
100
AcDbBlockTableRecord
  2
_D
340
0
  0
BLOCK_RECORD
  5
2BA
330
1
100
AcDbSymbolTableRecord
100
AcDbBlockTableRecord
  2
_D_1
340
0
  0
BLOCK_RECORD
  5
2C4
330
1
100
AcDbSymbolTableRecord
100
AcDbBlockTableRecord
  2
_D_2
340
0
  0
BLOCK_RECORD
  5
2F5
330
1
100
AcDbSymbolTableRecord
100
AcDbBlockTableRecord
  2
_D_3
340
0
  0
BLOCK_RECORD
  5
300
330
1
100
AcDbSymbolTableRecord
100
AcDbBlockTableRecord
  2
_D_4
340
0
  0
BLOCK_RECORD
  5
30B
330
1
100
AcDbSymbolTableRecord
100
AcDbBlockTableRecord
  2
_D_5
340
0
  0
BLOCK_RECORD
  5
316
330
1
100
AcDbSymbolTableRecord
100
AcDbBlockTableRecord
  2
_D_6
340
0
  0
BLOCK_RECORD
  5
31F
330
1
100
AcDbSymbolTableRecord
100
AcDbBlockTableRecord
  2
_D_7
340
0
  0
BLOCK_RECORD
  5
32A
330
1
100
AcDbSymbolTableRecord
100
AcDbBlockTableRecord
  2
_D_8
340
0
  0
BLOCK_RECORD
  5
336
330
1
100
AcDbSymbolTableRecord
100
AcDbBlockTableRecord
  2
_D_9
340
0
  0
BLOCK_RECORD
  5
342
330
1
100
AcDbSymbolTableRecord
100
AcDbBlockTableRecord
  2
_D_10
340
0
  0
BLOCK_RECORD
  5
34F
330
1
100
AcDbSymbolTableRecord
100
AcDbBlockTableRecord
  2
_D_11
340
0
  0
BLOCK_RECORD
  5
35B
330
1
100
AcDbSymbolTableRecord
100
AcDbBlockTableRecord
  2
_D_12
340
0
  0
BLOCK_RECORD
  5
367
330
1
100
AcDbSymbolTableRecord
100
AcDbBlockTableRecord
  2
_D_13
340
0
  0
BLOCK_RECORD
  5
370
330
1
100
AcDbSymbolTableRecord
100
AcDbBlockTableRecord
  2
SW_CENTERMARKSYMBOL_0
340
0
102
{BLKREFS
331
37B
102
}
  0
BLOCK_RECORD
  5
37C
330
1
100
AcDbSymbolTableRecord
100
AcDbBlockTableRecord
  2
SW_CENTERMARKSYMBOL_1
340
0
102
{BLKREFS
331
387
102
}
  0
BLOCK_RECORD
  5
388
330
1
100
AcDbSymbolTableRecord
100
AcDbBlockTableRecord
  2
SW_CENTERMARKSYMBOL_2
340
0
102
{BLKREFS
331
393
102
}
  0
BLOCK_RECORD
  5
394
330
1
100
AcDbSymbolTableRecord
100
AcDbBlockTableRecord
  2
SW_CENTERMARKSYMBOL_3
340
0
102
{BLKREFS
331
39F
102
}
  0
BLOCK_RECORD
  5
3A0
330
1
100
AcDbSymbolTableRecord
100
AcDbBlockTableRecord
  2
SW_CENTERMARKSYMBOL_4
340
0
102
{BLKREFS
331
3AB
102
}
  0
BLOCK_RECORD
  5
3AC
330
1
100
AcDbSymbolTableRecord
100
AcDbBlockTableRecord
  2
SW_CENTERMARKSYMBOL_5
340
0
102
{BLKREFS
331
3B7
102
}
  0
BLOCK_RECORD
  5
3B8
330
1
100
AcDbSymbolTableRecord
100
AcDbBlockTableRecord
  2
SW_CENTERMARKSYMBOL_6
340
0
102
{BLKREFS
331
3C3
102
}
  0
BLOCK_RECORD
  5
3C4
330
1
100
AcDbSymbolTableRecord
100
AcDbBlockTableRecord
  2
SW_CENTERMARKSYMBOL_7
340
0
102
{BLKREFS
331
3CF
102
}
  0
BLOCK_RECORD
  5
3D0
330
1
100
AcDbSymbolTableRecord
100
AcDbBlockTableRecord
  2
SW_CENTERMARKSYMBOL_8
340
0
102
{BLKREFS
331
3DB
102
}
  0
BLOCK_RECORD
  5
3DC
330
1
100
AcDbSymbolTableRecord
100
AcDbBlockTableRecord
  2
SW_CENTERMARKSYMBOL_9
340
0
102
{BLKREFS
331
3E7
102
}
  0
BLOCK_RECORD
  5
535
330
1
100
AcDbSymbolTableRecord
100
AcDbBlockTableRecord
  2
SW_HATCH_0
340
0
102
{BLKREFS
331
548
102
}
  0
BLOCK_RECORD
  5
54A
330
1
100
AcDbSymbolTableRecord
100
AcDbBlockTableRecord
  2
_D_14
340
0
  0
BLOCK_RECORD
  5
556
330
1
100
AcDbSymbolTableRecord
100
AcDbBlockTableRecord
  2
_D_15
340
0
  0
ENDTAB
  0
ENDSEC
  0
SECTION
  2
BLOCKS
  0
BLOCK
  5
20
330
1F
100
AcDbEntity
  8
0
100
AcDbBlockBegin
  2
*Model_Space
 70
     0
 10
0.0
 20
0.0
 30
0.0
  3
*Model_Space
  1

  0
ENDBLK
  5
21
330
1F
100
AcDbEntity
  8
0
100
AcDbBlockEnd
  0
BLOCK
  5
1C
330
1B
100
AcDbEntity
 67
     1
  8
0
100
AcDbBlockBegin
  2
*Paper_Space
 70
     0
 10
0.0
 20
0.0
 30
0.0
  3
*Paper_Space
  1

  0
ENDBLK
  5
1D
330
1B
100
AcDbEntity
 67
     1
  8
0
100
AcDbBlockEnd
  0
BLOCK
  5
24
330
23
100
AcDbEntity
  8
0
100
AcDbBlockBegin
  2
*Paper_Space0
 70
     0
 10
0.0
 20
0.0
 30
0.0
  3
*Paper_Space0
  1

  0
ENDBLK
  5
25
330
23
100
AcDbEntity
  8
0
100
AcDbBlockEnd
  0
BLOCK
  5
7C
330
7B
100
AcDbEntity
  8
0
100
AcDbBlockBegin
  2
Block1_3_1
 70
     0
 10
0.0
 20
0.0
 30
0.0
  3
Block1_3_1
  1

  0
CIRCLE
  5
7E
330
7B
100
AcDbEntity
  8
0
  6
Continuous
 62
     7
370
    18
100
AcDbCircle
 10
58.0687724105
 20
45.448293496
 30
0.0
 40
6.279545055293758
  0
CIRCLE
  5
7F
330
7B
100
AcDbEntity
  8
0
  6
Continuous
 62
     7
370
    18
100
AcDbCircle
 10
58.0687724105
 20
45.448293496
 30
0.0
 40
11.08007431827828
  0
LINE
  5
80
330
7B
100
AcDbEntity
  8
0
  6
CENTERX2
 62
     7
370
    18
100
AcDbLine
 10
58.0687724105
 20
45.448293496
 30
0.0
 11
39.4886980922
 21
45.448293496
 31
0.0
  0
LINE
  5
81
330
7B
100
AcDbEntity
  8
0
  6
Continuous
 62
     7
370
    18
100
AcDbLine
 10
40.8287679399
 20
34.3682191778
 30
0.0
 11
40.8287679399
 21
56.5357922957
 31
0.0
  0
LINE
  5
82
330
7B
100
AcDbEntity
  8
0
  6
Continuous
 62
     7
370
    18
100
AcDbLine
 10
13.3985739475
 20
51.7278385513
 30
0.0
 11
13.3985739475
 21
39.1687484407
 31
0.0
  0
LINE
  5
83
330
7B
100
AcDbEntity
  8
0
  6
Continuous
 62
     7
370
    18
100
AcDbLine
 10
13.3985739475
 20
39.1687484407
 30
0.0
 11
40.8287679399
 21
34.3682191778
 31
0.0
  0
LINE
  5
84
330
7B
100
AcDbEntity
  8
0
  6
CENTERX2
 62
     7
370
    18
100
AcDbLine
 10
48.3287679399
 20
45.448293496
 30
0.0
 11
5.8985739475
 21
45.448293496
 31
0.0
  0
LINE
  5
85
330
7B
100
AcDbEntity
  8
0
  6
Continuous
 62
     7
370
    18
100
AcDbLine
 10
40.8287679399
 20
56.5357922957
 30
0.0
 11
13.3985739475
 21
51.7278385513
 31
0.0
  0
LINE
  5
86
330
7B
100
AcDbEntity
  8
0
  6
CENTERX2
 62
     7
370
    18
100
AcDbLine
 10
58.0687724105
 20
45.448293496
 30
0.0
 11
58.0687724105
 21
26.8682191778
 31
0.0
  0
LINE
  5
87
330
7B
100
AcDbEntity
  8
0
  6
CENTERX2
 62
     7
370
    18
100
AcDbLine
 10
58.0687724105
 20
45.448293496
 30
0.0
 11
58.0687724105
 21
64.0283678143
 31
0.0
  0
LINE
  5
88
330
7B
100
AcDbEntity
  8
0
  6
CENTERX2
 62
     7
370
    18
100
AcDbLine
 10
58.0687724105
 20
45.448293496
 30
0.0
 11
76.6488467288
 21
45.448293496
 31
0.0
  0
INSERT
  5
8F
330
7B
100
AcDbEntity
  8
0
  6
Continuous
 62
     7
370
     0
100
AcDbBlockReference
  2
SW_NOTE_0
 10
10.5159164446
 20
11.8772363841
 30
0.0
  0
ENDBLK
  5
7D
330
7B
100
AcDbEntity
  8
0
100
AcDbBlockEnd
  0
BLOCK
  5
8A
330
89
100
AcDbEntity
  8
0
100
AcDbBlockBegin
  2
SW_NOTE_0
 70
     0
 10
0.0
 20
0.0
 30
0.0
  3
SW_NOTE_0
  1

  0
MTEXT
  5
8D
330
89
100
AcDbEntity
  8
0
  6
Continuous
 62
     0
370
     0
100
AcDbMText
 10
32.953125
 20
12.2461435278
 30
0.0
 40
9.5
 41
0.0
 71
     2
 72
     1
  1
DIN 6  T1 - 
  7
SLDTEXTSTYLE0
 73
     1
 44
1.0
  0
MTEXT
  5
8E
330
89
100
AcDbEntity
  8
0
  6
Continuous
 62
     0
370
     0
100
AcDbMText
 10
33.2846313119
 20
0.0016987217
 30
0.0
 40
9.5
 41
0.0
 71
     2
 72
     1
  1
Proj.methode 1
  7
SLDTEXTSTYLE0
 73
     1
 44
1.0
  0
ENDBLK
  5
8B
330
89
100
AcDbEntity
  8
0
100
AcDbBlockEnd
  0
BLOCK
  5
91
330
90
100
AcDbEntity
  8
0
100
AcDbBlockBegin
  2
Block2_3_1
 70
     0
 10
0.0
 20
0.0
 30
0.0
  3
Block2_3_1
  1

  0
ARC
  5
93
330
90
100
AcDbEntity
  8
FORMAT
100
AcDbCircle
 10
1183.7481826908
 20
285.4953004985
 30
0.0
 40
18.75000000000006
100
AcDbArc
 50
93.8225537293
 51
266.1774462707
  0
ARC
  5
94
330
90
100
AcDbEntity
  8
FORMAT
100
AcDbCircle
 10
1183.7481826908
 20
285.4953004985
 30
0.0
 40
15.00000000000005
100
AcDbArc
 50
94.7801918472
 51
265.2198081528
  0
ARC
  5
95
330
90
100
AcDbEntity
  8
FORMAT
100
AcDbCircle
 10
1183.7481826908
 20
285.4953004985
 30
0.0
 40
18.75000000000006
100
AcDbArc
 50
273.8225537293
 51
86.1774462707
  0
ARC
  5
96
330
90
100
AcDbEntity
  8
FORMAT
100
AcDbCircle
 10
1183.7481826908
 20
285.4953004985
 30
0.0
 40
15.00000000000005
100
AcDbArc
 50
274.7801918472
 51
85.2198081528
  0
ARC
  5
97
330
90
100
AcDbEntity
  8
FORMAT
100
AcDbCircle
 10
1183.7481826908
 20
291.1602082181
 30
0.0
 40
4.302013914034417
100
AcDbArc
 50
304.8395134495
 51
73.1084194601
  0
ARC
  5
98
330
90
100
AcDbEntity
  8
FORMAT
100
AcDbCircle
 10
1183.7481826908
 20
291.1602082181
 30
0.0
 40
7.011572158303283
100
AcDbArc
 50
313.8988153445
 51
79.7306010333
  0
ARC
  5
99
330
90
100
AcDbEntity
  8
FORMAT
100
AcDbCircle
 10
1183.7481826908
 20
277.4897861279
 30
0.0
 40
2.45765334336258
100
AcDbArc
 50
300.5716370086
 51
0.0
  0
ARC
  5
9A
330
90
100
AcDbEntity
  8
FORMAT
100
AcDbCircle
 10
1183.7481826908
 20
291.1602082181
 30
0.0
 40
7.011572158303359
100
AcDbArc
 50
100.2693989667
 51
226.1011846555
  0
ARC
  5
9B
330
90
100
AcDbEntity
  8
FORMAT
100
AcDbCircle
 10
1183.7481826908
 20
277.4897861279
 30
0.0
 40
4.861732492708143
100
AcDbArc
 50
180.0
 51
255.1013518888
  0
ARC
  5
9C
330
90
100
AcDbEntity
  8
FORMAT
100
AcDbCircle
 10
1183.7481826908
 20
277.4897861279
 30
0.0
 40
4.861732492708029
100
AcDbArc
 50
284.8986481112
 51
0.0
  0
ARC
  5
9D
330
90
100
AcDbEntity
  8
FORMAT
100
AcDbCircle
 10
1183.7481826908
 20
277.4897861279
 30
0.0
 40
2.457653343362608
100
AcDbArc
 50
180.0
 51
239.4283629914
  0
ARC
  5
9E
330
90
100
AcDbEntity
  8
FORMAT
100
AcDbCircle
 10
1183.7481826908
 20
291.1602082181
 30
0.0
 40
4.30201391403446
100
AcDbArc
 50
106.8915805399
 51
235.1604865505
  0
LINE
  5
9F
330
90
100
AcDbEntity
  8
FORMAT
100
AcDbLine
 10
1162.6562006356
 20
264.4033184433
 30
0.0
 11
1204.840164746
 21
264.4033184433
 31
0.0
  0
LINE
  5
A0
330
90
100
AcDbEntity
  8
FORMAT
100
AcDbLine
 10
1162.6562006356
 20
306.5872825537
 30
0.0
 11
1204.840164746
 21
306.5872825537
 31
0.0
  0
LINE
  5
A1
330
90
100
AcDbEntity
  8
FORMAT
100
AcDbLine
 10
1162.6562006356
 20
306.5872825537
 30
0.0
 11
1162.6562006356
 21
264.4033184433
 31
0.0
  0
LINE
  5
A2
330
90
100
AcDbEntity
  8
FORMAT
100
AcDbLine
 10
1204.840164746
 20
306.5872825537
 30
0.0
 11
1204.840164746
 21
264.4033184433
 31
0.0
  0
LINE
  5
A3
330
90
100
AcDbEntity
  8
FORMAT
100
AcDbLine
 10
1182.4981826908
 20
304.2035874323
 30
0.0
 11
1182.4981826908
 21
300.4431264273
 31
0.0
  0
LINE
  5
A4
330
90
100
AcDbEntity
  8
FORMAT
100
AcDbLine
 10
1184.9981826908
 20
304.2035874323
 30
0.0
 11
1184.9981826908
 21
300.4431264273
 31
0.0
  0
LINE
  5
A5
330
90
100
AcDbEntity
  8
FORMAT
100
AcDbLine
 10
1182.4981826908
 20
270.5474745696
 30
0.0
 11
1182.4981826908
 21
266.7870135646
 31
0.0
  0
LINE
  5
A6
330
90
100
AcDbEntity
  8
FORMAT
100
AcDbLine
 10
1184.9981826908
 20
270.5474745696
 30
0.0
 11
1184.9981826908
 21
266.7870135646
 31
0.0
  0
LINE
  5
A7
330
90
100
AcDbEntity
  8
FORMAT
100
AcDbLine
 10
1184.9981826908
 20
298.059457752
 30
0.0
 11
1184.9981826908
 21
295.2766172984
 31
0.0
  0
LINE
  5
A8
330
90
100
AcDbEntity
  8
FORMAT
100
AcDbLine
 10
1182.4981826908
 20
298.059457752
 30
0.0
 11
1182.4981826908
 21
295.2766172984
 31
0.0
  0
LINE
  5
A9
330
90
100
AcDbEntity
  8
FORMAT
100
AcDbLine
 10
1178.8864501981
 20
277.4897861279
 30
0.0
 11
1178.8864501981
 21
286.1079115818
 31
0.0
  0
LINE
  5
AA
330
90
100
AcDbEntity
  8
FORMAT
100
AcDbLine
 10
1188.6099151835
 20
277.4897861279
 30
0.0
 11
1188.6099151835
 21
286.1079115818
 31
0.0
  0
LINE
  5
AB
330
90
100
AcDbEntity
  8
FORMAT
100
AcDbLine
 10
1186.2058360342
 20
277.4897861279
 30
0.0
 11
1186.2058360342
 21
287.6293069506
 31
0.0
  0
LINE
  5
AC
330
90
100
AcDbEntity
  8
FORMAT
100
AcDbLine
 10
1181.2905293475
 20
277.4897861279
 30
0.0
 11
1181.2905293475
 21
287.6293069506
 31
0.0
  0
LINE
  5
AD
330
90
100
AcDbEntity
  8
FORMAT
100
AcDbLine
 10
1182.4981826908
 20
275.3737615637
 30
0.0
 11
1182.4981826908
 21
272.7914946479
 31
0.0
  0
LINE
  5
AE
330
90
100
AcDbEntity
  8
FORMAT
100
AcDbLine
 10
1184.9981826908
 20
275.3737615637
 30
0.0
 11
1184.9981826908
 21
272.7914946479
 31
0.0
  0
HATCH
  5
AF
330
90
100
AcDbEntity
  8
FORMAT
100
AcDbHatch
 10
0.0
 20
0.0
 30
0.0
210
0.0
220
0.0
230
1.0
  2
SOLID
 70
     1
 71
     0
 91
        5
 92
        0
 93
        4
 72
     1
 10
1204.840164746029
 20
306.5872825536799
 11
1204.840164746029
 21
264.4033184432501
 72
     1
 10
1204.840164746029
 20
264.4033184432501
 11
1162.656200635599
 21
264.4033184432501
 72
     1
 10
1162.656200635599
 20
264.4033184432501
 11
1162.656200635599
 21
306.5872825536799
 72
     1
 10
1162.656200635599
 20
306.5872825536799
 11
1204.840164746029
 21
306.5872825536799
 97
        0
 92
        0
 93
        4
 72
     2
 10
1183.748182690814
 20
285.495300498465
 40
15.00000000000005
 50
94.78019184719915
 51
265.2198081528017
 73
     0
 72
     1
 10
1182.498182690814
 20
300.4431264273418
 11
1182.498182690814
 21
304.2035874323348
 72
     2
 10
1183.748182690814
 20
285.495300498465
 40
18.75000000000004
 50
93.82255372927435
 51
266.1774462707265
 73
     1
 72
     1
 10
1182.498182690814
 20
266.7870135645953
 11
1182.498182690814
 21
270.5474745695882
 97
        0
 92
        0
 93
        8
 72
     1
 10
1188.609915183522
 20
277.4897861278944
 11
1188.609915183522
 21
286.1079115818244
 72
     2
 10
1183.748182690814
 20
291.1602082180524
 40
7.01157215830328
 50
313.8988153445108
 51
439.730601033339
 73
     1
 72
     1
 10
1184.998182690814
 20
298.0594577519578
 11
1184.998182690814
 21
295.276617298373
 72
     2
 10
1183.748182690814
 20
291.1602082180524
 40
4.302013914034391
 50
286.8915805399267
 51
415.1604865505435
 73
     0
 72
     1
 10
1186.205836034177
 20
287.6293069506131
 11
1186.205836034177
 21
277.4897861278944
 72
     2
 10
1183.748182690814
 20
277.4897861278944
 40
2.45765334336252
 50
0.0
 51
59.42836299135142
 73
     0
 72
     1
 10
1184.998182690814
 20
275.3737615637314
 11
1184.998182690814
 21
272.7914946479356
 72
     2
 10
1183.748182690814
 20
277.4897861278944
 40
4.861732492708049
 50
284.8986481111874
 51
360.0000000000008
 73
     1
 97
        0
 92
        0
 93
        8
 72
     2
 10
1183.748182690814
 20
277.4897861278944
 40
2.45765334336252
 50
120.5716370086479
 51
180.0
 73
     0
 72
     1
 10
1181.290529347452
 20
277.4897861278944
 11
1181.290529347452
 21
287.6293069506131
 72
     2
 10
1183.748182690814
 20
291.1602082180524
 40
4.302013914034391
 50
124.8395134494598
 51
253.1084194600749
 73
     0
 72
     1
 10
1182.498182690814
 20
295.276617298373
 11
1182.498182690814
 21
298.0594577519578
 72
     2
 10
1183.748182690814
 20
291.1602082180524
 40
7.01157215830328
 50
100.2693989666618
 51
226.1011846554895
 73
     1
 72
     1
 10
1178.886450198106
 20
286.1079115818244
 11
1178.886450198106
 21
277.4897861278944
 72
     2
 10
1183.748182690814
 20
277.4897861278944
 40
4.861732492708049
 50
180.0
 51
255.1013518888142
 73
     1
 72
     1
 10
1182.498182690814
 20
272.7914946479356
 11
1182.498182690814
 21
275.3737615637314
 97
        0
 92
        0
 93
        4
 72
     2
 10
1183.748182690814
 20
285.495300498465
 40
15.00000000000005
 50
274.7801918471999
 51
445.2198081528016
 73
     0
 72
     1
 10
1184.998182690814
 20
270.5474745695882
 11
1184.998182690814
 21
266.7870135645953
 72
     2
 10
1183.748182690814
 20
285.495300498465
 40
18.75000000000004
 50
273.8225537292751
 51
446.1774462707265
 73
     1
 72
     1
 10
1184.998182690814
 20
304.2035874323348
 11
1184.998182690814
 21
300.4431264273418
 97
        0
 75
     0
 76
     1
 98
        1
 10
0.0
 20
0.0
  0
INSERT
  5
B5
330
90
100
AcDbEntity
  8
FORMAT
 62
     7
100
AcDbBlockReference
  2
SW_NOTE_0_1
 10
1161.2573325813
 20
238.6164694124
 30
0.0
  0
INSERT
  5
BD
330
90
100
AcDbEntity
  8
0
  6
Continuous
 62
     7
370
     0
100
AcDbBlockReference
  2
SW_NOTE_0_2
 10
1220.3615174893
 20
285.588009136
 30
0.0
  0
ENDBLK
  5
92
330
90
100
AcDbEntity
  8
0
100
AcDbBlockEnd
  0
BLOCK
  5
B1
330
B0
100
AcDbEntity
  8
0
100
AcDbBlockBegin
  2
SW_NOTE_0_1
 70
     0
 10
0.0
 20
0.0
 30
0.0
  3
SW_NOTE_0_1
  1

  0
MTEXT
  5
B4
330
B0
100
AcDbEntity
  8
FORMAT
 62
     0
100
AcDbMText
 10
0.0
 20
19.3259557344
 30
0.0
 40
15.0
 41
0.0
 71
     1
 72
     1
  1
ECO
  7
SLDTEXTSTYLE1
 73
     1
 44
1.0
  0
ENDBLK
  5
B2
330
B0
100
AcDbEntity
  8
0
100
AcDbBlockEnd
  0
BLOCK
  5
B7
330
B6
100
AcDbEntity
  8
0
100
AcDbBlockBegin
  2
SW_NOTE_0_2
 70
     0
 10
0.0
 20
0.0
 30
0.0
  3
SW_NOTE_0_2
  1

  0
MTEXT
  5
BA
330
B6
100
AcDbEntity
  8
0
  6
Continuous
 62
     0
370
     0
100
AcDbMText
 10
0.0
 20
16.1133467471
 30
0.0
 40
12.5
 41
0.0
 71
     1
 72
     1
  1
ECO Schulte GmbH & Co. KG
  7
SLDTEXTSTYLE2
 73
     1
 44
1.0
  0
MTEXT
  5
BB
330
B6
100
AcDbEntity
  8
0
  6
Continuous
 62
     0
370
     0
100
AcDbMText
 10
0.0
 20
-1.386653793
 30
0.0
 40
12.5
 41
0.0
 71
     1
 72
     1
  1
Postfach 206
  7
SLDTEXTSTYLE2
 73
     1
 44
1.0
  0
MTEXT
  5
BC
330
B6
100
AcDbEntity
  8
0
  6
Continuous
 62
     0
370
     0
100
AcDbMText
 10
0.0
 20
-18.8866543332
 30
0.0
 40
12.5
 41
0.0
 71
     1
 72
     1
  1
58682 Menden
  7
SLDTEXTSTYLE2
 73
     1
 44
1.0
  0
ENDBLK
  5
B8
330
B6
100
AcDbEntity
  8
0
100
AcDbBlockEnd
  0
BLOCK
  5
BF
330
BE
100
AcDbEntity
  8
0
100
AcDbBlockBegin
  2
rechtlicher_Hinweis_Katalogzeichnungen_1
 70
     0
 10
0.0
 20
0.0
 30
0.0
  3
rechtlicher_Hinweis_Katalogzeichnungen_1
  1

  0
INSERT
  5
CA
330
BE
100
AcDbEntity
  8
0
  6
Continuous
 62
     7
370
     0
100
AcDbBlockReference
  2
SW_NOTE_0_3
 10
1.5548624737
 20
286.7878861786
 30
0.0
  0
ENDBLK
  5
C0
330
BE
100
AcDbEntity
  8
0
100
AcDbBlockEnd
  0
BLOCK
  5
C2
330
C1
100
AcDbEntity
  8
0
100
AcDbBlockBegin
  2
SW_NOTE_0_3
 70
     0
 10
0.0
 20
0.0
 30
0.0
  3
SW_NOTE_0_3
  1

  0
MTEXT
  5
C4
330
C1
100
AcDbEntity
  8
0
  6
Continuous
 62
     0
370
     0
100
AcDbMText
 10
0.0
 20
32.2266934943
 30
0.0
 40
25.0
 41
0.0
 71
     1
 72
     1
  1
Technische Änderungen und Irrtümer vorbehalten. Aus dem Gebrauch der Zeichnung können keinerlei Ansprüche (inkl. 
  7
SLDTEXTSTYLE0
 73
     1
 44
1.0
  0
MTEXT
  5
C5
330
C1
100
AcDbEntity
  8
0
  6
Continuous
 62
     0
370
     0
100
AcDbMText
 10
0.0
 20
-2.773307586
 30
0.0
 40
25.0
 41
0.0
 71
     1
 72
     1
  1
Schadenersatzansprüche) erhoben und gegen ECO Schulte geltend gemacht werden. Die Zeichnung bleibt unser 
  7
SLDTEXTSTYLE0
 73
     1
 44
1.0
  0
MTEXT
  5
C6
330
C1
100
AcDbEntity
  8
0
  6
Continuous
 62
     0
370
     0
100
AcDbMText
 10
0.0
 20
-37.7733086664
 30
0.0
 40
25.0
 41
0.0
 71
     1
 72
     1
  1
Eigentum. Sämtliche sich aus der Zeichnung ergebenden Ansprüche stehen ausschließlich ECO Schulte zu.
  7
SLDTEXTSTYLE0
 73
     1
 44
1.0
  0
MTEXT
  5
C7
330
C1
100
AcDbEntity
  8
0
  6
Continuous
 62
     0
370
     0
100
AcDbMText
 10
0.0
 20
-107.773310827
 30
0.0
 40
25.0
 41
0.0
 71
     1
 72
     1
  1
Technical changes and errors excepted. No claims (including compensation claims) may be raised against ECO Schulte by 
  7
SLDTEXTSTYLE0
 73
     1
 44
1.0
  0
MTEXT
  5
C8
330
C1
100
AcDbEntity
  8
0
  6
Continuous
 62
     0
370
     0
100
AcDbMText
 10
0.0
 20
-142.7733119074
 30
0.0
 40
25.0
 41
0.0
 71
     1
 72
     1
  1
using of this drawing. The drawing remains the property of ECO Schulte. All claims resulting from this drawing are solely 
  7
SLDTEXTSTYLE0
 73
     1
 44
1.0
  0
MTEXT
  5
C9
330
C1
100
AcDbEntity
  8
0
  6
Continuous
 62
     0
370
     0
100
AcDbMText
 10
0.0
 20
-177.7733129877
 30
0.0
 40
25.0
 41
0.0
 71
     1
 72
     1
  1
entitled to ECO Schulte.
  7
SLDTEXTSTYLE0
 73
     1
 44
1.0
  0
ENDBLK
  5
C3
330
C1
100
AcDbEntity
  8
0
100
AcDbBlockEnd
  0
BLOCK
  5
2B0
330
2AF
100
AcDbEntity
  8
0
100
AcDbBlockBegin
  2
_D
 70
     0
 10
0.0
 20
0.0
 30
0.0
  3
_D
  1

  0
ARC
  5
2B2
330
2AF
100
AcDbEntity
  8
FORMAT
100
AcDbCircle
 10
317.8565757211
 20
1026.4966586891
 30
0.0
 40
30.02775295949314
100
AcDbArc
 50
153.4349488229
 51
206.5650511771
  0
ARC
  5
2B3
330
2AF
100
AcDbEntity
  8
FORMAT
100
AcDbCircle
 10
304.2454639311
 20
1026.4966586891
 30
0.0
 40
30.02775295949314
100
AcDbArc
 50
333.4349488229
 51
26.5650511771
  0
SOLID
  5
2B4
330
2AF
100
AcDbEntity
  8
FORMAT
100
AcDbTrace
 10
226.5510204082
 20
1013.0678393233
 30
0.0
 11
243.0610204082
 21
1010.5278393233
 31
0.0
 12
243.0610204082
 22
1015.6078393233
 32
0.0
 13
243.0610204082
 23
1015.6078393233
 33
0.0
  0
SOLID
  5
2B5
330
2AF
100
AcDbEntity
  8
FORMAT
100
AcDbTrace
 10
395.5510204082
 20
1013.0678393233
 30
0.0
 11
379.0410204082
 21
1015.6078393233
 31
0.0
 12
379.0410204082
 22
1010.5278393233
 32
0.0
 13
379.0410204082
 23
1010.5278393233
 33
0.0
  0
LINE
  5
2B6
330
2AF
100
AcDbEntity
  8
FORMAT
100
AcDbLine
 10
395.5510204082
 20
1141.037755102
 30
0.0
 11
395.5510204082
 21
1008.0678393233
 31
0.0
  0
LINE
  5
2B7
330
2AF
100
AcDbEntity
  8
FORMAT
100
AcDbLine
 10
226.5510204082
 20
1013.0678393233
 30
0.0
 11
395.5510204082
 21
1013.0678393233
 31
0.0
  0
MTEXT
  5
2B8
330
2AF
100
AcDbEntity
  8
FORMAT
100
AcDbMText
 10
290.9989369895
 20
1035.6265259335
 30
0.0
 40
17.5
 41
0.0
 71
     1
 72
     1
  1
169
  7
SLDTEXTSTYLE0
 73
     1
 44
1.0
  0
ENDBLK
  5
2B1
330
2AF
100
AcDbEntity
  8
0
100
AcDbBlockEnd
  0
BLOCK
  5
2BB
330
2BA
100
AcDbEntity
  8
0
100
AcDbBlockBegin
  2
_D_1
 70
     0
 10
0.0
 20
0.0
 30
0.0
  3
_D_1
  1

  0
SOLID
  5
2BD
330
2BA
100
AcDbEntity
  8
FORMAT
100
AcDbTrace
 10
226.5510204082
 20
1322.537755102
 30
0.0
 11
243.0610204082
 21
1319.997755102
 31
0.0
 12
243.0610204082
 22
1325.077755102
 32
0.0
 13
243.0610204082
 23
1325.077755102
 33
0.0
  0
SOLID
  5
2BE
330
2BA
100
AcDbEntity
  8
FORMAT
100
AcDbTrace
 10
323.0510204082
 20
1322.537755102
 30
0.0
 11
306.5410204082
 21
1325.077755102
 31
0.0
 12
306.5410204082
 22
1319.997755102
 32
0.0
 13
306.5410204082
 23
1319.997755102
 33
0.0
  0
LINE
  5
2BF
330
2BA
100
AcDbEntity
  8
FORMAT
100
AcDbLine
 10
226.5510204082
 20
1081.3855285775
 30
0.0
 11
226.5510204082
 21
1327.537755102
 31
0.0
  0
LINE
  5
2C0
330
2BA
100
AcDbEntity
  8
FORMAT
100
AcDbLine
 10
323.0510204082
 20
1215.537755102
 30
0.0
 11
323.0510204082
 21
1327.537755102
 31
0.0
  0
LINE
  5
2C1
330
2BA
100
AcDbEntity
  8
FORMAT
100
AcDbLine
 10
226.5510204082
 20
1322.537755102
 30
0.0
 11
323.0510204082
 21
1322.537755102
 31
0.0
  0
MTEXT
  5
2C2
330
2BA
100
AcDbEntity
  8
FORMAT
100
AcDbMText
 10
251.4069237654
 20
1345.0964417122
 30
0.0
 40
17.5
 41
0.0
 71
     1
 72
     1
  1
96,5
  7
SLDTEXTSTYLE0
 73
     1
 44
1.0
  0
ENDBLK
  5
2BC
330
2BA
100
AcDbEntity
  8
0
100
AcDbBlockEnd
  0
BLOCK
  5
2C5
330
2C4
100
AcDbEntity
  8
0
100
AcDbBlockBegin
  2
_D_2
 70
     0
 10
0.0
 20
0.0
 30
0.0
  3
_D_2
  1

  0
SOLID
  5
2C7
330
2C4
100
AcDbEntity
  8
FORMAT
100
AcDbTrace
 10
323.0510204082
 20
1318.037755102
 30
0.0
 11
339.5610204082
 21
1315.497755102
 31
0.0
 12
339.5610204082
 22
1320.577755102
 32
0.0
 13
339.5610204082
 23
1320.577755102
 33
0.0
  0
SOLID
  5
2C8
330
2C4
100
AcDbEntity
  8
FORMAT
100
AcDbTrace
 10
1121.5510204082
 20
1318.037755102
 30
0.0
 11
1105.0410204082
 21
1320.577755102
 31
0.0
 12
1105.0410204082
 22
1315.497755102
 32
0.0
 13
1105.0410204082
 23
1315.497755102
 33
0.0
  0
LINE
  5
2C9
330
2C4
100
AcDbEntity
  8
FORMAT
100
AcDbLine
 10
323.0510204082
 20
1215.537755102
 30
0.0
 11
323.0510204082
 21
1323.037755102
 31
0.0
  0
LINE
  5
2CA
330
2C4
100
AcDbEntity
  8
FORMAT
100
AcDbLine
 10
1121.5510204082
 20
1215.537755102
 30
0.0
 11
1121.5510204082
 21
1323.037755102
 31
0.0
  0
LINE
  5
2CB
330
2C4
100
AcDbEntity
  8
FORMAT
100
AcDbLine
 10
323.0510204082
 20
1318.037755102
 30
0.0
 11
1121.5510204082
 21
1318.037755102
 31
0.0
  0
MTEXT
  5
2CC
330
2C4
100
AcDbEntity
  8
FORMAT
100
AcDbMText
 10
692.2228961532
 20
1340.5964417122
 30
0.0
 40
17.5
 41
0.0
 71
     1
 72
     1
  1
798,5
  7
SLDTEXTSTYLE0
 73
     1
 44
1.0
  0
ENDBLK
  5
2C6
330
2C4
100
AcDbEntity
  8
0
100
AcDbBlockEnd
  0
BLOCK
  5
2F6
330
2F5
100
AcDbEntity
  8
0
100
AcDbBlockBegin
  2
_D_3
 70
     0
 10
0.0
 20
0.0
 30
0.0
  3
_D_3
  1

  0
SOLID
  5
2F8
330
2F5
100
AcDbEntity
  8
FORMAT
100
AcDbTrace
 10
226.5510204082
 20
732.4185536724
 30
0.0
 11
243.0610204082
 21
729.8785536724
 31
0.0
 12
243.0610204082
 22
734.9585536724
 32
0.0
 13
243.0610204082
 23
734.9585536724
 33
0.0
  0
SOLID
  5
2F9
330
2F5
100
AcDbEntity
  8
FORMAT
100
AcDbTrace
 10
338.5510204082
 20
732.4185536724
 30
0.0
 11
322.0410204082
 21
734.9585536724
 31
0.0
 12
322.0410204082
 22
729.8785536724
 32
0.0
 13
322.0410204082
 23
729.8785536724
 33
0.0
  0
LINE
  5
2FA
330
2F5
100
AcDbEntity
  8
FORMAT
100
AcDbLine
 10
226.5510204082
 20
533.2646869696
 30
0.0
 11
226.5510204082
 21
737.4185536724
 31
0.0
  0
LINE
  5
2FB
330
2F5
100
AcDbEntity
  8
FORMAT
100
AcDbLine
 10
338.5510204082
 20
651.2091836735
 30
0.0
 11
338.5510204082
 21
737.4185536724
 31
0.0
  0
LINE
  5
2FC
330
2F5
100
AcDbEntity
  8
FORMAT
100
AcDbLine
 10
226.5510204082
 20
732.4185536724
 30
0.0
 11
338.5510204082
 21
732.4185536724
 31
0.0
  0
MTEXT
  5
2FD
330
2F5
100
AcDbEntity
  8
FORMAT
100
AcDbMText
 10
262.4989375715
 20
754.9772402826
 30
0.0
 40
17.5
 41
0.0
 71
     1
 72
     1
  1
112
  7
SLDTEXTSTYLE0
 73
     1
 44
1.0
  0
ENDBLK
  5
2F7
330
2F5
100
AcDbEntity
  8
0
100
AcDbBlockEnd
  0
BLOCK
  5
301
330
300
100
AcDbEntity
  8
0
100
AcDbBlockBegin
  2
_D_4
 70
     0
 10
0.0
 20
0.0
 30
0.0
  3
_D_4
  1

  0
SOLID
  5
303
330
300
100
AcDbEntity
  8
FORMAT
100
AcDbTrace
 10
338.5510204082
 20
732.4185536724
 30
0.0
 11
355.0610204082
 21
729.8785536724
 31
0.0
 12
355.0610204082
 22
734.9585536724
 32
0.0
 13
355.0610204082
 23
734.9585536724
 33
0.0
  0
SOLID
  5
304
330
300
100
AcDbEntity
  8
FORMAT
100
AcDbTrace
 10
798.5510204082
 20
732.4185536724
 30
0.0
 11
782.0410204082
 21
734.9585536724
 31
0.0
 12
782.0410204082
 22
729.8785536724
 32
0.0
 13
782.0410204082
 23
729.8785536724
 33
0.0
  0
LINE
  5
305
330
300
100
AcDbEntity
  8
FORMAT
100
AcDbLine
 10
338.5510204082
 20
651.2091836735
 30
0.0
 11
338.5510204082
 21
737.4185536724
 31
0.0
  0
LINE
  5
306
330
300
100
AcDbEntity
  8
FORMAT
100
AcDbLine
 10
798.5510204082
 20
651.2091836735
 30
0.0
 11
798.5510204082
 21
737.4185536724
 31
0.0
  0
LINE
  5
307
330
300
100
AcDbEntity
  8
FORMAT
100
AcDbLine
 10
338.5510204082
 20
732.4185536724
 30
0.0
 11
798.5510204082
 21
732.4185536724
 31
0.0
  0
MTEXT
  5
308
330
300
100
AcDbEntity
  8
FORMAT
100
AcDbMText
 10
548.4989375715
 20
754.9772402826
 30
0.0
 40
17.5
 41
0.0
 71
     1
 72
     1
  1
460
  7
SLDTEXTSTYLE0
 73
     1
 44
1.0
  0
ENDBLK
  5
302
330
300
100
AcDbEntity
  8
0
100
AcDbBlockEnd
  0
BLOCK
  5
30C
330
30B
100
AcDbEntity
  8
0
100
AcDbBlockBegin
  2
_D_5
 70
     0
 10
0.0
 20
0.0
 30
0.0
  3
_D_5
  1

  0
SOLID
  5
30E
330
30B
100
AcDbEntity
  8
FORMAT
100
AcDbTrace
 10
859.6125373441
 20
630.2091836735
 30
0.0
 11
857.0725373441
 21
613.6991836735
 31
0.0
 12
862.1525373441
 22
613.6991836735
 32
0.0
 13
862.1525373441
 23
613.6991836735
 33
0.0
  0
SOLID
  5
30F
330
30B
100
AcDbEntity
  8
FORMAT
100
AcDbTrace
 10
859.6125373441
 20
641.2091836735
 30
0.0
 11
862.1525373441
 21
657.7191836735
 31
0.0
 12
857.0725373441
 22
657.7191836735
 32
0.0
 13
857.0725373441
 23
657.7191836735
 33
0.0
  0
LINE
  5
310
330
30B
100
AcDbEntity
  8
FORMAT
100
AcDbLine
 10
808.5510204082
 20
641.2091836735
 30
0.0
 11
864.6125373441
 21
641.2091836735
 31
0.0
  0
LINE
  5
311
330
30B
100
AcDbEntity
  8
FORMAT
100
AcDbLine
 10
859.6125373441
 20
630.2091836735
 30
0.0
 11
859.6125373441
 21
598.4591836735
 31
0.0
  0
LINE
  5
312
330
30B
100
AcDbEntity
  8
FORMAT
100
AcDbLine
 10
859.6125373441
 20
630.2091836735
 30
0.0
 11
859.6125373441
 21
641.2091836735
 31
0.0
  0
LINE
  5
313
330
30B
100
AcDbEntity
  8
FORMAT
100
AcDbLine
 10
859.6125373441
 20
641.2091836735
 30
0.0
 11
859.6125373441
 21
732.052059611
 31
0.0
  0
MTEXT
  5
314
330
30B
100
AcDbEntity
  8
FORMAT
100
AcDbMText
 10
837.0538507339
 20
705.3159491621
 30
0.0
 40
17.5
 41
0.0
 71
     1
 72
     1
  1
11
  7
SLDTEXTSTYLE0
 11
6.123233995736766E-17
 21
1.0
 31
0.0
 73
     1
 44
1.0
  0
ENDBLK
  5
30D
330
30B
100
AcDbEntity
  8
0
100
AcDbBlockEnd
  0
BLOCK
  5
317
330
316
100
AcDbEntity
  8
0
100
AcDbBlockBegin
  2
_D_6
 70
     0
 10
0.0
 20
0.0
 30
0.0
  3
_D_6
  1

  0
SOLID
  5
319
330
316
100
AcDbEntity
  8
FORMAT
100
AcDbTrace
 10
226.5510204082
 20
479.1245568032
 30
0.0
 11
243.0610204082
 21
476.5845568032
 31
0.0
 12
243.0610204082
 22
481.6645568032
 32
0.0
 13
243.0610204082
 23
481.6645568032
 33
0.0
  0
SOLID
  5
31A
330
316
100
AcDbEntity
  8
FORMAT
100
AcDbTrace
 10
348.5510204082
 20
479.1245568032
 30
0.0
 11
332.0410204082
 21
481.6645568032
 31
0.0
 12
332.0410204082
 22
476.5845568032
 32
0.0
 13
332.0410204082
 23
476.5845568032
 33
0.0
  0
LINE
  5
31B
330
316
100
AcDbEntity
  8
FORMAT
100
AcDbLine
 10
348.5510204082
 20
550.2091836735
 30
0.0
 11
348.5510204082
 21
474.1245568032
 31
0.0
  0
LINE
  5
31C
330
316
100
AcDbEntity
  8
FORMAT
100
AcDbLine
 10
226.5510204082
 20
479.1245568032
 30
0.0
 11
348.5510204082
 21
479.1245568032
 31
0.0
  0
MTEXT
  5
31D
330
316
100
AcDbEntity
  8
FORMAT
100
AcDbMText
 10
267.4989375715
 20
501.6832434134
 30
0.0
 40
17.5
 41
0.0
 71
     1
 72
     1
  1
122
  7
SLDTEXTSTYLE0
 73
     1
 44
1.0
  0
ENDBLK
  5
318
330
316
100
AcDbEntity
  8
0
100
AcDbBlockEnd
  0
BLOCK
  5
320
330
31F
100
AcDbEntity
  8
0
100
AcDbBlockBegin
  2
_D_7
 70
     0
 10
0.0
 20
0.0
 30
0.0
  3
_D_7
  1

  0
SOLID
  5
322
330
31F
100
AcDbEntity
  8
FORMAT
100
AcDbTrace
 10
348.5510204082
 20
479.1245568032
 30
0.0
 11
365.0610204082
 21
476.5845568032
 31
0.0
 12
365.0610204082
 22
481.6645568032
 32
0.0
 13
365.0610204082
 23
481.6645568032
 33
0.0
  0
SOLID
  5
323
330
31F
100
AcDbEntity
  8
FORMAT
100
AcDbTrace
 10
508.5510204082
 20
479.1245568032
 30
0.0
 11
492.0410204082
 21
481.6645568032
 31
0.0
 12
492.0410204082
 22
476.5845568032
 32
0.0
 13
492.0410204082
 23
476.5845568032
 33
0.0
  0
LINE
  5
324
330
31F
100
AcDbEntity
  8
FORMAT
100
AcDbLine
 10
348.5510204082
 20
550.2091836735
 30
0.0
 11
348.5510204082
 21
474.1245568032
 31
0.0
  0
LINE
  5
325
330
31F
100
AcDbEntity
  8
FORMAT
100
AcDbLine
 10
508.5510204082
 20
550.2091836735
 30
0.0
 11
508.5510204082
 21
474.1245568032
 31
0.0
  0
LINE
  5
326
330
31F
100
AcDbEntity
  8
FORMAT
100
AcDbLine
 10
348.5510204082
 20
479.1245568032
 30
0.0
 11
508.5510204082
 21
479.1245568032
 31
0.0
  0
MTEXT
  5
327
330
31F
100
AcDbEntity
  8
FORMAT
100
AcDbMText
 10
408.4989375715
 20
501.6832434134
 30
0.0
 40
17.5
 41
0.0
 71
     1
 72
     1
  1
160
  7
SLDTEXTSTYLE0
 73
     1
 44
1.0
  0
ENDBLK
  5
321
330
31F
100
AcDbEntity
  8
0
100
AcDbBlockEnd
  0
BLOCK
  5
32B
330
32A
100
AcDbEntity
  8
0
100
AcDbBlockBegin
  2
_D_8
 70
     0
 10
0.0
 20
0.0
 30
0.0
  3
_D_8
  1

  0
SOLID
  5
32D
330
32A
100
AcDbEntity
  8
FORMAT
100
AcDbTrace
 10
568.5510204082
 20
560.2091836735
 30
0.0
 11
566.0110204082
 21
543.6991836735
 31
0.0
 12
571.0910204082
 22
543.6991836735
 32
0.0
 13
571.0910204082
 23
543.6991836735
 33
0.0
  0
SOLID
  5
32E
330
32A
100
AcDbEntity
  8
FORMAT
100
AcDbTrace
 10
568.5510204082
 20
576.2091836735
 30
0.0
 11
571.0910204082
 21
592.7191836735
 31
0.0
 12
566.0110204082
 22
592.7191836735
 32
0.0
 13
566.0110204082
 23
592.7191836735
 33
0.0
  0
LINE
  5
32F
330
32A
100
AcDbEntity
  8
FORMAT
100
AcDbLine
 10
518.5510204082
 20
560.2091836735
 30
0.0
 11
573.5510204082
 21
560.2091836735
 31
0.0
  0
LINE
  5
330
330
32A
100
AcDbEntity
  8
FORMAT
100
AcDbLine
 10
518.5510204082
 20
576.2091836735
 30
0.0
 11
573.5510204082
 21
576.2091836735
 31
0.0
  0
LINE
  5
331
330
32A
100
AcDbEntity
  8
FORMAT
100
AcDbLine
 10
568.5510204082
 20
560.2091836735
 30
0.0
 11
568.5510204082
 21
495.2092084055
 31
0.0
  0
LINE
  5
332
330
32A
100
AcDbEntity
  8
FORMAT
100
AcDbLine
 10
568.5510204082
 20
560.2091836735
 30
0.0
 11
568.5510204082
 21
576.2091836735
 31
0.0
  0
LINE
  5
333
330
32A
100
AcDbEntity
  8
FORMAT
100
AcDbLine
 10
568.5510204082
 20
576.2091836735
 30
0.0
 11
568.5510204082
 21
607.9591836735
 31
0.0
  0
MTEXT
  5
334
330
32A
100
AcDbEntity
  8
FORMAT
100
AcDbMText
 10
545.992333798
 20
495.2092084055
 30
0.0
 40
17.5
 41
0.0
 71
     1
 72
     1
  1
16
  7
SLDTEXTSTYLE0
 11
6.123233995736766E-17
 21
1.0
 31
0.0
 73
     1
 44
1.0
  0
ENDBLK
  5
32C
330
32A
100
AcDbEntity
  8
0
100
AcDbBlockEnd
  0
BLOCK
  5
337
330
336
100
AcDbEntity
  8
0
100
AcDbBlockBegin
  2
_D_9
 70
     0
 10
0.0
 20
0.0
 30
0.0
  3
_D_9
  1

  0
SOLID
  5
339
330
336
100
AcDbEntity
  8
FORMAT
100
AcDbTrace
 10
623.6505882006
 20
576.2091836735
 30
0.0
 11
621.1105882006
 21
559.6991836735
 31
0.0
 12
626.1905882006
 22
559.6991836735
 32
0.0
 13
626.1905882006
 23
559.6991836735
 33
0.0
  0
SOLID
  5
33A
330
336
100
AcDbEntity
  8
FORMAT
100
AcDbTrace
 10
623.6505882006
 20
630.2091836735
 30
0.0
 11
626.1905882006
 21
646.7191836735
 31
0.0
 12
621.1105882006
 22
646.7191836735
 32
0.0
 13
621.1105882006
 23
646.7191836735
 33
0.0
  0
LINE
  5
33B
330
336
100
AcDbEntity
  8
FORMAT
100
AcDbLine
 10
518.5510204082
 20
576.2091836735
 30
0.0
 11
628.6505882006
 21
576.2091836735
 31
0.0
  0
LINE
  5
33C
330
336
100
AcDbEntity
  8
FORMAT
100
AcDbLine
 10
623.6505882006
 20
576.2091836735
 30
0.0
 11
623.6505882006
 21
486.9630645048
 31
0.0
  0
LINE
  5
33D
330
336
100
AcDbEntity
  8
FORMAT
100
AcDbLine
 10
623.6505882006
 20
576.2091836735
 30
0.0
 11
623.6505882006
 21
630.2091836735
 31
0.0
  0
LINE
  5
33E
330
336
100
AcDbEntity
  8
FORMAT
100
AcDbLine
 10
623.6505882006
 20
630.2091836735
 30
0.0
 11
623.6505882006
 21
661.9591836735
 31
0.0
  0
MTEXT
  5
33F
330
336
100
AcDbEntity
  8
FORMAT
100
AcDbMText
 10
601.0919015905
 20
486.9630645048
 30
0.0
 40
17.5
 41
0.0
 71
     1
 72
     1
  1
54
  7
SLDTEXTSTYLE0
 11
6.123233995736766E-17
 21
1.0
 31
0.0
 73
     1
 44
1.0
  0
ENDBLK
  5
338
330
336
100
AcDbEntity
  8
0
100
AcDbBlockEnd
  0
BLOCK
  5
343
330
342
100
AcDbEntity
  8
0
100
AcDbBlockBegin
  2
_D_10
 70
     0
 10
0.0
 20
0.0
 30
0.0
  3
_D_10
  1

  0
SOLID
  5
345
330
342
100
AcDbEntity
  8
FORMAT
100
AcDbTrace
 10
1082.5510204082
 20
586.0654437814
 30
0.0
 11
1066.0410204082
 21
588.6054437814
 31
0.0
 12
1066.0410204082
 22
583.5254437814
 32
0.0
 13
1066.0410204082
 23
583.5254437814
 33
0.0
  0
SOLID
  5
346
330
342
100
AcDbEntity
  8
FORMAT
100
AcDbTrace
 10
1094.5510204082
 20
586.0654437814
 30
0.0
 11
1111.0610204082
 21
583.5254437814
 31
0.0
 12
1111.0610204082
 22
588.6054437814
 32
0.0
 13
1111.0610204082
 23
588.6054437814
 33
0.0
  0
LINE
  5
347
330
342
100
AcDbEntity
  8
FORMAT
100
AcDbLine
 10
1082.5510204082
 20
634.9091836735
 30
0.0
 11
1082.5510204082
 21
581.0654437814
 31
0.0
  0
LINE
  5
348
330
342
100
AcDbEntity
  8
FORMAT
100
AcDbLine
 10
1094.5510204082
 20
634.9091836735
 30
0.0
 11
1094.5510204082
 21
581.0654437814
 31
0.0
  0
LINE
  5
349
330
342
100
AcDbEntity
  8
FORMAT
100
AcDbLine
 10
1082.5510204082
 20
586.0654437814
 30
0.0
 11
1004.4784963474
 21
586.0654437814
 31
0.0
  0
LINE
  5
34A
330
342
100
AcDbEntity
  8
FORMAT
100
AcDbLine
 10
1082.5510204082
 20
586.0654437814
 30
0.0
 11
1094.5510204082
 21
586.0654437814
 31
0.0
  0
LINE
  5
34B
330
342
100
AcDbEntity
  8
FORMAT
100
AcDbLine
 10
1094.5510204082
 20
586.0654437814
 30
0.0
 11
1126.3010204082
 21
586.0654437814
 31
0.0
  0
MTEXT
  5
34C
330
342
100
AcDbEntity
  8
FORMAT
100
AcDbMText
 10
1004.4784963474
 20
608.6241292274
 30
0.0
 40
17.5
 41
0.0
 71
     1
 72
     1
  1
%%c
  7
SLDTEXTSTYLE0
 73
     1
 44
1.0
  0
MTEXT
  5
34D
330
342
100
AcDbEntity
  8
FORMAT
100
AcDbMText
 10
1029.9932540737
 20
608.6727407734
 30
0.0
 40
17.5
 41
0.0
 71
     1
 72
     1
  1
12
  7
SLDTEXTSTYLE0
 73
     1
 44
1.0
  0
ENDBLK
  5
344
330
342
100
AcDbEntity
  8
0
100
AcDbBlockEnd
  0
BLOCK
  5
350
330
34F
100
AcDbEntity
  8
0
100
AcDbBlockBegin
  2
_D_11
 70
     0
 10
0.0
 20
0.0
 30
0.0
  3
_D_11
  1

  0
SOLID
  5
352
330
34F
100
AcDbEntity
  8
FORMAT
100
AcDbTrace
 10
1088.5510204082
 20
718.6840043866
 30
0.0
 11
1072.0410204082
 21
721.2240043866
 31
0.0
 12
1072.0410204082
 22
716.1440043866
 32
0.0
 13
1072.0410204082
 23
716.1440043866
 33
0.0
  0
SOLID
  5
353
330
34F
100
AcDbEntity
  8
FORMAT
100
AcDbTrace
 10
1104.5510204082
 20
718.6840043866
 30
0.0
 11
1121.0610204082
 21
716.1440043866
 31
0.0
 12
1121.0610204082
 22
721.2240043866
 32
0.0
 13
1121.0610204082
 23
721.2240043866
 33
0.0
  0
LINE
  5
354
330
34F
100
AcDbEntity
  8
FORMAT
100
AcDbLine
 10
1088.5510204082
 20
668.4091836735
 30
0.0
 11
1088.5510204082
 21
723.6840043866
 31
0.0
  0
LINE
  5
355
330
34F
100
AcDbEntity
  8
FORMAT
100
AcDbLine
 10
1104.5510204082
 20
668.4091836735
 30
0.0
 11
1104.5510204082
 21
723.6840043866
 31
0.0
  0
LINE
  5
356
330
34F
100
AcDbEntity
  8
FORMAT
100
AcDbLine
 10
1088.5510204082
 20
718.6840043866
 30
0.0
 11
1056.8010204082
 21
718.6840043866
 31
0.0
  0
LINE
  5
357
330
34F
100
AcDbEntity
  8
FORMAT
100
AcDbLine
 10
1088.5510204082
 20
718.6840043866
 30
0.0
 11
1104.5510204082
 21
718.6840043866
 31
0.0
  0
LINE
  5
358
330
34F
100
AcDbEntity
  8
FORMAT
100
AcDbLine
 10
1104.5510204082
 20
718.6840043866
 30
0.0
 11
1155.6607745195
 21
718.6840043866
 31
0.0
  0
MTEXT
  5
359
330
34F
100
AcDbEntity
  8
FORMAT
100
AcDbMText
 10
1128.9246640707
 20
741.2426909967
 30
0.0
 40
17.5
 41
0.0
 71
     1
 72
     1
  1
16
  7
SLDTEXTSTYLE0
 73
     1
 44
1.0
  0
ENDBLK
  5
351
330
34F
100
AcDbEntity
  8
0
100
AcDbBlockEnd
  0
BLOCK
  5
35C
330
35B
100
AcDbEntity
  8
0
100
AcDbBlockBegin
  2
_D_12
 70
     0
 10
0.0
 20
0.0
 30
0.0
  3
_D_12
  1

  0
SOLID
  5
35E
330
35B
100
AcDbEntity
  8
FORMAT
100
AcDbTrace
 10
1200.3990837792
 20
639.9091836735
 30
0.0
 11
1197.8590837792
 21
623.3991836735
 31
0.0
 12
1202.9390837792
 22
623.3991836735
 32
0.0
 13
1202.9390837792
 23
623.3991836735
 33
0.0
  0
SOLID
  5
35F
330
35B
100
AcDbEntity
  8
FORMAT
100
AcDbTrace
 10
1200.3990837792
 20
654.9091836735
 30
0.0
 11
1202.9390837792
 21
671.4191836735
 31
0.0
 12
1197.8590837792
 22
671.4191836735
 32
0.0
 13
1197.8590837792
 23
671.4191836735
 33
0.0
  0
LINE
  5
360
330
35B
100
AcDbEntity
  8
FORMAT
100
AcDbLine
 10
1118.0510204082
 20
639.9091836735
 30
0.0
 11
1205.3990837792
 21
639.9091836735
 31
0.0
  0
LINE
  5
361
330
35B
100
AcDbEntity
  8
FORMAT
100
AcDbLine
 10
1118.0510204082
 20
654.9091836735
 30
0.0
 11
1205.3990837792
 21
654.9091836735
 31
0.0
  0
LINE
  5
362
330
35B
100
AcDbEntity
  8
FORMAT
100
AcDbLine
 10
1200.3990837792
 20
639.9091836735
 30
0.0
 11
1200.3990837792
 21
608.1591836735
 31
0.0
  0
LINE
  5
363
330
35B
100
AcDbEntity
  8
FORMAT
100
AcDbLine
 10
1200.3990837792
 20
639.9091836735
 30
0.0
 11
1200.3990837792
 21
654.9091836735
 31
0.0
  0
LINE
  5
364
330
35B
100
AcDbEntity
  8
FORMAT
100
AcDbLine
 10
1200.3990837792
 20
654.9091836735
 30
0.0
 11
1200.3990837792
 21
732.052059611
 31
0.0
  0
MTEXT
  5
365
330
35B
100
AcDbEntity
  8
FORMAT
100
AcDbMText
 10
1177.840397169
 20
705.3159491621
 30
0.0
 40
17.5
 41
0.0
 71
     1
 72
     1
  1
15
  7
SLDTEXTSTYLE0
 11
6.123233995736766E-17
 21
1.0
 31
0.0
 73
     1
 44
1.0
  0
ENDBLK
  5
35D
330
35B
100
AcDbEntity
  8
0
100
AcDbBlockEnd
  0
BLOCK
  5
368
330
367
100
AcDbEntity
  8
0
100
AcDbBlockBegin
  2
_D_13
 70
     0
 10
0.0
 20
0.0
 30
0.0
  3
_D_13
  1

  0
SOLID
  5
36A
330
367
100
AcDbEntity
  8
FORMAT
100
AcDbTrace
 10
226.5510204082
 20
775.2091836735
 30
0.0
 11
243.0610204082
 21
772.6691836735
 31
0.0
 12
243.0610204082
 22
777.7491836735
 32
0.0
 13
243.0610204082
 23
777.7491836735
 33
0.0
  0
SOLID
  5
36B
330
367
100
AcDbEntity
  8
FORMAT
100
AcDbTrace
 10
1088.5510204082
 20
775.2091836735
 30
0.0
 11
1072.0410204082
 21
777.7491836735
 31
0.0
 12
1072.0410204082
 22
772.6691836735
 32
0.0
 13
1072.0410204082
 23
772.6691836735
 33
0.0
  0
LINE
  5
36C
330
367
100
AcDbEntity
  8
FORMAT
100
AcDbLine
 10
226.5510204082
 20
533.2646869696
 30
0.0
 11
226.5510204082
 21
780.2091836735
 31
0.0
  0
LINE
  5
36D
330
367
100
AcDbEntity
  8
FORMAT
100
AcDbLine
 10
1088.5510204082
 20
668.4091836735
 30
0.0
 11
1088.5510204082
 21
780.2091836735
 31
0.0
  0
LINE
  5
36E
330
367
100
AcDbEntity
  8
FORMAT
100
AcDbLine
 10
226.5510204082
 20
775.2091836735
 30
0.0
 11
1088.5510204082
 21
775.2091836735
 31
0.0
  0
MTEXT
  5
36F
330
367
100
AcDbEntity
  8
FORMAT
100
AcDbMText
 10
637.4989375715
 20
797.7678702836
 30
0.0
 40
17.5
 41
0.0
 71
     1
 72
     1
  1
862
  7
SLDTEXTSTYLE0
 73
     1
 44
1.0
  0
ENDBLK
  5
369
330
367
100
AcDbEntity
  8
0
100
AcDbBlockEnd
  0
BLOCK
  5
371
330
370
100
AcDbEntity
  8
0
100
AcDbBlockBegin
  2
SW_CENTERMARKSYMBOL_0
 70
     0
 10
0.0
 20
0.0
 30
0.0
  3
SW_CENTERMARKSYMBOL_0
  1

  0
LINE
  5
373
330
370
100
AcDbEntity
  8
FORMAT
 62
     0
100
AcDbLine
 10
0.0
 20
0.0
 30
0.0
 11
0.0
 21
2.5
 31
0.0
  0
LINE
  5
374
330
370
100
AcDbEntity
  8
FORMAT
 62
     0
100
AcDbLine
 10
0.0
 20
0.0
 30
0.0
 11
-2.5
 21
0.0
 31
0.0
  0
LINE
  5
375
330
370
100
AcDbEntity
  8
FORMAT
 62
     0
100
AcDbLine
 10
0.0
 20
0.0
 30
0.0
 11
0.0
 21
-2.5
 31
0.0
  0
LINE
  5
376
330
370
100
AcDbEntity
  8
FORMAT
 62
     0
100
AcDbLine
 10
0.0
 20
0.0
 30
0.0
 11
2.5
 21
0.0
 31
0.0
  0
LINE
  5
377
330
370
100
AcDbEntity
  8
FORMAT
 62
     0
100
AcDbLine
 10
0.0
 20
2.5
 30
0.0
 11
0.0
 21
5.0
 31
0.0
  0
LINE
  5
378
330
370
100
AcDbEntity
  8
FORMAT
 62
     0
100
AcDbLine
 10
-2.5
 20
0.0
 30
0.0
 11
-5.0
 21
0.0
 31
0.0
  0
LINE
  5
379
330
370
100
AcDbEntity
  8
FORMAT
 62
     0
100
AcDbLine
 10
0.0
 20
-2.5
 30
0.0
 11
0.0
 21
-5.0
 31
0.0
  0
LINE
  5
37A
330
370
100
AcDbEntity
  8
FORMAT
 62
     0
100
AcDbLine
 10
2.5
 20
0.0
 30
0.0
 11
5.0
 21
0.0
 31
0.0
  0
ENDBLK
  5
372
330
370
100
AcDbEntity
  8
0
100
AcDbBlockEnd
  0
BLOCK
  5
37D
330
37C
100
AcDbEntity
  8
0
100
AcDbBlockBegin
  2
SW_CENTERMARKSYMBOL_1
 70
     0
 10
0.0
 20
0.0
 30
0.0
  3
SW_CENTERMARKSYMBOL_1
  1

  0
LINE
  5
37F
330
37C
100
AcDbEntity
  8
FORMAT
 62
     0
100
AcDbLine
 10
0.0
 20
0.0
 30
0.0
 11
0.0
 21
2.5
 31
0.0
  0
LINE
  5
380
330
37C
100
AcDbEntity
  8
FORMAT
 62
     0
100
AcDbLine
 10
0.0
 20
0.0
 30
0.0
 11
-2.5
 21
0.0
 31
0.0
  0
LINE
  5
381
330
37C
100
AcDbEntity
  8
FORMAT
 62
     0
100
AcDbLine
 10
0.0
 20
0.0
 30
0.0
 11
0.0
 21
-2.5
 31
0.0
  0
LINE
  5
382
330
37C
100
AcDbEntity
  8
FORMAT
 62
     0
100
AcDbLine
 10
0.0
 20
0.0
 30
0.0
 11
2.5
 21
0.0
 31
0.0
  0
LINE
  5
383
330
37C
100
AcDbEntity
  8
FORMAT
 62
     0
100
AcDbLine
 10
0.0
 20
2.5
 30
0.0
 11
0.0
 21
5.0
 31
0.0
  0
LINE
  5
384
330
37C
100
AcDbEntity
  8
FORMAT
 62
     0
100
AcDbLine
 10
-2.5
 20
0.0
 30
0.0
 11
-5.0
 21
0.0
 31
0.0
  0
LINE
  5
385
330
37C
100
AcDbEntity
  8
FORMAT
 62
     0
100
AcDbLine
 10
0.0
 20
-2.5
 30
0.0
 11
0.0
 21
-5.0
 31
0.0
  0
LINE
  5
386
330
37C
100
AcDbEntity
  8
FORMAT
 62
     0
100
AcDbLine
 10
2.5
 20
0.0
 30
0.0
 11
5.0
 21
0.0
 31
0.0
  0
ENDBLK
  5
37E
330
37C
100
AcDbEntity
  8
0
100
AcDbBlockEnd
  0
BLOCK
  5
389
330
388
100
AcDbEntity
  8
0
100
AcDbBlockBegin
  2
SW_CENTERMARKSYMBOL_2
 70
     0
 10
0.0
 20
0.0
 30
0.0
  3
SW_CENTERMARKSYMBOL_2
  1

  0
LINE
  5
38B
330
388
100
AcDbEntity
  8
FORMAT
 62
     0
100
AcDbLine
 10
0.0
 20
0.0
 30
0.0
 11
0.0
 21
2.5
 31
0.0
  0
LINE
  5
38C
330
388
100
AcDbEntity
  8
FORMAT
 62
     0
100
AcDbLine
 10
0.0
 20
0.0
 30
0.0
 11
-2.5
 21
0.0
 31
0.0
  0
LINE
  5
38D
330
388
100
AcDbEntity
  8
FORMAT
 62
     0
100
AcDbLine
 10
0.0
 20
0.0
 30
0.0
 11
0.0
 21
-2.5
 31
0.0
  0
LINE
  5
38E
330
388
100
AcDbEntity
  8
FORMAT
 62
     0
100
AcDbLine
 10
0.0
 20
0.0
 30
0.0
 11
2.5
 21
0.0
 31
0.0
  0
LINE
  5
38F
330
388
100
AcDbEntity
  8
FORMAT
 62
     0
100
AcDbLine
 10
0.0
 20
2.5
 30
0.0
 11
0.0
 21
5.0
 31
0.0
  0
LINE
  5
390
330
388
100
AcDbEntity
  8
FORMAT
 62
     0
100
AcDbLine
 10
-2.5
 20
0.0
 30
0.0
 11
-5.0
 21
0.0
 31
0.0
  0
LINE
  5
391
330
388
100
AcDbEntity
  8
FORMAT
 62
     0
100
AcDbLine
 10
0.0
 20
-2.5
 30
0.0
 11
0.0
 21
-5.0
 31
0.0
  0
LINE
  5
392
330
388
100
AcDbEntity
  8
FORMAT
 62
     0
100
AcDbLine
 10
2.5
 20
0.0
 30
0.0
 11
5.0
 21
0.0
 31
0.0
  0
ENDBLK
  5
38A
330
388
100
AcDbEntity
  8
0
100
AcDbBlockEnd
  0
BLOCK
  5
395
330
394
100
AcDbEntity
  8
0
100
AcDbBlockBegin
  2
SW_CENTERMARKSYMBOL_3
 70
     0
 10
0.0
 20
0.0
 30
0.0
  3
SW_CENTERMARKSYMBOL_3
  1

  0
LINE
  5
397
330
394
100
AcDbEntity
  8
FORMAT
 62
     0
100
AcDbLine
 10
0.0
 20
0.0
 30
0.0
 11
0.0
 21
2.5
 31
0.0
  0
LINE
  5
398
330
394
100
AcDbEntity
  8
FORMAT
 62
     0
100
AcDbLine
 10
0.0
 20
0.0
 30
0.0
 11
-2.5
 21
0.0
 31
0.0
  0
LINE
  5
399
330
394
100
AcDbEntity
  8
FORMAT
 62
     0
100
AcDbLine
 10
0.0
 20
0.0
 30
0.0
 11
0.0
 21
-2.5
 31
0.0
  0
LINE
  5
39A
330
394
100
AcDbEntity
  8
FORMAT
 62
     0
100
AcDbLine
 10
0.0
 20
0.0
 30
0.0
 11
2.5
 21
0.0
 31
0.0
  0
LINE
  5
39B
330
394
100
AcDbEntity
  8
FORMAT
 62
     0
100
AcDbLine
 10
0.0
 20
2.5
 30
0.0
 11
0.0
 21
5.0
 31
0.0
  0
LINE
  5
39C
330
394
100
AcDbEntity
  8
FORMAT
 62
     0
100
AcDbLine
 10
-2.5
 20
0.0
 30
0.0
 11
-5.0
 21
0.0
 31
0.0
  0
LINE
  5
39D
330
394
100
AcDbEntity
  8
FORMAT
 62
     0
100
AcDbLine
 10
0.0
 20
-2.5
 30
0.0
 11
0.0
 21
-5.0
 31
0.0
  0
LINE
  5
39E
330
394
100
AcDbEntity
  8
FORMAT
 62
     0
100
AcDbLine
 10
2.5
 20
0.0
 30
0.0
 11
5.0
 21
0.0
 31
0.0
  0
ENDBLK
  5
396
330
394
100
AcDbEntity
  8
0
100
AcDbBlockEnd
  0
BLOCK
  5
3A1
330
3A0
100
AcDbEntity
  8
0
100
AcDbBlockBegin
  2
SW_CENTERMARKSYMBOL_4
 70
     0
 10
0.0
 20
0.0
 30
0.0
  3
SW_CENTERMARKSYMBOL_4
  1

  0
LINE
  5
3A3
330
3A0
100
AcDbEntity
  8
FORMAT
 62
     0
100
AcDbLine
 10
0.0
 20
0.0
 30
0.0
 11
0.0
 21
2.5
 31
0.0
  0
LINE
  5
3A4
330
3A0
100
AcDbEntity
  8
FORMAT
 62
     0
100
AcDbLine
 10
0.0
 20
0.0
 30
0.0
 11
-2.5
 21
0.0
 31
0.0
  0
LINE
  5
3A5
330
3A0
100
AcDbEntity
  8
FORMAT
 62
     0
100
AcDbLine
 10
0.0
 20
0.0
 30
0.0
 11
0.0
 21
-2.5
 31
0.0
  0
LINE
  5
3A6
330
3A0
100
AcDbEntity
  8
FORMAT
 62
     0
100
AcDbLine
 10
0.0
 20
0.0
 30
0.0
 11
2.5
 21
0.0
 31
0.0
  0
LINE
  5
3A7
330
3A0
100
AcDbEntity
  8
FORMAT
 62
     0
100
AcDbLine
 10
0.0
 20
2.5
 30
0.0
 11
0.0
 21
5.0
 31
0.0
  0
LINE
  5
3A8
330
3A0
100
AcDbEntity
  8
FORMAT
 62
     0
100
AcDbLine
 10
-2.5
 20
0.0
 30
0.0
 11
-5.0
 21
0.0
 31
0.0
  0
LINE
  5
3A9
330
3A0
100
AcDbEntity
  8
FORMAT
 62
     0
100
AcDbLine
 10
0.0
 20
-2.5
 30
0.0
 11
0.0
 21
-5.0
 31
0.0
  0
LINE
  5
3AA
330
3A0
100
AcDbEntity
  8
FORMAT
 62
     0
100
AcDbLine
 10
2.5
 20
0.0
 30
0.0
 11
5.0
 21
0.0
 31
0.0
  0
ENDBLK
  5
3A2
330
3A0
100
AcDbEntity
  8
0
100
AcDbBlockEnd
  0
BLOCK
  5
3AD
330
3AC
100
AcDbEntity
  8
0
100
AcDbBlockBegin
  2
SW_CENTERMARKSYMBOL_5
 70
     0
 10
0.0
 20
0.0
 30
0.0
  3
SW_CENTERMARKSYMBOL_5
  1

  0
LINE
  5
3AF
330
3AC
100
AcDbEntity
  8
FORMAT
 62
     0
100
AcDbLine
 10
0.0
 20
0.0
 30
0.0
 11
0.0
 21
2.5
 31
0.0
  0
LINE
  5
3B0
330
3AC
100
AcDbEntity
  8
FORMAT
 62
     0
100
AcDbLine
 10
0.0
 20
0.0
 30
0.0
 11
-2.5
 21
0.0
 31
0.0
  0
LINE
  5
3B1
330
3AC
100
AcDbEntity
  8
FORMAT
 62
     0
100
AcDbLine
 10
0.0
 20
0.0
 30
0.0
 11
0.0
 21
-2.5
 31
0.0
  0
LINE
  5
3B2
330
3AC
100
AcDbEntity
  8
FORMAT
 62
     0
100
AcDbLine
 10
0.0
 20
0.0
 30
0.0
 11
2.5
 21
0.0
 31
0.0
  0
LINE
  5
3B3
330
3AC
100
AcDbEntity
  8
FORMAT
 62
     0
100
AcDbLine
 10
0.0
 20
2.5
 30
0.0
 11
0.0
 21
5.0
 31
0.0
  0
LINE
  5
3B4
330
3AC
100
AcDbEntity
  8
FORMAT
 62
     0
100
AcDbLine
 10
-2.5
 20
0.0
 30
0.0
 11
-5.0
 21
0.0
 31
0.0
  0
LINE
  5
3B5
330
3AC
100
AcDbEntity
  8
FORMAT
 62
     0
100
AcDbLine
 10
0.0
 20
-2.5
 30
0.0
 11
0.0
 21
-5.0
 31
0.0
  0
LINE
  5
3B6
330
3AC
100
AcDbEntity
  8
FORMAT
 62
     0
100
AcDbLine
 10
2.5
 20
0.0
 30
0.0
 11
5.0
 21
0.0
 31
0.0
  0
ENDBLK
  5
3AE
330
3AC
100
AcDbEntity
  8
0
100
AcDbBlockEnd
  0
BLOCK
  5
3B9
330
3B8
100
AcDbEntity
  8
0
100
AcDbBlockBegin
  2
SW_CENTERMARKSYMBOL_6
 70
     0
 10
0.0
 20
0.0
 30
0.0
  3
SW_CENTERMARKSYMBOL_6
  1

  0
LINE
  5
3BB
330
3B8
100
AcDbEntity
  8
FORMAT
 62
     0
100
AcDbLine
 10
0.0
 20
0.0
 30
0.0
 11
0.0
 21
2.5
 31
0.0
  0
LINE
  5
3BC
330
3B8
100
AcDbEntity
  8
FORMAT
 62
     0
100
AcDbLine
 10
0.0
 20
0.0
 30
0.0
 11
-2.5
 21
0.0
 31
0.0
  0
LINE
  5
3BD
330
3B8
100
AcDbEntity
  8
FORMAT
 62
     0
100
AcDbLine
 10
0.0
 20
0.0
 30
0.0
 11
0.0
 21
-2.5
 31
0.0
  0
LINE
  5
3BE
330
3B8
100
AcDbEntity
  8
FORMAT
 62
     0
100
AcDbLine
 10
0.0
 20
0.0
 30
0.0
 11
2.5
 21
0.0
 31
0.0
  0
LINE
  5
3BF
330
3B8
100
AcDbEntity
  8
FORMAT
 62
     0
100
AcDbLine
 10
0.0
 20
5.0
 30
0.0
 11
0.0
 21
8.5
 31
0.0
  0
LINE
  5
3C0
330
3B8
100
AcDbEntity
  8
FORMAT
 62
     0
100
AcDbLine
 10
-5.0
 20
0.0
 30
0.0
 11
-8.5
 21
0.0
 31
0.0
  0
LINE
  5
3C1
330
3B8
100
AcDbEntity
  8
FORMAT
 62
     0
100
AcDbLine
 10
0.0
 20
-5.0
 30
0.0
 11
0.0
 21
-8.5
 31
0.0
  0
LINE
  5
3C2
330
3B8
100
AcDbEntity
  8
FORMAT
 62
     0
100
AcDbLine
 10
5.0
 20
0.0
 30
0.0
 11
8.5
 21
0.0
 31
0.0
  0
ENDBLK
  5
3BA
330
3B8
100
AcDbEntity
  8
0
100
AcDbBlockEnd
  0
BLOCK
  5
3C5
330
3C4
100
AcDbEntity
  8
0
100
AcDbBlockBegin
  2
SW_CENTERMARKSYMBOL_7
 70
     0
 10
0.0
 20
0.0
 30
0.0
  3
SW_CENTERMARKSYMBOL_7
  1

  0
LINE
  5
3C7
330
3C4
100
AcDbEntity
  8
FORMAT
 62
     0
100
AcDbLine
 10
0.0
 20
0.0
 30
0.0
 11
0.0
 21
2.5
 31
0.0
  0
LINE
  5
3C8
330
3C4
100
AcDbEntity
  8
FORMAT
 62
     0
100
AcDbLine
 10
0.0
 20
0.0
 30
0.0
 11
-2.5
 21
0.0
 31
0.0
  0
LINE
  5
3C9
330
3C4
100
AcDbEntity
  8
FORMAT
 62
     0
100
AcDbLine
 10
0.0
 20
0.0
 30
0.0
 11
0.0
 21
-2.5
 31
0.0
  0
LINE
  5
3CA
330
3C4
100
AcDbEntity
  8
FORMAT
 62
     0
100
AcDbLine
 10
0.0
 20
0.0
 30
0.0
 11
2.5
 21
0.0
 31
0.0
  0
LINE
  5
3CB
330
3C4
100
AcDbEntity
  8
FORMAT
 62
     0
100
AcDbLine
 10
0.0
 20
5.0
 30
0.0
 11
0.0
 21
8.5
 31
0.0
  0
LINE
  5
3CC
330
3C4
100
AcDbEntity
  8
FORMAT
 62
     0
100
AcDbLine
 10
-5.0
 20
0.0
 30
0.0
 11
-8.5
 21
0.0
 31
0.0
  0
LINE
  5
3CD
330
3C4
100
AcDbEntity
  8
FORMAT
 62
     0
100
AcDbLine
 10
0.0
 20
-5.0
 30
0.0
 11
0.0
 21
-8.5
 31
0.0
  0
LINE
  5
3CE
330
3C4
100
AcDbEntity
  8
FORMAT
 62
     0
100
AcDbLine
 10
5.0
 20
0.0
 30
0.0
 11
8.5
 21
0.0
 31
0.0
  0
ENDBLK
  5
3C6
330
3C4
100
AcDbEntity
  8
0
100
AcDbBlockEnd
  0
BLOCK
  5
3D1
330
3D0
100
AcDbEntity
  8
0
100
AcDbBlockBegin
  2
SW_CENTERMARKSYMBOL_8
 70
     0
 10
0.0
 20
0.0
 30
0.0
  3
SW_CENTERMARKSYMBOL_8
  1

  0
LINE
  5
3D3
330
3D0
100
AcDbEntity
  8
FORMAT
 62
     0
100
AcDbLine
 10
0.0
 20
0.0
 30
0.0
 11
0.0
 21
2.5
 31
0.0
  0
LINE
  5
3D4
330
3D0
100
AcDbEntity
  8
FORMAT
 62
     0
100
AcDbLine
 10
0.0
 20
0.0
 30
0.0
 11
-2.5
 21
0.0
 31
0.0
  0
LINE
  5
3D5
330
3D0
100
AcDbEntity
  8
FORMAT
 62
     0
100
AcDbLine
 10
0.0
 20
0.0
 30
0.0
 11
0.0
 21
-2.5
 31
0.0
  0
LINE
  5
3D6
330
3D0
100
AcDbEntity
  8
FORMAT
 62
     0
100
AcDbLine
 10
0.0
 20
0.0
 30
0.0
 11
2.5
 21
0.0
 31
0.0
  0
LINE
  5
3D7
330
3D0
100
AcDbEntity
  8
FORMAT
 62
     0
100
AcDbLine
 10
0.0
 20
5.0
 30
0.0
 11
0.0
 21
8.5
 31
0.0
  0
LINE
  5
3D8
330
3D0
100
AcDbEntity
  8
FORMAT
 62
     0
100
AcDbLine
 10
-5.0
 20
0.0
 30
0.0
 11
-8.5
 21
0.0
 31
0.0
  0
LINE
  5
3D9
330
3D0
100
AcDbEntity
  8
FORMAT
 62
     0
100
AcDbLine
 10
0.0
 20
-5.0
 30
0.0
 11
0.0
 21
-8.5
 31
0.0
  0
LINE
  5
3DA
330
3D0
100
AcDbEntity
  8
FORMAT
 62
     0
100
AcDbLine
 10
5.0
 20
0.0
 30
0.0
 11
8.5
 21
0.0
 31
0.0
  0
ENDBLK
  5
3D2
330
3D0
100
AcDbEntity
  8
0
100
AcDbBlockEnd
  0
BLOCK
  5
3DD
330
3DC
100
AcDbEntity
  8
0
100
AcDbBlockBegin
  2
SW_CENTERMARKSYMBOL_9
 70
     0
 10
0.0
 20
0.0
 30
0.0
  3
SW_CENTERMARKSYMBOL_9
  1

  0
LINE
  5
3DF
330
3DC
100
AcDbEntity
  8
FORMAT
 62
     0
100
AcDbLine
 10
0.0
 20
0.0
 30
0.0
 11
0.0
 21
2.5
 31
0.0
  0
LINE
  5
3E0
330
3DC
100
AcDbEntity
  8
FORMAT
 62
     0
100
AcDbLine
 10
0.0
 20
0.0
 30
0.0
 11
-2.5
 21
0.0
 31
0.0
  0
LINE
  5
3E1
330
3DC
100
AcDbEntity
  8
FORMAT
 62
     0
100
AcDbLine
 10
0.0
 20
0.0
 30
0.0
 11
0.0
 21
-2.5
 31
0.0
  0
LINE
  5
3E2
330
3DC
100
AcDbEntity
  8
FORMAT
 62
     0
100
AcDbLine
 10
0.0
 20
0.0
 30
0.0
 11
2.5
 21
0.0
 31
0.0
  0
LINE
  5
3E3
330
3DC
100
AcDbEntity
  8
FORMAT
 62
     0
100
AcDbLine
 10
0.0
 20
5.0
 30
0.0
 11
0.0
 21
8.5
 31
0.0
  0
LINE
  5
3E4
330
3DC
100
AcDbEntity
  8
FORMAT
 62
     0
100
AcDbLine
 10
-5.0
 20
0.0
 30
0.0
 11
-8.5
 21
0.0
 31
0.0
  0
LINE
  5
3E5
330
3DC
100
AcDbEntity
  8
FORMAT
 62
     0
100
AcDbLine
 10
0.0
 20
-5.0
 30
0.0
 11
0.0
 21
-8.5
 31
0.0
  0
LINE
  5
3E6
330
3DC
100
AcDbEntity
  8
FORMAT
 62
     0
100
AcDbLine
 10
5.0
 20
0.0
 30
0.0
 11
8.5
 21
0.0
 31
0.0
  0
ENDBLK
  5
3DE
330
3DC
100
AcDbEntity
  8
0
100
AcDbBlockEnd
  0
BLOCK
  5
536
330
535
100
AcDbEntity
  8
0
100
AcDbBlockBegin
  2
SW_HATCH_0
 70
     0
 10
0.0
 20
0.0
 30
0.0
  3
SW_HATCH_0
  1

  0
LINE
  5
538
330
535
100
AcDbEntity
  8
0
  6
Continuous
 62
     0
370
    18
100
AcDbLine
 10
0.0
 20
0.0
 30
0.0
 11
7.0557627241
 21
7.0557627241
 31
0.0
  0
LINE
  5
539
330
535
100
AcDbEntity
  8
0
  6
Continuous
 62
     0
370
    18
100
AcDbLine
 10
-22.4506403027
 20
0.0
 30
0.0
 11
7.0557627241
 21
29.5064030267
 31
0.0
  0
LINE
  5
53A
330
535
100
AcDbEntity
  8
0
  6
Continuous
 62
     0
370
    18
100
AcDbLine
 10
-44.9012806053
 20
0.0
 30
0.0
 11
7.0557627241
 21
51.9570433294
 31
0.0
  0
LINE
  5
53B
330
535
100
AcDbEntity
  8
0
  6
Continuous
 62
     0
370
    18
100
AcDbLine
 10
-47.9442372759
 20
19.4076836321
 30
0.0
 11
-2.351920908
 21
65.0
 31
0.0
  0
LINE
  5
53C
330
535
100
AcDbEntity
  8
0
  6
Continuous
 62
     0
370
    18
100
AcDbLine
 10
-47.9442372759
 20
41.8583239347
 30
0.0
 11
-24.8025612107
 21
65.0
 31
0.0
  0
LINE
  5
53D
330
535
100
AcDbEntity
  8
0
  6
Continuous
 62
     0
370
    18
100
AcDbLine
 10
-47.9442372759
 20
64.3089642374
 30
0.0
 11
-47.2532015134
 21
65.0
 31
0.0
  0
LINE
  5
53E
330
535
100
AcDbEntity
  8
0
  6
Continuous
 62
     0
370
    18
100
AcDbLine
 10
-15.3948775786
 20
-195.0
 30
0.0
 11
7.0557627241
 21
-172.5493596973
 31
0.0
  0
LINE
  5
53F
330
535
100
AcDbEntity
  8
0
  6
Continuous
 62
     0
370
    18
100
AcDbLine
 10
-37.8455178813
 20
-195.0
 30
0.0
 11
7.0557627241
 21
-150.0987193947
 31
0.0
  0
LINE
  5
540
330
535
100
AcDbEntity
  8
0
  6
Continuous
 62
     0
370
    18
100
AcDbLine
 10
-47.9442372759
 20
-182.648079092
 30
0.0
 11
7.0557627241
 21
-127.648079092
 31
0.0
  0
LINE
  5
541
330
535
100
AcDbEntity
  8
0
  6
Continuous
 62
     0
370
    18
100
AcDbLine
 10
-47.9442372759
 20
-160.1974387893
 30
0.0
 11
7.0557627241
 21
-105.1974387893
 31
0.0
  0
LINE
  5
542
330
535
100
AcDbEntity
  8
0
  6
Continuous
 62
     0
370
    18
100
AcDbLine
 10
-47.9442372759
 20
-137.7467984866
 30
0.0
 11
7.0557627241
 21
-82.7467984866
 31
0.0
  0
LINE
  5
543
330
535
100
AcDbEntity
  8
0
  6
Continuous
 62
     0
370
    18
100
AcDbLine
 10
-47.9442372759
 20
-115.296158184
 30
0.0
 11
7.0557627241
 21
-60.296158184
 31
0.0
  0
LINE
  5
544
330
535
100
AcDbEntity
  8
0
  6
Continuous
 62
     0
370
    18
100
AcDbLine
 10
-47.9442372759
 20
-92.8455178813
 30
0.0
 11
7.0557627241
 21
-37.8455178813
 31
0.0
  0
LINE
  5
545
330
535
100
AcDbEntity
  8
0
  6
Continuous
 62
     0
370
    18
100
AcDbLine
 10
-47.9442372759
 20
-70.3948775786
 30
0.0
 11
7.0557627241
 21
-15.3948775786
 31
0.0
  0
LINE
  5
546
330
535
100
AcDbEntity
  8
0
  6
Continuous
 62
     0
370
    18
100
AcDbLine
 10
-47.9442372759
 20
-47.9442372759
 30
0.0
 11
-5.0
 21
-5.0
 31
0.0
  0
LINE
  5
547
330
535
100
AcDbEntity
  8
0
  6
Continuous
 62
     0
370
    18
100
AcDbLine
 10
-47.9442372759
 20
-25.4935969733
 30
0.0
 11
-27.4506403027
 21
-5.0
 31
0.0
  0
ENDBLK
  5
537
330
535
100
AcDbEntity
  8
0
100
AcDbBlockEnd
  0
BLOCK
  5
54B
330
54A
100
AcDbEntity
  8
0
100
AcDbBlockBegin
  2
_D_14
 70
     0
 10
0.0
 20
0.0
 30
0.0
  3
_D_14
  1

  0
SOLID
  5
54D
330
54A
100
AcDbEntity
  8
FORMAT
100
AcDbTrace
 10
1534.6673469365
 20
1274.6384251658
 30
0.0
 11
1518.1573469365
 21
1277.1784251658
 31
0.0
 12
1518.1573469365
 22
1272.0984251658
 32
0.0
 13
1518.1573469365
 23
1272.0984251658
 33
0.0
  0
SOLID
  5
54E
330
54A
100
AcDbEntity
  8
FORMAT
100
AcDbTrace
 10
1582.6673469365
 20
1274.6384251658
 30
0.0
 11
1599.1773469365
 21
1272.0984251658
 31
0.0
 12
1599.1773469365
 22
1277.1784251658
 32
0.0
 13
1599.1773469365
 23
1277.1784251658
 33
0.0
  0
LINE
  5
54F
330
54A
100
AcDbEntity
  8
FORMAT
100
AcDbLine
 10
1534.6673469365
 20
1247.537755102
 30
0.0
 11
1534.6673469365
 21
1279.6384251658
 31
0.0
  0
LINE
  5
550
330
54A
100
AcDbEntity
  8
FORMAT
100
AcDbLine
 10
1582.6673469365
 20
1214.637755102
 30
0.0
 11
1582.6673469365
 21
1279.6384251658
 31
0.0
  0
LINE
  5
551
330
54A
100
AcDbEntity
  8
FORMAT
100
AcDbLine
 10
1534.6673469365
 20
1274.6384251658
 30
0.0
 11
1484.0742370382
 21
1274.6384251658
 31
0.0
  0
LINE
  5
552
330
54A
100
AcDbEntity
  8
FORMAT
100
AcDbLine
 10
1534.6673469365
 20
1274.6384251658
 30
0.0
 11
1582.6673469365
 21
1274.6384251658
 31
0.0
  0
LINE
  5
553
330
54A
100
AcDbEntity
  8
FORMAT
100
AcDbLine
 10
1582.6673469365
 20
1274.6384251658
 30
0.0
 11
1614.4173469365
 21
1274.6384251658
 31
0.0
  0
MTEXT
  5
554
330
54A
100
AcDbEntity
  8
FORMAT
100
AcDbMText
 10
1484.0742370382
 20
1297.197111776
 30
0.0
 40
17.5
 41
0.0
 71
     1
 72
     1
  1
48
  7
SLDTEXTSTYLE0
 73
     1
 44
1.0
  0
ENDBLK
  5
54C
330
54A
100
AcDbEntity
  8
0
100
AcDbBlockEnd
  0
BLOCK
  5
557
330
556
100
AcDbEntity
  8
0
100
AcDbBlockBegin
  2
_D_15
 70
     0
 10
0.0
 20
0.0
 30
0.0
  3
_D_15
  1

  0
SOLID
  5
559
330
556
100
AcDbEntity
  8
FORMAT
100
AcDbTrace
 10
1626.8117120468
 20
1178.037755102
 30
0.0
 11
1624.2717120468
 21
1161.527755102
 31
0.0
 12
1629.3517120468
 22
1161.527755102
 32
0.0
 13
1629.3517120468
 23
1161.527755102
 33
0.0
  0
SOLID
  5
55A
330
556
100
AcDbEntity
  8
FORMAT
100
AcDbTrace
 10
1626.8117120468
 20
1211.437755102
 30
0.0
 11
1629.3517120468
 21
1227.947755102
 31
0.0
 12
1624.2717120468
 22
1227.947755102
 32
0.0
 13
1624.2717120468
 23
1227.947755102
 33
0.0
  0
LINE
  5
55B
330
556
100
AcDbEntity
  8
FORMAT
100
AcDbLine
 10
1585.8673469365
 20
1178.037755102
 30
0.0
 11
1631.8117120468
 21
1178.037755102
 31
0.0
  0
LINE
  5
55C
330
556
100
AcDbEntity
  8
FORMAT
100
AcDbLine
 10
1585.8673469365
 20
1211.437755102
 30
0.0
 11
1631.8117120468
 21
1211.437755102
 31
0.0
  0
LINE
  5
55D
330
556
100
AcDbEntity
  8
FORMAT
100
AcDbLine
 10
1626.8117120468
 20
1178.037755102
 30
0.0
 11
1626.8117120468
 21
1108.2155955762
 31
0.0
  0
LINE
  5
55E
330
556
100
AcDbEntity
  8
FORMAT
100
AcDbLine
 10
1626.8117120468
 20
1178.037755102
 30
0.0
 11
1626.8117120468
 21
1211.437755102
 31
0.0
  0
LINE
  5
55F
330
556
100
AcDbEntity
  8
FORMAT
100
AcDbLine
 10
1626.8117120468
 20
1211.437755102
 30
0.0
 11
1626.8117120468
 21
1243.187755102
 31
0.0
  0
MTEXT
  5
560
330
556
100
AcDbEntity
  8
FORMAT
100
AcDbMText
 10
1604.2530254366
 20
1108.2155955762
 30
0.0
 40
17.5
 41
0.0
 71
     1
 72
     1
  1
33,4
  7
SLDTEXTSTYLE0
 11
2.725767599057743E-15
 21
1.0
 31
0.0
 73
     1
 44
1.0
  0
ENDBLK
  5
558
330
556
100
AcDbEntity
  8
0
100
AcDbBlockEnd
  0
ENDSEC
  0
SECTION
  2
ENTITIES
  0
LINE
  5
CB
330
1F
100
AcDbEntity
  8
FORMAT
  6
Continuous
 62
     7
370
    18
100
AcDbLine
 10
1891.9619397592
 20
177.8962908116
 30
0.0
 11
1515.6217725955
 21
177.8962908116
 31
0.0
  0
LINE
  5
CC
330
1F
100
AcDbEntity
  8
FORMAT
  6
Continuous
 62
     7
370
    18
100
AcDbLine
 10
1891.9619397592
 20
243.7103370959
 30
0.0
 11
2049.7192989288
 21
243.7103370959
 31
0.0
  0
LINE
  5
CD
330
1F
100
AcDbEntity
  8
0
  6
Continuous
 62
     7
370
    18
100
AcDbLine
 10
1823.5503045447
 20
177.8962908116
 30
0.0
 11
1823.5503045447
 21
129.5416792659
 31
0.0
  0
LINE
  5
CE
330
1F
100
AcDbEntity
  8
FORMAT
100
AcDbLine
 10
2049.7192989288
 20
1435.0
 30
0.0
 11
49.7192989288
 21
1435.0
 31
0.0
  0
LINE
  5
CF
330
1F
100
AcDbEntity
  8
FORMAT
100
AcDbLine
 10
49.7192989288
 20
1435.0
 30
0.0
 11
49.7192989288
 21
50.0
 31
0.0
  0
LINE
  5
D0
330
1F
100
AcDbEntity
  8
BEMASSUNG
  6
Continuous
 62
     7
370
    18
100
AcDbLine
 10
1891.9619397592
 20
202.8190379711
 30
0.0
 11
2049.7192989288
 21
202.8190379711
 31
0.0
  0
LINE
  5
D1
330
1F
100
AcDbEntity
  8
FORMAT
100
AcDbLine
 10
49.7192989288
 20
50.0
 30
0.0
 11
2049.7192989288
 21
50.0
 31
0.0
  0
LINE
  5
D2
330
1F
100
AcDbEntity
  8
FORMAT
100
AcDbLine
 10
2049.7192989288
 20
50.0
 30
0.0
 11
2049.7192989288
 21
1435.0
 31
0.0
  0
LINE
  5
D3
330
1F
100
AcDbEntity
  8
0
  6
Continuous
 62
     7
370
    18
100
AcDbLine
 10
1515.6217725955
 20
263.390558872
 30
0.0
 11
1515.6217725955
 21
50.0000114706
 31
0.0
  0
LINE
  5
D4
330
1F
100
AcDbEntity
  8
0
  6
Continuous
 62
     7
370
    18
100
AcDbLine
 10
1975.9965965143
 20
50.0
 30
0.0
 11
1975.9965965143
 21
96.7352007517
 31
0.0
  0
LINE
  5
D5
330
1F
100
AcDbEntity
  8
0
  6
Continuous
 62
     7
370
    18
100
AcDbLine
 10
1515.6217725955
 20
129.5416792659
 30
0.0
 11
2049.7192989288
 21
129.5416792659
 31
0.0
  0
LINE
  5
D6
330
1F
100
AcDbEntity
  8
0
  6
Continuous
 62
     7
370
    18
100
AcDbLine
 10
1891.9619397592
 20
96.7352007517
 30
0.0
 11
2049.7192989288
 21
96.7352007517
 31
0.0
  0
LINE
  5
D7
330
1F
100
AcDbEntity
  8
0
  6
Continuous
 62
     7
370
    18
100
AcDbLine
 10
1515.6217725955
 20
263.390558872
 30
0.0
 11
2049.7862083612
 21
263.390558872
 31
0.0
  0
LINE
  5
D8
330
1F
100
AcDbEntity
  8
0
  6
Continuous
 62
     7
370
    18
100
AcDbLine
 10
1891.9619397592
 20
50.0
 30
0.0
 11
1891.9619397592
 21
263.390558872
 31
0.0
  0
INSERT
  5
D9
330
1F
100
AcDbEntity
  8
0
  6
Continuous
 62
     7
100
AcDbBlockReference
  2
Block2_3_1
 10
363.7005607949
 20
-186.853211606
 30
0.0
  0
INSERT
  5
DA
330
1F
100
AcDbEntity
  8
0
  6
Continuous
 62
     7
100
AcDbBlockReference
  2
Block1_3_1
 10
1929.0096676772
 20
135.4783426579
 30
0.0
  0
INSERT
  5
DB
330
1F
100
AcDbEntity
  8
FORMAT
100
AcDbBlockReference
  2
rechtlicher_Hinweis_Katalogzeichnungen_1
 10
61.5924934591
 20
22.5392837488
 30
0.0
 41
0.5
 42
0.5
 43
0.5
  0
MTEXT
  5
DC
330
1F
100
AcDbEntity
  8
0
  6
Continuous
 62
     7
370
     0
100
AcDbMText
 10
1896.6068211254
 20
117.8638808683
 30
0.0
 40
10.0
 41
0.0
 71
     1
 72
     1
  1
Maßstab:
  7
SLDTEXTSTYLE0
 73
     1
 44
1.0
  0
MTEXT
  5
DD
330
1F
100
AcDbEntity
  8
0
  6
Continuous
 62
     7
370
     0
100
AcDbMText
 10
1989.964486975
 20
89.4490387542
 30
0.0
 40
10.0
 41
0.0
 71
     1
 72
     1
  1
Format
  7
SLDTEXTSTYLE0
 73
     1
 44
1.0
  0
MTEXT
  5
DE
330
1F
100
AcDbEntity
  8
0
  6
Continuous
 62
     7
370
     0
100
AcDbMText
 10
1525.5802784963
 20
254.9870609315
 30
0.0
 40
10.0
 41
0.0
 71
     1
 72
     1
  1
Benennung:
  7
SLDTEXTSTYLE0
 73
     1
 44
1.0
  0
MTEXT
  5
DF
330
1F
100
AcDbEntity
  8
0
  6
Continuous
 62
     7
370
     0
100
AcDbMText
 10
1903.2146711367
 20
89.4490387542
 30
0.0
 40
10.0
 41
0.0
 71
     1
 72
     1
  1
Blatt / von
  7
SLDTEXTSTYLE0
 73
     1
 44
1.0
  0
MTEXT
  5
E0
330
1F
100
AcDbEntity
  8
0
  6
Continuous
 62
     7
370
     0
100
AcDbMText
 10
1933.1947076773
 20
71.926744447
 30
0.0
 40
12.5
 41
0.0
 71
     2
 72
     1
  1
/
  7
SLDTEXTSTYLE0
 73
     1
 44
1.0
  0
MTEXT
  5
E2
330
1F
100
AcDbEntity
  8
0
  6
Continuous
 62
     7
370
     0
100
AcDbMText
 10
1524.4672558013
 20
153.4201776347
 30
0.0
 40
15.875
 41
0.0
 71
     1
 72
     1
  1
D052-57343
  7
SLDTEXTSTYLE3
 73
     1
 44
1.0
  0
MTEXT
  5
E3
330
1F
100
AcDbEntity
  8
0
  6
Continuous
 62
     7
370
     0
100
AcDbMText
 10
1966.0680482893
 20
118.506115318
 30
0.0
 40
10.5833333333
 41
0.0
 71
     1
 72
     1
  1
1:5
  7
SLDTEXTSTYLE0
 73
     1
 44
1.0
  0
MTEXT
  5
E4
330
1F
100
AcDbEntity
  8
0
  6
Continuous
 62
     7
370
     0
100
AcDbMText
 10
2002.6778352352
 20
70.8624964679
 30
0.0
 40
10.5833333333
 41
0.0
 71
     1
 72
     1
  1
A3
  7
SLDTEXTSTYLE0
 73
     1
 44
1.0
  0
MTEXT
  5
E5
330
1F
100
AcDbEntity
  8
0
  6
Continuous
 62
     7
370
     0
100
AcDbMText
 10
1914.3095753637
 20
71.4030339727
 30
0.0
 40
10.5833333333
 41
0.0
 71
     1
 72
     1
  1
1
  7
SLDTEXTSTYLE0
 73
     1
 44
1.0
  0
MTEXT
  5
E6
330
1F
100
AcDbEntity
  8
0
  6
Continuous
 62
     7
370
     0
100
AcDbMText
 10
1944.6721839709
 20
71.4030339727
 30
0.0
 40
10.5833333333
 41
0.0
 71
     1
 72
     1
  1
1
  7
SLDTEXTSTYLE0
 73
     1
 44
1.0
  0
MTEXT
  5
E7
330
1F
100
AcDbEntity
  8
FORMAT
100
AcDbMText
 10
1527.1223004557
 20
172.0929629779
 30
0.0
 40
10.0
 41
0.0
 71
     1
 72
     1
  1
Zeichnungsnummer:
  7
SLDTEXTSTYLE0
 73
     1
 44
1.0
  0
MTEXT
  5
E8
330
1F
100
AcDbEntity
  8
FORMAT
100
AcDbMText
 10
1904.7309528226
 20
258.0048002759
 30
0.0
 40
9.0
 41
0.0
 71
     1
 72
     1
  1
KATALOGZEICHNUNG
  7
SLDTEXTSTYLE3
 73
     1
 44
1.0
  0
MTEXT
  5
E9
330
1F
100
AcDbEntity
  8
FORMAT
100
AcDbMText
 10
1838.1864689423
 20
172.1727058453
 30
0.0
 40
10.0
 41
0.0
 71
     1
 72
     1
  1
Index:
  7
SLDTEXTSTYLE0
 73
     1
 44
1.0
  0
MTEXT
  5
EA
330
1F
100
AcDbEntity
  8
BEMASSUNG
 62
     7
100
AcDbMText
 10
1895.9823479349
 20
239.6819657777
 30
0.0
 40
10.0
 41
0.0
 71
     1
 72
     1
  1
Ausführung:
  7
SLDTEXTSTYLE0
 73
     1
 44
1.0
  0
MTEXT
  5
EB
330
1F
100
AcDbEntity
  8
FORMAT
100
AcDbMText
 10
1524.6077310754
 20
197.9623926292
 30
0.0
 40
12.5
 41
0.0
 71
     1
 72
     1
  1
Normalmontage Bandgegenseite DIN L
  7
SLDTEXTSTYLE3
 73
     1
 44
1.0
  0
MTEXT
  5
EC
330
1F
100
AcDbEntity
  8
FORMAT
100
AcDbMText
 10
1524.6077310754
 20
215.0867997196
 30
0.0
 40
12.5
 41
0.0
 71
     1
 72
     1
  1
Direktmontage
  7
SLDTEXTSTYLE3
 73
     1
 44
1.0
  0
MTEXT
  5
ED
330
1F
100
AcDbEntity
  8
FORMAT
100
AcDbMText
 10
1524.6077310754
 20
238.0652926703
 30
0.0
 40
17.5
 41
0.0
 71
     1
 72
     1
  1
ECO R III
  7
SLDTEXTSTYLE3
 73
     1
 44
1.0
  0
LINE
  5
EE
330
1F
100
AcDbEntity
  8
0
  6
Continuous
 62
     7
370
    25
100
AcDbLine
 10
737.9965479867
 20
1167.937755102
 30
0.0
 11
737.9965479867
 21
1168.537755102
 31
0.0
  0
LINE
  5
EF
330
1F
100
AcDbEntity
  8
0
  6
Continuous
 62
     7
370
    25
100
AcDbLine
 10
724.9965479867
 20
1168.537755102
 30
0.0
 11
724.9965479867
 21
1167.937755102
 31
0.0
  0
ARC
  5
F0
330
1F
100
AcDbEntity
  8
0
  6
Continuous
 62
     7
370
    25
100
AcDbCircle
 10
725.3965479867
 20
1167.937755102
 30
0.0
 40
0.4000000000000909
100
AcDbArc
 50
180.0
 51
270.0
  0
ARC
  5
F1
330
1F
100
AcDbEntity
  8
0
  6
Continuous
 62
     7
370
    25
100
AcDbCircle
 10
737.5965479867
 20
1167.937755102
 30
0.0
 40
0.4000000000000909
100
AcDbArc
 50
270.0
 51
0.0
  0
LINE
  5
F2
330
1F
100
AcDbEntity
  8
0
  6
Continuous
 62
     7
370
    25
100
AcDbLine
 10
736.4965479867
 20
1172.537755102
 30
0.0
 11
736.4965479867
 21
1173.037755102
 31
0.0
  0
LINE
  5
F3
330
1F
100
AcDbEntity
  8
0
  6
Continuous
 62
     7
370
    25
100
AcDbLine
 10
726.4965479867
 20
1173.037755102
 30
0.0
 11
726.4965479867
 21
1172.537755102
 31
0.0
  0
LINE
  5
F4
330
1F
100
AcDbEntity
  8
0
  6
Continuous
 62
     7
370
    25
100
AcDbLine
 10
727.4965479867
 20
1174.5841652636
 30
0.0
 11
728.0965479867
 21
1174.237755102
 31
0.0
  0
LINE
  5
F5
330
1F
100
AcDbEntity
  8
0
  6
Continuous
 62
     7
370
    25
100
AcDbLine
 10
734.8965479867
 20
1174.237755102
 30
0.0
 11
735.4965479867
 21
1174.5841652636
 31
0.0
  0
LINE
  5
F6
330
1F
100
AcDbEntity
  8
0
  6
Continuous
 62
     7
370
    25
100
AcDbLine
 10
735.4965479867
 20
1174.5841652636
 30
0.0
 11
735.4965479867
 21
1177.287755102
 31
0.0
  0
LINE
  5
F7
330
1F
100
AcDbEntity
  8
0
  6
Continuous
 62
     7
370
    25
100
AcDbLine
 10
727.4965479867
 20
1177.287755102
 30
0.0
 11
727.4965479867
 21
1174.5841652636
 31
0.0
  0
LINE
  5
F8
330
1F
100
AcDbEntity
  8
0
  6
Continuous
 62
     7
370
    25
100
AcDbLine
 10
734.8965479867
 20
1173.037755102
 30
0.0
 11
734.8965479867
 21
1174.237755102
 31
0.0
  0
LINE
  5
F9
330
1F
100
AcDbEntity
  8
0
  6
Continuous
 62
     7
370
    25
100
AcDbLine
 10
728.0965479867
 20
1174.237755102
 30
0.0
 11
728.0965479867
 21
1173.037755102
 31
0.0
  0
LINE
  5
FA
330
1F
100
AcDbEntity
  8
0
  6
HIDDEN
 62
     7
370
    25
100
AcDbLine
 10
379.5510204082
 20
1161.237755102
 30
0.0
 11
379.5510204082
 21
1159.737755102
 31
0.0
  0
LINE
  5
FB
330
1F
100
AcDbEntity
  8
0
  6
HIDDEN
 62
     7
370
    25
100
AcDbLine
 10
411.5510204082
 20
1159.737755102
 30
0.0
 11
411.5510204082
 21
1161.237755102
 31
0.0
  0
ARC
  5
FC
330
1F
100
AcDbEntity
  8
0
  6
HIDDEN
 62
     7
370
    25
100
AcDbCircle
 10
381.5510204082
 20
1161.237755102
 30
0.0
 40
2.000000000000057
100
AcDbArc
 50
90.0
 51
180.0
  0
ARC
  5
FD
330
1F
100
AcDbEntity
  8
0
  6
HIDDEN
 62
     7
370
    25
100
AcDbCircle
 10
409.5510204082
 20
1161.237755102
 30
0.0
 40
2.000000000000057
100
AcDbArc
 50
0.0
 51
90.0
  0
LINE
  5
FE
330
1F
100
AcDbEntity
  8
0
  6
Continuous
 62
     7
370
    25
100
AcDbLine
 10
385.0510204082
 20
1168.537755102
 30
0.0
 11
385.0510204082
 21
1163.237755102
 31
0.0
  0
LINE
  5
FF
330
1F
100
AcDbEntity
  8
0
  6
Continuous
 62
     7
370
    25
100
AcDbLine
 10
406.0510204082
 20
1163.237755102
 30
0.0
 11
406.0510204082
 21
1168.537755102
 31
0.0
  0
LINE
  5
100
330
1F
100
AcDbEntity
  8
0
  6
Continuous
 62
     7
370
    25
100
AcDbLine
 10
384.5510204082
 20
1172.537755102
 30
0.0
 11
384.5510204082
 21
1168.537755102
 31
0.0
  0
LINE
  5
101
330
1F
100
AcDbEntity
  8
0
  6
Continuous
 62
     7
370
    25
100
AcDbLine
 10
742.4965479867
 20
1168.537755102
 30
0.0
 11
742.4965479867
 21
1172.537755102
 31
0.0
  0
ARC
  5
102
330
1F
100
AcDbEntity
  8
0
  6
HIDDEN
 62
     7
370
    25
100
AcDbCircle
 10
381.4010204082
 20
1094.837755102
 30
0.0
 40
2.000000000000227
100
AcDbArc
 50
180.0
 51
270.0
  0
ARC
  5
103
330
1F
100
AcDbEntity
  8
0
  6
HIDDEN
 62
     7
370
    25
100
AcDbCircle
 10
409.7010204082
 20
1094.837755102
 30
0.0
 40
2.000000000000227
100
AcDbArc
 50
270.0
 51
0.0
  0
LINE
  5
104
330
1F
100
AcDbEntity
  8
0
  6
HIDDEN
 62
     7
370
    25
100
AcDbLine
 10
411.7010204082
 20
1094.837755102
 30
0.0
 11
411.7010204082
 21
1097.337755102
 31
0.0
  0
LINE
  5
105
330
1F
100
AcDbEntity
  8
0
  6
HIDDEN
 62
     7
370
    25
100
AcDbLine
 10
379.4010204082
 20
1097.337755102
 30
0.0
 11
379.4010204082
 21
1094.837755102
 31
0.0
  0
LINE
  5
106
330
1F
100
AcDbEntity
  8
0
  6
Continuous
 62
     7
370
    25
100
AcDbLine
 10
724.2965479867
 20
1178.037755102
 30
0.0
 11
724.2965479867
 21
1177.587755102
 31
0.0
  0
LINE
  5
107
330
1F
100
AcDbEntity
  8
0
  6
Continuous
 62
     7
370
    25
100
AcDbLine
 10
738.6965479867
 20
1177.587755102
 30
0.0
 11
738.6965479867
 21
1178.037755102
 31
0.0
  0
ARC
  5
108
330
1F
100
AcDbEntity
  8
0
  6
Continuous
 62
     7
370
    25
100
AcDbCircle
 10
736.2465479867
 20
1177.587755102
 30
0.0
 40
0.2999999999999545
100
AcDbArc
 50
270.0
 51
0.0
  0
ARC
  5
109
330
1F
100
AcDbEntity
  8
0
  6
Continuous
 62
     7
370
    25
100
AcDbCircle
 10
726.7465479867
 20
1177.587755102
 30
0.0
 40
0.2999999999999545
100
AcDbArc
 50
180.0
 51
270.0
  0
LINE
  5
10A
330
1F
100
AcDbEntity
  8
0
  6
Continuous
 62
     7
370
    25
100
AcDbLine
 10
352.6876313833
 20
1177.8013893411
 30
0.0
 11
352.2657876655
 21
1177.9197124063
 31
0.0
  0
LINE
  5
10B
330
1F
100
AcDbEntity
  8
0
  6
Continuous
 62
     7
370
    25
100
AcDbLine
 10
353.5529945039
 20
1177.4962893411
 30
0.0
 11
353.5540980206
 21
1177.4959135362
 31
0.0
  0
LINE
  5
10C
330
1F
100
AcDbEntity
  8
0
  6
Continuous
 62
     7
370
    25
100
AcDbLine
 10
354.4180552606
 20
1177.4962893411
 30
0.0
 11
354.8410285893
 21
1177.3776704993
 31
0.0
  0
LINE
  5
10D
330
1F
100
AcDbEntity
  8
0
  6
Continuous
 62
     7
370
    25
100
AcDbLine
 10
351.9537133901
 20
1177.8013893411
 30
0.0
 11
351.2800890837
 21
1177.960713294
 31
0.0
  0
LINE
  5
10E
330
1F
100
AcDbEntity
  8
0
  6
Continuous
 62
     7
370
    25
100
AcDbLine
 10
355.1511178205
 20
1177.4962893411
 30
0.0
 11
355.8249156678
 21
1177.3367932681
 31
0.0
  0
LINE
  5
10F
330
1F
100
AcDbEntity
  8
0
  6
Continuous
 62
     7
370
    25
100
AcDbLine
 10
351.0579642224
 20
1177.8560265042
 30
0.0
 11
350.6819823129
 21
1177.9816065675
 31
0.0
  0
LINE
  5
110
330
1F
100
AcDbEntity
  8
0
  6
Continuous
 62
     7
370
    25
100
AcDbLine
 10
356.047049128
 20
1177.4410496851
 30
0.0
 11
356.4209111182
 21
1177.3159042604
 31
0.0
  0
LINE
  5
111
330
1F
100
AcDbEntity
  8
0
  6
Continuous
 62
     7
370
    25
100
AcDbLine
 10
350.5508704068
 20
1177.8065873173
 30
0.0
 11
350.5508704068
 21
1177.4949965618
 31
0.0
  0
LINE
  5
112
330
1F
100
AcDbEntity
  8
0
  6
Continuous
 62
     7
370
    25
100
AcDbLine
 10
356.5511704068
 20
1177.4949965618
 30
0.0
 11
356.5511704068
 21
1177.8065873173
 31
0.0
  0
LINE
  5
113
330
1F
100
AcDbEntity
  8
0
  6
Continuous
 62
     7
370
    25
100
AcDbLine
 10
351.2771251458
 20
1177.3367932681
 30
0.0
 11
351.5368173376
 21
1177.3982655404
 31
0.0
  0
LINE
  5
114
330
1F
100
AcDbEntity
  8
0
  6
Continuous
 62
     7
370
    25
100
AcDbLine
 10
355.82195173
 20
1177.960713294
 30
0.0
 11
355.5544892638
 21
1177.8974537338
 31
0.0
  0
LINE
  5
115
330
1F
100
AcDbEntity
  8
0
  6
Continuous
 62
     7
370
    25
100
AcDbLine
 10
783.5529945039
 20
1177.4962893411
 30
0.0
 11
783.5540980206
 21
1177.4959135362
 31
0.0
  0
LINE
  5
116
330
1F
100
AcDbEntity
  8
0
  6
Continuous
 62
     7
370
    25
100
AcDbLine
 10
782.6876313833
 20
1177.8013893411
 30
0.0
 11
782.2657876655
 21
1177.9197124063
 31
0.0
  0
LINE
  5
117
330
1F
100
AcDbEntity
  8
0
  6
Continuous
 62
     7
370
    25
100
AcDbLine
 10
784.4180552606
 20
1177.4962893411
 30
0.0
 11
784.8410285893
 21
1177.3776704993
 31
0.0
  0
LINE
  5
118
330
1F
100
AcDbEntity
  8
0
  6
Continuous
 62
     7
370
    25
100
AcDbLine
 10
781.9537133901
 20
1177.8013893411
 30
0.0
 11
781.2800890837
 21
1177.960713294
 31
0.0
  0
LINE
  5
119
330
1F
100
AcDbEntity
  8
0
  6
Continuous
 62
     7
370
    25
100
AcDbLine
 10
785.1511178205
 20
1177.4962893411
 30
0.0
 11
785.8249156678
 21
1177.3367932681
 31
0.0
  0
LINE
  5
11A
330
1F
100
AcDbEntity
  8
0
  6
Continuous
 62
     7
370
    25
100
AcDbLine
 10
781.0579642224
 20
1177.8560265042
 30
0.0
 11
780.6819823129
 21
1177.9816065675
 31
0.0
  0
LINE
  5
11B
330
1F
100
AcDbEntity
  8
0
  6
Continuous
 62
     7
370
    25
100
AcDbLine
 10
786.047049128
 20
1177.4410496851
 30
0.0
 11
786.4209111182
 21
1177.3159042604
 31
0.0
  0
LINE
  5
11C
330
1F
100
AcDbEntity
  8
0
  6
Continuous
 62
     7
370
    25
100
AcDbLine
 10
780.5508704068
 20
1177.8065873173
 30
0.0
 11
780.5508704068
 21
1177.4949965618
 31
0.0
  0
LINE
  5
11D
330
1F
100
AcDbEntity
  8
0
  6
Continuous
 62
     7
370
    25
100
AcDbLine
 10
786.5511704068
 20
1177.4949965618
 30
0.0
 11
786.5511704068
 21
1177.8065873173
 31
0.0
  0
LINE
  5
11E
330
1F
100
AcDbEntity
  8
0
  6
Continuous
 62
     7
370
    25
100
AcDbLine
 10
781.2771251458
 20
1177.3367932681
 30
0.0
 11
781.5368173376
 21
1177.3982655404
 31
0.0
  0
LINE
  5
11F
330
1F
100
AcDbEntity
  8
0
  6
Continuous
 62
     7
370
    25
100
AcDbLine
 10
785.82195173
 20
1177.960713294
 30
0.0
 11
785.5544892638
 21
1177.8974537338
 31
0.0
  0
ARC
  5
120
330
1F
100
AcDbEntity
  8
0
  6
Continuous
 62
     7
370
    25
100
AcDbCircle
 10
356.0810204082
 20
1175.8629428014
 30
0.0
 40
0.2700000000000046
100
AcDbArc
 50
302.3360259976
 51
0.0
  0
ARC
  5
121
330
1F
100
AcDbEntity
  8
0
  6
Continuous
 62
     7
370
    25
100
AcDbCircle
 10
351.0210204082
 20
1175.8629428014
 30
0.0
 40
0.2699999999999818
100
AcDbArc
 50
180.0
 51
237.6639740025
  0
LINE
  5
122
330
1F
100
AcDbEntity
  8
0
  6
Continuous
 62
     7
370
    25
100
AcDbLine
 10
356.3510204082
 20
1175.8629428014
 30
0.0
 11
356.3510204082
 21
1177.2594412689
 31
0.0
  0
LINE
  5
123
330
1F
100
AcDbEntity
  8
0
  6
Continuous
 62
     7
370
    25
100
AcDbLine
 10
350.7510204082
 20
1177.2594412689
 30
0.0
 11
350.7510204082
 21
1175.8629428014
 31
0.0
  0
ARC
  5
124
330
1F
100
AcDbEntity
  8
0
  6
Continuous
 62
     7
370
    25
100
AcDbCircle
 10
353.5510204082
 20
1179.8594412689
 30
0.0
 40
4.999999999999877
100
AcDbArc
 50
285.2192781064
 51
302.3360259976
  0
ARC
  5
125
330
1F
100
AcDbEntity
  8
0
  6
Continuous
 62
     7
370
    25
100
AcDbCircle
 10
353.5510204082
 20
1179.8594412689
 30
0.0
 40
4.999999999999939
100
AcDbArc
 50
237.6639740024
 51
254.7807218936
  0
ARC
  5
126
330
1F
100
AcDbEntity
  8
0
  6
Continuous
 62
     7
370
    25
100
AcDbCircle
 10
351.9510204082
 20
1177.3594412689
 30
0.0
 40
0.1000000000000227
100
AcDbArc
 50
270.0
 51
0.0
  0
LINE
  5
127
330
1F
100
AcDbEntity
  8
0
  6
Continuous
 62
     7
370
    25
100
AcDbLine
 10
355.0510204082
 20
1177.9344114886
 30
0.0
 11
355.0510204082
 21
1178.037755102
 31
0.0
  0
ARC
  5
128
330
1F
100
AcDbEntity
  8
0
  6
Continuous
 62
     7
370
    25
100
AcDbCircle
 10
786.0810204082
 20
1175.8629428014
 30
0.0
 40
0.2700000000001055
100
AcDbArc
 50
302.3360259975
 51
0.0
  0
ARC
  5
129
330
1F
100
AcDbEntity
  8
0
  6
Continuous
 62
     7
370
    25
100
AcDbCircle
 10
781.0210204082
 20
1175.8629428014
 30
0.0
 40
0.2700000000002271
100
AcDbArc
 50
180.0
 51
237.6639740024
  0
LINE
  5
12A
330
1F
100
AcDbEntity
  8
0
  6
Continuous
 62
     7
370
    25
100
AcDbLine
 10
786.3510204082
 20
1175.8629428014
 30
0.0
 11
786.3510204082
 21
1177.2594412689
 31
0.0
  0
LINE
  5
12B
330
1F
100
AcDbEntity
  8
0
  6
Continuous
 62
     7
370
    25
100
AcDbLine
 10
780.7510204082
 20
1177.2594412689
 30
0.0
 11
780.7510204082
 21
1175.8629428014
 31
0.0
  0
ARC
  5
12C
330
1F
100
AcDbEntity
  8
0
  6
Continuous
 62
     7
370
    25
100
AcDbCircle
 10
783.5510204082
 20
1179.8594412689
 30
0.0
 40
5.000000000000161
100
AcDbArc
 50
285.2192781064
 51
302.3360259976
  0
ARC
  5
12D
330
1F
100
AcDbEntity
  8
0
  6
Continuous
 62
     7
370
    25
100
AcDbCircle
 10
783.5510204082
 20
1179.8594412689
 30
0.0
 40
5.000000000000161
100
AcDbArc
 50
237.6639740024
 51
254.7807218936
  0
ARC
  5
12E
330
1F
100
AcDbEntity
  8
0
  6
Continuous
 62
     7
370
    25
100
AcDbCircle
 10
781.9510204082
 20
1177.3594412689
 30
0.0
 40
0.1000000000001364
100
AcDbArc
 50
270.0
 51
0.0
  0
LINE
  5
12F
330
1F
100
AcDbEntity
  8
0
  6
Continuous
 62
     7
370
    25
100
AcDbLine
 10
785.0510204082
 20
1177.9344114886
 30
0.0
 11
785.0510204082
 21
1178.037755102
 31
0.0
  0
ARC
  5
130
330
1F
100
AcDbEntity
  8
0
  6
Continuous
 62
     7
370
    25
100
AcDbCircle
 10
322.0510204082
 20
1204.487755102
 30
0.0
 40
1.0
100
AcDbArc
 50
90.0
 51
180.0
  0
ARC
  5
131
330
1F
100
AcDbEntity
  8
0
  6
Continuous
 62
     7
370
    25
100
AcDbCircle
 10
322.0510204082
 20
1196.487755102
 30
0.0
 40
0.9999999999999432
100
AcDbArc
 50
180.0
 51
270.0
  0
LINE
  5
132
330
1F
100
AcDbEntity
  8
0
  6
Continuous
 62
     7
370
    25
100
AcDbLine
 10
323.0510204082
 20
1205.487755102
 30
0.0
 11
322.0510204082
 21
1205.487755102
 31
0.0
  0
LINE
  5
133
330
1F
100
AcDbEntity
  8
0
  6
Continuous
 62
     7
370
    25
100
AcDbLine
 10
322.0510204082
 20
1195.487755102
 30
0.0
 11
323.0510204082
 21
1195.487755102
 31
0.0
  0
ARC
  5
134
330
1F
100
AcDbEntity
  8
0
  6
Continuous
 62
     7
370
    25
100
AcDbCircle
 10
322.0510204082
 20
1192.987755102
 30
0.0
 40
1.0
100
AcDbArc
 50
90.0
 51
180.0
  0
ARC
  5
135
330
1F
100
AcDbEntity
  8
0
  6
Continuous
 62
     7
370
    25
100
AcDbCircle
 10
322.0510204082
 20
1184.987755102
 30
0.0
 40
1.0
100
AcDbArc
 50
180.0
 51
270.0
  0
LINE
  5
136
330
1F
100
AcDbEntity
  8
0
  6
Continuous
 62
     7
370
    25
100
AcDbLine
 10
323.0510204082
 20
1193.987755102
 30
0.0
 11
322.0510204082
 21
1193.987755102
 31
0.0
  0
LINE
  5
137
330
1F
100
AcDbEntity
  8
0
  6
Continuous
 62
     7
370
    25
100
AcDbLine
 10
322.0510204082
 20
1183.987755102
 30
0.0
 11
323.0510204082
 21
1183.987755102
 31
0.0
  0
LINE
  5
138
330
1F
100
AcDbEntity
  8
0
  6
Continuous
 62
     7
370
    25
100
AcDbLine
 10
737.5965479867
 20
1167.537755102
 30
0.0
 11
725.3965479867
 21
1167.537755102
 31
0.0
  0
LINE
  5
139
330
1F
100
AcDbEntity
  8
0
  6
Continuous
 62
     7
370
    25
100
AcDbLine
 10
731.4965479867
 20
1173.037755102
 30
0.0
 11
726.4965479867
 21
1173.037755102
 31
0.0
  0
LINE
  5
13A
330
1F
100
AcDbEntity
  8
0
  6
Continuous
 62
     7
370
    25
100
AcDbLine
 10
736.4965479867
 20
1173.037755102
 30
0.0
 11
731.4965479867
 21
1173.037755102
 31
0.0
  0
LINE
  5
13B
330
1F
100
AcDbEntity
  8
0
  6
Continuous
 62
     7
370
    25
100
AcDbLine
 10
731.4965479867
 20
1174.5841652636
 30
0.0
 11
727.4965479867
 21
1174.5841652636
 31
0.0
  0
LINE
  5
13C
330
1F
100
AcDbEntity
  8
0
  6
Continuous
 62
     7
370
    25
100
AcDbLine
 10
735.4965479867
 20
1174.5841652636
 30
0.0
 11
731.4965479867
 21
1174.5841652636
 31
0.0
  0
LINE
  5
13D
330
1F
100
AcDbEntity
  8
0
  6
Continuous
 62
     7
370
    25
100
AcDbLine
 10
731.4965479867
 20
1174.237755102
 30
0.0
 11
728.0965479867
 21
1174.237755102
 31
0.0
  0
LINE
  5
13E
330
1F
100
AcDbEntity
  8
0
  6
Continuous
 62
     7
370
    25
100
AcDbLine
 10
734.8965479867
 20
1174.237755102
 30
0.0
 11
731.4965479867
 21
1174.237755102
 31
0.0
  0
LINE
  5
13F
330
1F
100
AcDbEntity
  8
0
  6
HIDDEN
 62
     7
370
    25
100
AcDbLine
 10
313.3510204082
 20
1156.487755102
 30
0.0
 11
313.3510204082
 21
1100.587755102
 31
0.0
  0
LINE
  5
140
330
1F
100
AcDbEntity
  8
0
  6
HIDDEN
 62
     7
370
    25
100
AcDbLine
 10
313.3510204082
 20
1156.487755102
 30
0.0
 11
595.7510204082
 21
1156.487755102
 31
0.0
  0
LINE
  5
141
330
1F
100
AcDbEntity
  8
0
  6
HIDDEN
 62
     7
370
    25
100
AcDbLine
 10
595.7510204082
 20
1100.587755102
 30
0.0
 11
595.7510204082
 21
1156.487755102
 31
0.0
  0
LINE
  5
142
330
1F
100
AcDbEntity
  8
0
  6
HIDDEN
 62
     7
370
    25
100
AcDbLine
 10
313.3510204082
 20
1100.587755102
 30
0.0
 11
595.7510204082
 21
1100.587755102
 31
0.0
  0
LINE
  5
143
330
1F
100
AcDbEntity
  8
0
  6
HIDDEN
 62
     7
370
    25
100
AcDbLine
 10
597.5510204082
 20
1156.487755102
 30
0.0
 11
597.5510204082
 21
1100.587755102
 31
0.0
  0
LINE
  5
144
330
1F
100
AcDbEntity
  8
0
  6
HIDDEN
 62
     7
370
    25
100
AcDbLine
 10
595.7510204082
 20
1156.487755102
 30
0.0
 11
597.5510204082
 21
1156.487755102
 31
0.0
  0
LINE
  5
145
330
1F
100
AcDbEntity
  8
0
  6
HIDDEN
 62
     7
370
    25
100
AcDbLine
 10
597.5510204082
 20
1100.587755102
 30
0.0
 11
595.7510204082
 21
1100.587755102
 31
0.0
  0
LINE
  5
146
330
1F
100
AcDbEntity
  8
0
  6
HIDDEN
 62
     7
370
    25
100
AcDbLine
 10
311.5510204082
 20
1100.587755102
 30
0.0
 11
311.5510204082
 21
1156.487755102
 31
0.0
  0
LINE
  5
147
330
1F
100
AcDbEntity
  8
0
  6
HIDDEN
 62
     7
370
    25
100
AcDbLine
 10
311.5510204082
 20
1156.487755102
 30
0.0
 11
313.3510204082
 21
1156.487755102
 31
0.0
  0
LINE
  5
148
330
1F
100
AcDbEntity
  8
0
  6
HIDDEN
 62
     7
370
    25
100
AcDbLine
 10
313.3510204082
 20
1100.587755102
 30
0.0
 11
311.5510204082
 21
1100.587755102
 31
0.0
  0
LINE
  5
149
330
1F
100
AcDbEntity
  8
0
  6
HIDDEN
 62
     7
370
    25
100
AcDbLine
 10
395.5510204082
 20
1163.237755102
 30
0.0
 11
409.5510204082
 21
1163.237755102
 31
0.0
  0
LINE
  5
14A
330
1F
100
AcDbEntity
  8
0
  6
HIDDEN
 62
     7
370
    25
100
AcDbLine
 10
381.5510204082
 20
1163.237755102
 30
0.0
 11
395.5510204082
 21
1163.237755102
 31
0.0
  0
LINE
  5
14B
330
1F
100
AcDbEntity
  8
0
  6
Continuous
 62
     7
370
    25
100
AcDbLine
 10
395.7490858844
 20
1172.537755102
 30
0.0
 11
395.7490858844
 21
1168.537755102
 31
0.0
  0
LINE
  5
14C
330
1F
100
AcDbEntity
  8
0
  6
Continuous
 62
     7
370
    25
100
AcDbLine
 10
384.5510204082
 20
1168.537755102
 30
0.0
 11
395.7490858844
 21
1168.537755102
 31
0.0
  0
LINE
  5
14D
330
1F
100
AcDbEntity
  8
0
  6
Continuous
 62
     7
370
    25
100
AcDbLine
 10
384.5510204082
 20
1172.537755102
 30
0.0
 11
395.7490858844
 21
1172.537755102
 31
0.0
  0
LINE
  5
14E
330
1F
100
AcDbEntity
  8
0
  6
Continuous
 62
     7
370
    25
100
AcDbLine
 10
731.6946134629
 20
1172.537755102
 30
0.0
 11
731.6946134629
 21
1168.537755102
 31
0.0
  0
LINE
  5
14F
330
1F
100
AcDbEntity
  8
0
  6
Continuous
 62
     7
370
    25
100
AcDbLine
 10
395.7490858844
 20
1168.537755102
 30
0.0
 11
731.6946134629
 21
1168.537755102
 31
0.0
  0
LINE
  5
150
330
1F
100
AcDbEntity
  8
0
  6
Continuous
 62
     7
370
    25
100
AcDbLine
 10
395.7490858844
 20
1172.537755102
 30
0.0
 11
731.6946134629
 21
1172.537755102
 31
0.0
  0
LINE
  5
151
330
1F
100
AcDbEntity
  8
0
  6
Continuous
 62
     7
370
    25
100
AcDbLine
 10
731.6946134629
 20
1168.537755102
 30
0.0
 11
742.4965479867
 21
1168.537755102
 31
0.0
  0
LINE
  5
152
330
1F
100
AcDbEntity
  8
0
  6
Continuous
 62
     7
370
    25
100
AcDbLine
 10
731.6946134629
 20
1172.537755102
 30
0.0
 11
742.4965479867
 21
1172.537755102
 31
0.0
  0
LINE
  5
153
330
1F
100
AcDbEntity
  8
0
  6
HIDDEN
 62
     7
370
    25
100
AcDbLine
 10
409.7010204082
 20
1092.837755102
 30
0.0
 11
381.4010204082
 21
1092.837755102
 31
0.0
  0
LINE
  5
154
330
1F
100
AcDbEntity
  8
0
  6
HIDDEN
 62
     7
370
    25
100
AcDbLine
 10
313.2510204082
 20
1159.737755102
 30
0.0
 11
313.2510204082
 21
1156.737755102
 31
0.0
  0
LINE
  5
155
330
1F
100
AcDbEntity
  8
0
  6
HIDDEN
 62
     7
370
    25
100
AcDbLine
 10
313.2510204082
 20
1159.737755102
 30
0.0
 11
595.8510204082
 21
1159.737755102
 31
0.0
  0
LINE
  5
156
330
1F
100
AcDbEntity
  8
0
  6
HIDDEN
 62
     7
370
    25
100
AcDbLine
 10
595.8510204082
 20
1156.737755102
 30
0.0
 11
595.8510204082
 21
1159.737755102
 31
0.0
  0
LINE
  5
157
330
1F
100
AcDbEntity
  8
0
  6
HIDDEN
 62
     7
370
    25
100
AcDbLine
 10
313.2510204082
 20
1156.737755102
 30
0.0
 11
595.8510204082
 21
1156.737755102
 31
0.0
  0
LINE
  5
158
330
1F
100
AcDbEntity
  8
0
  6
HIDDEN
 62
     7
370
    25
100
AcDbLine
 10
311.2510204082
 20
1156.737755102
 30
0.0
 11
311.2510204082
 21
1158.5888425759
 31
0.0
  0
SPLINE
  5
159
330
1F
100
AcDbEntity
  8
0
  6
HIDDEN
 62
     7
370
    25
100
AcDbSpline
210
0.0
220
0.0
230
1.0
 70
     8
 71
     3
 72
    10
 73
     6
 74
     0
 42
0.00000001
 43
0.00000001
 40
0.0
 40
0.0
 40
0.0
 40
0.0
 40
0.3434322050965674
 40
0.686164401676014
 40
1.0
 40
1.0
 40
1.0
 40
1.0
 10
311.251020408163
 20
1158.588842575856
 30
0.0
 10
311.2579028415577
 20
1158.689467640756
 30
0.0
 10
311.2716536800706
 20
1158.890512669223
 30
0.0
 10
311.3309639140555
 20
1159.302266249534
 30
0.0
 10
311.3392035200411
 20
1159.596914802487
 30
0.0
 10
311.3431420039182
 20
1159.73775510204
 30
0.0
  0
LINE
  5
15A
330
1F
100
AcDbEntity
  8
0
  6
HIDDEN
 62
     7
370
    25
100
AcDbLine
 10
311.3431420039
 20
1159.737755102
 30
0.0
 11
313.2510204082
 21
1159.737755102
 31
0.0
  0
LINE
  5
15B
330
1F
100
AcDbEntity
  8
0
  6
HIDDEN
 62
     7
370
    25
100
AcDbLine
 10
313.2510204082
 20
1156.737755102
 30
0.0
 11
311.2510204082
 21
1156.737755102
 31
0.0
  0
SPLINE
  5
15C
330
1F
100
AcDbEntity
  8
0
  6
HIDDEN
 62
     7
370
    25
100
AcDbSpline
210
0.0
220
0.0
230
1.0
 70
     8
 71
     3
 72
    10
 73
     6
 74
     0
 42
0.00000001
 43
0.00000001
 40
0.0
 40
0.0
 40
0.0
 40
0.0
 40
0.3436775013766934
 40
0.6868902601229933
 40
0.9999999999999999
 40
0.9999999999999999
 40
0.9999999999999999
 40
0.9999999999999999
 10
597.7588988124078
 20
1159.73775510204
 30
0.0
 10
597.763692520099
 20
1159.583406414424
 30
0.0
 10
597.7732734531243
 20
1159.274917759328
 30
0.0
 10
597.8332894064159
 20
1158.869781245115
 30
0.0
 10
597.8452936032103
 20
1158.679580876234
 30
0.0
 10
597.851020408163
 20
1158.588842575856
 30
0.0
  0
LINE
  5
15D
330
1F
100
AcDbEntity
  8
0
  6
HIDDEN
 62
     7
370
    25
100
AcDbLine
 10
597.8510204082
 20
1158.5888425759
 30
0.0
 11
597.8510204082
 21
1156.737755102
 31
0.0
  0
LINE
  5
15E
330
1F
100
AcDbEntity
  8
0
  6
HIDDEN
 62
     7
370
    25
100
AcDbLine
 10
595.8510204082
 20
1159.737755102
 30
0.0
 11
597.7588988124
 21
1159.737755102
 31
0.0
  0
LINE
  5
15F
330
1F
100
AcDbEntity
  8
0
  6
HIDDEN
 62
     7
370
    25
100
AcDbLine
 10
597.8510204082
 20
1156.737755102
 30
0.0
 11
595.8510204082
 21
1156.737755102
 31
0.0
  0
LINE
  5
160
330
1F
100
AcDbEntity
  8
0
  6
HIDDEN
 62
     7
370
    25
100
AcDbLine
 10
313.2510204082
 20
1100.337755102
 30
0.0
 11
313.2510204082
 21
1097.337755102
 31
0.0
  0
LINE
  5
161
330
1F
100
AcDbEntity
  8
0
  6
HIDDEN
 62
     7
370
    25
100
AcDbLine
 10
313.2510204082
 20
1097.337755102
 30
0.0
 11
311.3431420053
 21
1097.337755102
 31
0.0
  0
SPLINE
  5
162
330
1F
100
AcDbEntity
  8
0
  6
HIDDEN
 62
     7
370
    25
100
AcDbSpline
210
0.0
220
0.0
230
1.0
 70
     8
 71
     3
 72
    10
 73
     6
 74
     0
 42
0.00000001
 43
0.00000001
 40
0.0
 40
0.0
 40
0.0
 40
0.0
 40
0.3436774998516932
 40
0.6868902570680364
 40
1.0
 40
1.0
 40
1.0
 40
1.0
 10
311.3431420053291
 20
1097.33775510204
 30
0.0
 10
311.3383482976046
 20
1097.492103789599
 30
0.0
 10
311.3287673645129
 20
1097.800592444576
 30
0.0
 10
311.2687514104028
 20
1098.205728960473
 30
0.0
 10
311.2567472133037
 20
1098.395929329991
 30
0.0
 10
311.251020408163
 20
1098.486667631348
 30
0.0
  0
LINE
  5
163
330
1F
100
AcDbEntity
  8
0
  6
HIDDEN
 62
     7
370
    25
100
AcDbLine
 10
311.2510204082
 20
1098.4866676313
 30
0.0
 11
311.2510204082
 21
1100.337755102
 31
0.0
  0
LINE
  5
164
330
1F
100
AcDbEntity
  8
0
  6
HIDDEN
 62
     7
370
    25
100
AcDbLine
 10
311.2510204082
 20
1100.337755102
 30
0.0
 11
313.2510204082
 21
1100.337755102
 31
0.0
  0
LINE
  5
165
330
1F
100
AcDbEntity
  8
0
  6
HIDDEN
 62
     7
370
    25
100
AcDbLine
 10
597.8510204082
 20
1100.337755102
 30
0.0
 11
597.8510204082
 21
1098.4866676313
 31
0.0
  0
SPLINE
  5
166
330
1F
100
AcDbEntity
  8
0
  6
HIDDEN
 62
     7
370
    25
100
AcDbSpline
210
0.0
220
0.0
230
1.0
 70
     8
 71
     3
 72
    10
 73
     6
 74
     0
 42
0.00000001
 43
0.00000001
 40
0.0
 40
0.0
 40
0.0
 40
0.0
 40
0.3434322035638822
 40
0.6861643986028251
 40
1.0
 40
1.0
 40
1.0
 40
1.0
 10
597.851020408163
 20
1098.486667631348
 30
0.0
 10
597.8441379747364
 20
1098.38604256695
 30
0.0
 10
597.8303871361602
 20
1098.184997539487
 30
0.0
 10
597.7710769012567
 20
1097.773243958432
 30
0.0
 10
597.7628372950222
 20
1097.478595403561
 30
0.0
 10
597.7588988109968
 20
1097.33775510204
 30
0.0
  0
LINE
  5
167
330
1F
100
AcDbEntity
  8
0
  6
HIDDEN
 62
     7
370
    25
100
AcDbLine
 10
597.758898811
 20
1097.337755102
 30
0.0
 11
595.8510204082
 21
1097.337755102
 31
0.0
  0
LINE
  5
168
330
1F
100
AcDbEntity
  8
0
  6
HIDDEN
 62
     7
370
    25
100
AcDbLine
 10
595.8510204082
 20
1097.337755102
 30
0.0
 11
595.8510204082
 21
1100.337755102
 31
0.0
  0
LINE
  5
169
330
1F
100
AcDbEntity
  8
0
  6
HIDDEN
 62
     7
370
    25
100
AcDbLine
 10
595.8510204082
 20
1100.337755102
 30
0.0
 11
597.8510204082
 21
1100.337755102
 31
0.0
  0
LINE
  5
16A
330
1F
100
AcDbEntity
  8
0
  6
HIDDEN
 62
     7
370
    25
100
AcDbLine
 10
313.2510204082
 20
1097.337755102
 30
0.0
 11
595.8510204082
 21
1097.337755102
 31
0.0
  0
LINE
  5
16B
330
1F
100
AcDbEntity
  8
0
  6
HIDDEN
 62
     7
370
    25
100
AcDbLine
 10
313.2510204082
 20
1100.337755102
 30
0.0
 11
595.8510204082
 21
1100.337755102
 31
0.0
  0
LINE
  5
16C
330
1F
100
AcDbEntity
  8
0
  6
HIDDEN
 62
     7
370
    25
100
AcDbLine
 10
596.5510204082
 20
1100.587755102
 30
0.0
 11
596.5510204082
 21
1100.337755102
 31
0.0
  0
LINE
  5
16D
330
1F
100
AcDbEntity
  8
0
  6
HIDDEN
 62
     7
370
    25
100
AcDbLine
 10
595.5510204082
 20
1100.337755102
 30
0.0
 11
595.5510204082
 21
1100.587755102
 31
0.0
  0
LINE
  5
16E
330
1F
100
AcDbEntity
  8
0
  6
HIDDEN
 62
     7
370
    25
100
AcDbLine
 10
313.5510204082
 20
1156.737755102
 30
0.0
 11
313.5510204082
 21
1156.487755102
 31
0.0
  0
LINE
  5
16F
330
1F
100
AcDbEntity
  8
0
  6
HIDDEN
 62
     7
370
    25
100
AcDbLine
 10
595.5510204082
 20
1156.487755102
 30
0.0
 11
595.5510204082
 21
1156.737755102
 31
0.0
  0
LINE
  5
170
330
1F
100
AcDbEntity
  8
0
  6
HIDDEN
 62
     7
370
    25
100
AcDbLine
 10
313.5510204082
 20
1100.587755102
 30
0.0
 11
313.5510204082
 21
1100.337755102
 31
0.0
  0
LINE
  5
171
330
1F
100
AcDbEntity
  8
0
  6
HIDDEN
 62
     7
370
    25
100
AcDbLine
 10
596.5510204082
 20
1156.737755102
 30
0.0
 11
596.5510204082
 21
1156.487755102
 31
0.0
  0
LINE
  5
172
330
1F
100
AcDbEntity
  8
0
  6
HIDDEN
 62
     7
370
    25
100
AcDbLine
 10
312.5510204082
 20
1156.487755102
 30
0.0
 11
312.5510204082
 21
1156.737755102
 31
0.0
  0
LINE
  5
173
330
1F
100
AcDbEntity
  8
0
  6
HIDDEN
 62
     7
370
    25
100
AcDbLine
 10
312.5510204082
 20
1100.337755102
 30
0.0
 11
312.5510204082
 21
1100.587755102
 31
0.0
  0
LINE
  5
174
330
1F
100
AcDbEntity
  8
0
  6
HIDDEN
 62
     7
370
    25
100
AcDbLine
 10
311.2510204082
 20
1097.337755102
 30
0.0
 11
311.3431420053
 21
1097.337755102
 31
0.0
  0
LINE
  5
175
330
1F
100
AcDbEntity
  8
0
  6
HIDDEN
 62
     7
370
    25
100
AcDbLine
 10
597.758898811
 20
1097.337755102
 30
0.0
 11
597.8510204082
 21
1097.337755102
 31
0.0
  0
LINE
  5
176
330
1F
100
AcDbEntity
  8
0
  6
HIDDEN
 62
     7
370
    25
100
AcDbLine
 10
311.2510204082
 20
1098.4890012814
 30
0.0
 11
311.2510204082
 21
1097.337755102
 31
0.0
  0
LINE
  5
177
330
1F
100
AcDbEntity
  8
0
  6
HIDDEN
 62
     7
370
    25
100
AcDbLine
 10
597.8510204082
 20
1098.4866676313
 30
0.0
 11
597.8510204082
 21
1097.337755102
 31
0.0
  0
LINE
  5
178
330
1F
100
AcDbEntity
  8
0
  6
HIDDEN
 62
     7
370
    25
100
AcDbLine
 10
311.2510204082
 20
1159.737755102
 30
0.0
 11
311.2510204082
 21
1158.5888425759
 31
0.0
  0
LINE
  5
179
330
1F
100
AcDbEntity
  8
0
  6
HIDDEN
 62
     7
370
    25
100
AcDbLine
 10
311.2510204082
 20
1159.737755102
 30
0.0
 11
311.3431420039
 21
1159.737755102
 31
0.0
  0
LINE
  5
17A
330
1F
100
AcDbEntity
  8
0
  6
HIDDEN
 62
     7
370
    25
100
AcDbLine
 10
597.7588988124
 20
1159.737755102
 30
0.0
 11
597.8510204082
 21
1159.737755102
 31
0.0
  0
LINE
  5
17B
330
1F
100
AcDbEntity
  8
0
  6
HIDDEN
 62
     7
370
    25
100
AcDbLine
 10
597.8510204082
 20
1159.737755102
 30
0.0
 11
597.8510204082
 21
1158.5888425759
 31
0.0
  0
LINE
  5
17C
330
1F
100
AcDbEntity
  8
0
  6
Continuous
 62
     7
370
    25
100
AcDbLine
 10
738.6965479867
 20
1177.587755102
 30
0.0
 11
724.2965479867
 21
1177.587755102
 31
0.0
  0
LINE
  5
17D
330
1F
100
AcDbEntity
  8
0
  6
Continuous
 62
     7
370
    25
100
AcDbLine
 10
736.2465479867
 20
1177.287755102
 30
0.0
 11
726.7465479867
 21
1177.287755102
 31
0.0
  0
LINE
  5
17E
330
1F
100
AcDbEntity
  8
0
  6
Continuous
 62
     7
370
    25
100
AcDbLine
 10
1121.1175959948
 20
1178.937755102
 30
0.0
 11
1121.5510204082
 21
1178.937755102
 31
0.0
  0
SPLINE
  5
17F
330
1F
100
AcDbEntity
  8
0
  6
Continuous
 62
     7
370
    25
100
AcDbSpline
210
0.0
220
0.0
230
1.0
 70
     8
 71
     3
 72
    11
 73
     7
 74
     0
 42
0.00000001
 43
0.00000001
 40
0.0
 40
0.0
 40
0.0
 40
0.0
 40
0.0427569288137108
 40
0.3618379525424542
 40
0.6809189762712013
 40
1.0
 40
1.0
 40
1.0
 40
1.0
 10
1120.685100100407
 20
1179.132605051528
 30
0.0
 10
1120.682046456281
 20
1179.142655068365
 30
0.0
 10
1120.656204461336
 20
1179.227705085203
 30
0.0
 10
1120.467516373881
 20
1179.387755102041
 30
0.0
 10
1120.145921565281
 20
1179.61275510204
 30
0.0
 10
1119.882654127202
 20
1179.762755102041
 30
0.0
 10
1119.751020408163
 20
1179.837755102041
 30
0.0
  0
SPLINE
  5
180
330
1F
100
AcDbEntity
  8
0
  6
Continuous
 62
     7
370
    25
100
AcDbSpline
210
0.0
220
0.0
230
1.0
 70
     8
 71
     3
 72
    11
 73
     7
 74
     0
 42
0.00000001
 43
0.00000001
 40
0.0
 40
0.0
 40
0.0
 40
0.0
 40
0.250000000000004
 40
0.500000000000017
 40
0.7499999999999866
 40
1.0
 40
1.0
 40
1.0
 40
1.0
 10
1121.551020408163
 20
1178.93775510204
 30
0.0
 10
1121.523963577146
 20
1179.012755102041
 30
0.0
 10
1121.469849915111
 20
1179.16275510204
 30
0.0
 10
1121.053601331491
 20
1179.387755102041
 30
0.0
 10
1120.458620444717
 20
1179.61275510204
 30
0.0
 10
1119.986887087014
 20
1179.762755102041
 30
0.0
 10
1119.751020408163
 20
1179.837755102041
 30
0.0
  0
LINE
  5
181
330
1F
100
AcDbEntity
  8
0
  6
Continuous
 62
     7
370
    25
100
AcDbLine
 10
1119.7510204082
 20
1179.837755102
 30
0.0
 11
1119.7510204082
 21
1209.637755102
 31
0.0
  0
SPLINE
  5
182
330
1F
100
AcDbEntity
  8
0
  6
Continuous
 62
     7
370
    25
100
AcDbSpline
210
0.0
220
0.0
230
1.0
 70
     8
 71
     3
 72
    11
 73
     7
 74
     0
 42
0.00000001
 43
0.00000001
 40
0.0
 40
0.0
 40
0.0
 40
0.0
 40
0.2499999999999996
 40
0.4999999999999913
 40
0.7499999999999988
 40
1.0
 40
1.0
 40
1.0
 40
1.0
 10
1119.751020408163
 20
1209.637755102041
 30
0.0
 10
1119.986887087014
 20
1209.712755102041
 30
0.0
 10
1120.458620444716
 20
1209.86275510204
 30
0.0
 10
1121.053601331491
 20
1210.087755102041
 30
0.0
 10
1121.469849915111
 20
1210.31275510204
 30
0.0
 10
1121.523963577145
 20
1210.46275510204
 30
0.0
 10
1121.551020408163
 20
1210.537755102041
 30
0.0
  0
LINE
  5
183
330
1F
100
AcDbEntity
  8
0
  6
Continuous
 62
     7
370
    25
100
AcDbLine
 10
1121.5510204082
 20
1178.937755102
 30
0.0
 11
1121.5510204082
 21
1210.537755102
 31
0.0
  0
SPLINE
  5
184
330
1F
100
AcDbEntity
  8
0
  6
Continuous
 62
     7
370
    25
100
AcDbSpline
210
0.0
220
0.0
230
1.0
 70
     8
 71
     3
 72
    10
 73
     6
 74
     0
 42
0.00000001
 43
0.00000001
 40
0.0
 40
0.0
 40
0.0
 40
0.0
 40
0.3270514720393545
 40
0.6551273325026947
 40
1.0
 40
1.0
 40
1.0
 40
1.0
 10
1119.751020408163
 20
1179.837755102041
 30
0.0
 10
1119.947218961272
 20
1179.667644770593
 30
0.0
 10
1120.340230599279
 20
1179.326891289261
 30
0.0
 10
1120.940035627397
 20
1178.923060652701
 30
0.0
 10
1121.343997846555
 20
1178.866659543155
 30
0.0
 10
1121.551020408163
 20
1178.837755102041
 30
0.0
  0
LINE
  5
185
330
1F
100
AcDbEntity
  8
0
  6
Continuous
 62
     7
370
    25
100
AcDbLine
 10
1121.5510204082
 20
1178.037755102
 30
0.0
 11
1121.5510204082
 21
1178.837755102
 31
0.0
  0
SPLINE
  5
186
330
1F
100
AcDbEntity
  8
0
  6
Continuous
 62
     7
370
    25
100
AcDbSpline
210
0.0
220
0.0
230
1.0
 70
     8
 71
     3
 72
    11
 73
     7
 74
     0
 42
0.00000001
 43
0.00000001
 40
0.0
 40
0.0
 40
0.0
 40
0.0
 40
0.2450334515710276
 40
0.4998973412928025
 40
0.7547871358978452
 40
1.0
 40
1.0
 40
1.0
 40
1.0
 10
1119.751020408163
 20
1179.837755102041
 30
0.0
 10
1119.897999963314
 20
1179.60663460291
 30
0.0
 10
1120.197855711064
 20
1179.135121336893
 30
0.0
 10
1120.650849603113
 20
1178.534080425101
 30
0.0
 10
1121.103950807771
 20
1178.116972797261
 30
0.0
 10
1121.403932076027
 20
1178.063818154987
 30
0.0
 10
1121.551020408163
 20
1178.037755102041
 30
0.0
  0
LINE
  5
187
330
1F
100
AcDbEntity
  8
0
  6
Continuous
 62
     7
370
    25
100
AcDbLine
 10
324.8510204082
 20
1209.637755102
 30
0.0
 11
324.8510204082
 21
1179.837755102
 31
0.0
  0
LINE
  5
188
330
1F
100
AcDbEntity
  8
0
  6
Continuous
 62
     7
370
    25
100
AcDbLine
 10
1119.7510204082
 20
1209.637755102
 30
0.0
 11
324.8510204082
 21
1209.637755102
 31
0.0
  0
LINE
  5
189
330
1F
100
AcDbEntity
  8
0
  6
Continuous
 62
     7
370
    25
100
AcDbLine
 10
324.8510204082
 20
1179.837755102
 30
0.0
 11
1119.7510204082
 21
1179.837755102
 31
0.0
  0
SPLINE
  5
18A
330
1F
100
AcDbEntity
  8
0
  6
Continuous
 62
     7
370
    25
100
AcDbSpline
210
0.0
220
0.0
230
1.0
 70
     8
 71
     3
 72
    11
 73
     7
 74
     0
 42
0.00000001
 43
0.00000001
 40
0.0
 40
0.0
 40
0.0
 40
0.0
 40
0.3196651312756923
 40
0.639330262551478
 40
0.9589953938271935
 40
0.9999999999999999
 40
0.9999999999999999
 40
0.9999999999999999
 40
0.9999999999999999
 10
1119.751020408163
 20
1209.637755102041
 30
0.0
 10
1119.882661529841
 20
1209.712755102041
 30
0.0
 10
1120.145943773197
 20
1209.86275510204
 30
0.0
 10
1120.467427542215
 20
1210.087755102041
 30
0.0
 10
1120.655908626567
 20
1210.24737562415
 30
0.0
 10
1120.681728700451
 20
1210.331996146259
 30
0.0
 10
1120.684664189213
 20
1210.341616668368
 30
0.0
  0
LINE
  5
18B
330
1F
100
AcDbEntity
  8
0
  6
Continuous
 62
     7
370
    25
100
AcDbLine
 10
1121.5510204082
 20
1210.537755102
 30
0.0
 11
1121.094864554
 21
1210.537755102
 31
0.0
  0
SPLINE
  5
18C
330
1F
100
AcDbEntity
  8
0
  6
Continuous
 62
     7
370
    25
100
AcDbSpline
210
0.0
220
0.0
230
1.0
 70
     8
 71
     3
 72
    11
 73
     7
 74
     0
 42
0.00000001
 43
0.00000001
 40
0.0
 40
0.0
 40
0.0
 40
0.0
 40
0.2846552580126468
 40
0.5927444949416183
 40
0.9008837811072032
 40
1.0
 40
1.0
 40
1.0
 40
1.0
 10
324.8510204081626
 20
1179.837755102041
 30
0.0
 10
324.7307320018174
 20
1179.769145840894
 30
0.0
 10
324.4802525581416
 20
1179.626279125097
 30
0.0
 10
324.1604073738656
 20
1179.40885509584
 30
0.0
 10
323.9531954186169
 20
1179.236397734408
 30
0.0
 10
323.923782998797
 20
1179.138021694055
 30
0.0
 10
323.9166247214874
 20
1179.114079326111
 30
0.0
  0
LINE
  5
18D
330
1F
100
AcDbEntity
  8
0
  6
Continuous
 62
     7
370
    25
100
AcDbLine
 10
323.5505920889
 20
1178.937755102
 30
0.0
 11
323.0510204082
 21
1178.937755102
 31
0.0
  0
SPLINE
  5
18E
330
1F
100
AcDbEntity
  8
0
  6
Continuous
 62
     7
370
    25
100
AcDbSpline
210
0.0
220
0.0
230
1.0
 70
     8
 71
     3
 72
    12
 73
     8
 74
     0
 42
0.00000001
 43
0.00000001
 40
0.0
 40
0.0
 40
0.0
 40
0.0
 40
0.2253337478803797
 40
0.4507151390691128
 40
0.6760967232121969
 40
0.901478093511571
 40
1.0
 40
1.0
 40
1.0
 40
1.0
 10
324.8510204081626
 20
1179.837755102041
 30
0.0
 10
324.6386241473761
 20
1179.770131439108
 30
0.0
 10
324.2137867179247
 20
1179.634869815273
 30
0.0
 10
323.6549317627443
 20
1179.431938093215
 30
0.0
 10
323.2471115407626
 20
1179.229119365894
 30
0.0
 10
323.0695949689573
 20
1179.063963786546
 30
0.0
 10
323.0553525389496
 20
1178.967190658218
 30
0.0
 10
323.0510204081626
 20
1178.93775510204
 30
0.0
  0
LINE
  5
18F
330
1F
100
AcDbEntity
  8
0
  6
Continuous
 62
     7
370
    25
100
AcDbLine
 10
323.0510204082
 20
1178.037755102
 30
0.0
 11
1121.5510204082
 21
1178.037755102
 31
0.0
  0
SPLINE
  5
190
330
1F
100
AcDbEntity
  8
0
  6
Continuous
 62
     7
370
    25
100
AcDbSpline
210
0.0
220
0.0
230
1.0
 70
     8
 71
     3
 72
    11
 73
     7
 74
     0
 42
0.00000001
 43
0.00000001
 40
0.0
 40
0.0
 40
0.0
 40
0.0
 40
0.2500000000000015
 40
0.5000000000000036
 40
0.7500000000000007
 40
1.0
 40
1.0
 40
1.0
 40
1.0
 10
323.0510204081641
 20
1178.037755102041
 30
0.0
 10
323.201020408164
 20
1178.064811933058
 30
0.0
 10
323.5010204081636
 20
1178.118925595092
 30
0.0
 10
323.9510204081632
 20
1178.535174178712
 30
0.0
 10
324.4010204081629
 20
1179.130155065487
 30
0.0
 10
324.7010204081627
 20
1179.601888423189
 30
0.0
 10
324.8510204081625
 20
1179.837755102041
 30
0.0
  0
SPLINE
  5
191
330
1F
100
AcDbEntity
  8
0
  6
Continuous
 62
     7
370
    25
100
AcDbSpline
210
0.0
220
0.0
230
1.0
 70
     8
 71
     3
 72
    10
 73
     6
 74
     0
 42
0.00000001
 43
0.00000001
 40
0.0
 40
0.0
 40
0.0
 40
0.0
 40
0.3270436703753639
 40
0.6551194676656329
 40
1.0
 40
1.0
 40
1.0
 40
1.0
 10
1121.551020408163
 20
1210.637755102041
 30
0.0
 10
1121.354826591076
 20
1210.611770791669
 30
0.0
 10
1120.961819782959
 20
1210.559720166262
 30
0.0
 10
1120.362014764962
 20
1210.167435172746
 30
0.0
 10
1119.958047749087
 20
1209.817230174696
 30
0.0
 10
1119.751020408163
 20
1209.637755102041
 30
0.0
  0
SPLINE
  5
192
330
1F
100
AcDbEntity
  8
0
  6
Continuous
 62
     7
370
    25
100
AcDbSpline
210
0.0
220
0.0
230
1.0
 70
     8
 71
     3
 72
    11
 73
     7
 74
     0
 42
0.00000001
 43
0.00000001
 40
0.0
 40
0.0
 40
0.0
 40
0.0
 40
0.2475522032093777
 40
0.5024226380969148
 40
0.7573126004817153
 40
1.0
 40
1.0
 40
1.0
 40
1.0
 10
1121.551020408163
 20
1211.43775510204
 30
0.0
 10
1121.402512754547
 20
1211.411194803269
 30
0.0
 10
1121.101107208
 20
1211.357289020147
 30
0.0
 10
1120.646616291069
 20
1210.936571531897
 30
0.0
 10
1120.195008582375
 20
1210.335921975586
 30
0.0
 10
1119.896576891507
 20
1209.866641186859
 30
0.0
 10
1119.751020408163
 20
1209.637755102041
 30
0.0
  0
LINE
  5
193
330
1F
100
AcDbEntity
  8
0
  6
Continuous
 62
     7
370
    25
100
AcDbLine
 10
1121.5510204082
 20
1211.437755102
 30
0.0
 11
1121.5510204082
 21
1210.637755102
 31
0.0
  0
SPLINE
  5
194
330
1F
100
AcDbEntity
  8
0
  6
Continuous
 62
     7
370
    25
100
AcDbSpline
210
0.0
220
0.0
230
1.0
 70
     8
 71
     3
 72
    11
 73
     7
 74
     0
 42
0.00000001
 43
0.00000001
 40
0.0
 40
0.0
 40
0.0
 40
0.0
 40
0.2500000000000029
 40
0.5000000000000009
 40
0.7500000000000017
 40
1.0
 40
1.0
 40
1.0
 40
1.0
 10
323.0510204081641
 20
1178.837755102041
 30
0.0
 10
323.2010204081639
 20
1178.852786674828
 30
0.0
 10
323.5010204081637
 20
1178.882849820402
 30
0.0
 10
323.9510204081634
 20
1179.114099033525
 30
0.0
 10
324.401020408163
 20
1179.444643970622
 30
0.0
 10
324.7010204081627
 20
1179.706718058234
 30
0.0
 10
324.8510204081625
 20
1179.837755102041
 30
0.0
  0
LINE
  5
195
330
1F
100
AcDbEntity
  8
0
  6
Continuous
 62
     7
370
    25
100
AcDbLine
 10
323.0510204082
 20
1178.037755102
 30
0.0
 11
323.0510204082
 21
1178.837755102
 31
0.0
  0
SPLINE
  5
196
330
1F
100
AcDbEntity
  8
0
  6
Continuous
 62
     7
370
    25
100
AcDbSpline
210
0.0
220
0.0
230
1.0
 70
     8
 71
     3
 72
    11
 73
     7
 74
     0
 42
0.00000001
 43
0.00000001
 40
0.0
 40
0.0
 40
0.0
 40
0.0
 40
0.2499999999999759
 40
0.4999999999999967
 40
0.7500000000000174
 40
1.0
 40
1.0
 40
1.0
 40
1.0
 10
324.8510204081625
 20
1209.637755102041
 30
0.0
 10
324.7010204081625
 20
1209.873621780892
 30
0.0
 10
324.4010204081627
 20
1210.345355138594
 30
0.0
 10
323.9510204081626
 20
1210.940336025369
 30
0.0
 10
323.5010204081625
 20
1211.356584608989
 30
0.0
 10
323.2010204081627
 20
1211.410698271023
 30
0.0
 10
323.0510204081627
 20
1211.43775510204
 30
0.0
  0
LINE
  5
197
330
1F
100
AcDbEntity
  8
0
  6
Continuous
 62
     7
370
    25
100
AcDbLine
 10
1121.5510204082
 20
1211.437755102
 30
0.0
 11
323.0510204082
 21
1211.437755102
 31
0.0
  0
SPLINE
  5
198
330
1F
100
AcDbEntity
  8
0
  6
Continuous
 62
     7
370
    25
100
AcDbSpline
210
0.0
220
0.0
230
1.0
 70
     8
 71
     3
 72
    12
 73
     8
 74
     0
 42
0.00000001
 43
0.00000001
 40
0.0
 40
0.0
 40
0.0
 40
0.0
 40
0.0464799107901402
 40
0.351793144797642
 40
0.6571617142865107
 40
0.9625304658184745
 40
1.0
 40
1.0
 40
1.0
 40
1.0
 10
323.9031801451771
 20
1210.367907361963
 30
0.0
 10
323.9062400106152
 20
1210.356602187651
 30
0.0
 10
323.9293992565518
 20
1210.271036558192
 30
0.0
 10
324.1049800744492
 20
1210.110941632782
 30
0.0
 10
324.4147283723249
 20
1209.888152357842
 30
0.0
 10
324.6902874025452
 20
1209.729878368275
 30
0.0
 10
324.8351843129445
 20
1209.646831475684
 30
0.0
 10
324.8510204081626
 20
1209.637755102041
 30
0.0
  0
SPLINE
  5
199
330
1F
100
AcDbEntity
  8
0
  6
Continuous
 62
     7
370
    25
100
AcDbSpline
210
0.0
220
0.0
230
1.0
 70
     8
 71
     3
 72
    12
 73
     8
 74
     0
 42
0.00000001
 43
0.00000001
 40
0.0
 40
0.0
 40
0.0
 40
0.0
 40
0.225334301687443
 40
0.450715694699535
 40
0.676097280297002
 40
0.9014786520556319
 40
1.0
 40
1.0
 40
1.0
 40
1.0
 10
323.0510204081626
 20
1210.537755102041
 30
0.0
 10
323.0729586432217
 20
1210.470131271331
 30
0.0
 10
323.116839698086
 20
1210.334869477593
 30
0.0
 10
323.4578403480272
 20
1210.131937591147
 30
0.0
 10
323.9553331570229
 20
1209.929118863745
 30
0.0
 10
324.454577723726
 20
1209.76396345126
 30
0.0
 10
324.7585586602539
 20
1209.667190490881
 30
0.0
 10
324.8510204081626
 20
1209.637755102041
 30
0.0
  0
LINE
  5
19A
330
1F
100
AcDbEntity
  8
0
  6
Continuous
 62
     7
370
    25
100
AcDbLine
 10
323.0510204082
 20
1210.537755102
 30
0.0
 11
323.5505920889
 21
1210.537755102
 31
0.0
  0
LINE
  5
19B
330
1F
100
AcDbEntity
  8
0
  6
Continuous
 62
     7
370
    25
100
AcDbLine
 10
323.0510204082
 20
1210.537755102
 30
0.0
 11
323.0510204082
 21
1178.937755102
 31
0.0
  0
SPLINE
  5
19C
330
1F
100
AcDbEntity
  8
0
  6
Continuous
 62
     7
370
    25
100
AcDbSpline
210
0.0
220
0.0
230
1.0
 70
     8
 71
     3
 72
    11
 73
     7
 74
     0
 42
0.00000001
 43
0.00000001
 40
0.0
 40
0.0
 40
0.0
 40
0.0
 40
0.2499999999999641
 40
0.5000000000000009
 40
0.7500000000000351
 40
0.9999999999999999
 40
0.9999999999999999
 40
0.9999999999999999
 40
0.9999999999999999
 10
324.8510204081625
 20
1209.637755102041
 30
0.0
 10
324.7010204081626
 20
1209.768792145847
 30
0.0
 10
324.4010204081627
 20
1210.030866233459
 30
0.0
 10
323.9510204081626
 20
1210.361411170556
 30
0.0
 10
323.5010204081625
 20
1210.592660383679
 30
0.0
 10
323.2010204081627
 20
1210.622723529253
 30
0.0
 10
323.0510204081627
 20
1210.637755102041
 30
0.0
  0
LINE
  5
19D
330
1F
100
AcDbEntity
  8
0
  6
Continuous
 62
     7
370
    25
100
AcDbLine
 10
323.0510204082
 20
1211.437755102
 30
0.0
 11
323.0510204082
 21
1210.637755102
 31
0.0
  0
LINE
  5
19E
330
1F
100
AcDbEntity
  8
0
  6
Continuous
 62
     7
370
    25
100
AcDbLine
 10
352.0233823442
 20
1177.6488384768
 30
0.0
 11
351.8863893839
 21
1177.7328982484
 31
0.0
  0
SPLINE
  5
19F
330
1F
100
AcDbEntity
  8
0
  6
Continuous
 62
     7
370
    25
100
AcDbSpline
210
0.0
220
0.0
230
1.0
 70
     8
 71
     3
 72
    13
 73
     9
 74
     0
 42
0.00000001
 43
0.00000001
 40
0.0
 40
0.0
 40
0.0
 40
0.0
 40
0.142116697832237
 40
0.2860202338336613
 40
0.5510761480912377
 40
0.8166554578065942
 40
0.9604895185151445
 40
1.0
 40
1.0
 40
1.0
 40
1.0
 10
351.886389383863
 20
1177.73289824845
 30
0.0
 10
351.9394454939283
 20
1177.738624808218
 30
0.0
 10
352.0462247903702
 20
1177.750149927991
 30
0.0
 10
352.2472203223108
 20
1177.646670866498
 30
0.0
 10
352.4475121182769
 20
1177.453121126511
 30
0.0
 10
352.6769599138942
 20
1177.263538496955
 30
0.0
 10
352.8735348983041
 20
1177.24791764183
 30
0.0
 10
352.9516175961965
 20
1177.257398218421
 30
0.0
 10
352.9684443037299
 20
1177.259441268852
 30
0.0
  0
LINE
  5
1A0
330
1F
100
AcDbEntity
  8
0
  6
Continuous
 62
     7
370
    25
100
AcDbLine
 10
352.9684443037
 20
1177.2594412689
 30
0.0
 11
353.1032713804
 21
1177.4962893411
 31
0.0
  0
SPLINE
  5
1A1
330
1F
100
AcDbEntity
  8
0
  6
Continuous
 62
     7
370
    25
100
AcDbSpline
210
0.0
220
0.0
230
1.0
 70
     8
 71
     3
 72
    10
 73
     6
 74
     0
 42
0.00000001
 43
0.00000001
 40
0.0
 40
0.0
 40
0.0
 40
0.0
 40
0.3223023543358957
 40
0.6611511742599284
 40
1.0
 40
1.0
 40
1.0
 40
1.0
 10
352.2719930326858
 20
1177.496289341106
 30
0.0
 10
352.2452924749754
 20
1177.512679037445
 30
0.0
 10
352.1905205974321
 20
1177.546299849811
 30
0.0
 10
352.1076572385202
 20
1177.597150722956
 30
0.0
 10
352.0514866850156
 20
1177.631610623129
 30
0.0
 10
352.0234014080223
 20
1177.648840573363
 30
0.0
  0
LINE
  5
1A2
330
1F
100
AcDbEntity
  8
0
  6
Continuous
 62
     7
370
    25
100
AcDbLine
 10
352.9683054233
 20
1177.5647809271
 30
0.0
 11
353.0162545919
 21
1177.6488404706
 31
0.0
  0
SPLINE
  5
1A3
330
1F
100
AcDbEntity
  8
0
  6
Continuous
 62
     7
370
    25
100
AcDbSpline
210
0.0
220
0.0
230
1.0
 70
     8
 71
     3
 72
    12
 73
     8
 74
     0
 42
0.00000001
 43
0.00000001
 40
0.0
 40
0.0
 40
0.0
 40
0.0
 40
0.1591001189659381
 40
0.3202041399010712
 40
0.6168538849297307
 40
0.9140545764647939
 40
0.9999999999999999
 40
0.9999999999999999
 40
0.9999999999999999
 40
0.9999999999999999
 10
352.9683054233286
 20
1177.564780927141
 30
0.0
 10
352.9068269299872
 20
1177.559001586686
 30
0.0
 10
352.7830956077813
 20
1177.547370113675
 30
0.0
 10
352.5656077525144
 20
1177.65112691068
 30
0.0
 10
352.3614494223528
 20
1177.840386736331
 30
0.0
 10
352.1644647516834
 20
1178.022821819231
 30
0.0
 10
352.0352697226052
 20
1178.035019074613
 30
0.0
 10
352.0062893387359
 20
1178.037755102041
 30
0.0
  0
LINE
  5
1A4
330
1F
100
AcDbEntity
  8
0
  6
Continuous
 62
     7
370
    25
100
AcDbLine
 10
352.6707165337
 20
1177.8013893411
 30
0.0
 11
352.9103529815
 21
1177.8013893411
 31
0.0
  0
LINE
  5
1A5
330
1F
100
AcDbEntity
  8
0
  6
Continuous
 62
     7
370
    25
100
AcDbLine
 10
353.0162326016
 20
1177.6488384219
 30
0.0
 11
353.0162575667
 21
1177.6488821462
 31
0.0
  0
LINE
  5
1A6
330
1F
100
AcDbEntity
  8
0
  6
Continuous
 62
     7
370
    25
100
AcDbLine
 10
352.9682711046
 20
1177.7328982484
 30
0.0
 11
353.0162324655
 21
1177.6488385299
 31
0.0
  0
SPLINE
  5
1A7
330
1F
100
AcDbEntity
  8
0
  6
Continuous
 62
     7
370
    25
100
AcDbSpline
210
0.0
220
0.0
230
1.0
 70
     8
 71
     3
 72
    13
 73
     9
 74
     0
 42
0.00000001
 43
0.00000001
 40
0.0
 40
0.0
 40
0.0
 40
0.0
 40
0.142116697832346
 40
0.2860202338337419
 40
0.551076148091574
 40
0.8166554578071743
 40
0.9604895185153626
 40
1.0
 40
1.0
 40
1.0
 40
1.0
 10
352.9682711046175
 20
1177.73289824845
 30
0.0
 10
353.0302939584046
 20
1177.738624808219
 30
0.0
 10
353.1551194814699
 20
1177.750149927991
 30
0.0
 10
353.3817010223242
 20
1177.646670866498
 30
0.0
 10
353.6006137373739
 20
1177.453121126511
 30
0.0
 10
353.8433426008914
 20
1177.263538496955
 30
0.0
 10
354.0439771657981
 20
1177.24791764183
 30
0.0
 10
354.1221895965843
 20
1177.257398218421
 30
0.0
 10
354.1390442613672
 20
1177.259441268851
 30
0.0
  0
LINE
  5
1A8
330
1F
100
AcDbEntity
  8
0
  6
Continuous
 62
     7
370
    25
100
AcDbLine
 10
353.1032713804
 20
1177.4962893411
 30
0.0
 11
353.5530332846
 21
1177.4962893411
 31
0.0
  0
SPLINE
  5
1A9
330
1F
100
AcDbEntity
  8
0
  6
Continuous
 62
     7
370
    25
100
AcDbSpline
210
0.0
220
0.0
230
1.0
 70
     8
 71
     3
 72
    10
 73
     6
 74
     0
 42
0.00000001
 43
0.00000001
 40
0.0
 40
0.0
 40
0.0
 40
0.0
 40
0.3223023543381371
 40
0.6611511742646703
 40
1.0
 40
1.0
 40
1.0
 40
1.0
 10
353.0162547265572
 20
1177.648840573363
 30
0.0
 10
353.0256110672779
 20
1177.632451995769
 30
0.0
 10
353.0448040876545
 20
1177.598833478329
 30
0.0
 10
353.0738101619044
 20
1177.547982685037
 30
0.0
 10
353.093450974183
 20
1177.513520455848
 30
0.0
 10
353.1032713804065
 20
1177.496289341106
 30
0.0
  0
LINE
  5
1AA
330
1F
100
AcDbEntity
  8
0
  6
Continuous
 62
     7
370
    25
100
AcDbLine
 10
354.0905213778
 20
1177.6488405231
 30
0.0
 11
354.1389054308
 21
1177.5647809271
 31
0.0
  0
SPLINE
  5
1AB
330
1F
100
AcDbEntity
  8
0
  6
Continuous
 62
     7
370
    25
100
AcDbSpline
210
0.0
220
0.0
230
1.0
 70
     8
 71
     3
 72
    12
 73
     8
 74
     0
 42
0.00000001
 43
0.00000001
 40
0.0
 40
0.0
 40
0.0
 40
0.0
 40
0.1591001189661093
 40
0.3202041399010315
 40
0.6168538849299288
 40
0.9140545764650809
 40
1.0
 40
1.0
 40
1.0
 40
1.0
 10
354.1389054307982
 20
1177.564780927142
 30
0.0
 10
354.0769932085379
 20
1177.559001586686
 30
0.0
 10
353.9523889655803
 20
1177.547370113675
 30
0.0
 10
353.7262173558625
 20
1177.65112691068
 30
0.0
 10
353.5072125706705
 20
1177.840386736331
 30
0.0
 10
353.2901371300676
 20
1178.022821819231
 30
0.0
 10
353.1410971569255
 20
1178.035019074613
 30
0.0
 10
353.1076652542869
 20
1178.037755102041
 30
0.0
  0
LINE
  5
1AC
330
1F
100
AcDbEntity
  8
0
  6
Continuous
 62
     7
370
    25
100
AcDbLine
 10
353.5530311015
 20
1177.8013893411
 30
0.0
 11
354.0027154585
 21
1177.8013893411
 31
0.0
  0
LINE
  5
1AD
330
1F
100
AcDbEntity
  8
0
  6
Continuous
 62
     7
370
    25
100
AcDbLine
 10
354.0027154585
 20
1177.8013893411
 30
0.0
 11
354.0686881231
 21
1177.6867723302
 31
0.0
  0
LINE
  5
1AE
330
1F
100
AcDbEntity
  8
0
  6
Continuous
 62
     7
370
    25
100
AcDbLine
 10
354.0904991523
 20
1177.6488384219
 30
0.0
 11
354.0686881231
 21
1177.6867723302
 31
0.0
  0
SPLINE
  5
1AF
330
1F
100
AcDbEntity
  8
0
  6
Continuous
 62
     7
370
    25
100
AcDbSpline
210
0.0
220
0.0
230
1.0
 70
     8
 71
     3
 72
    13
 73
     9
 74
     0
 42
0.00000001
 43
0.00000001
 40
0.0
 40
0.0
 40
0.0
 40
0.0
 40
0.1421166978323014
 40
0.2860202338337817
 40
0.5510761480913726
 40
0.816655457806476
 40
0.9604895185149985
 40
1.0
 40
1.0
 40
1.0
 40
1.0
 10
354.1388711239998
 20
1177.73289824845
 30
0.0
 10
354.2004183042582
 20
1177.738624808219
 30
0.0
 10
354.3242864996063
 20
1177.750149927991
 30
0.0
 10
354.5419590637459
 20
1177.646670866498
 30
0.0
 10
354.7461652214608
 20
1177.453121126511
 30
0.0
 10
354.9652218837502
 20
1177.263538496955
 30
0.0
 10
355.1393712354039
 20
1177.24791764183
 30
0.0
 10
355.2058062654945
 20
1177.257398218421
 30
0.0
 10
355.2201229176018
 20
1177.259441268852
 30
0.0
  0
LINE
  5
1B0
330
1F
100
AcDbEntity
  8
0
  6
Continuous
 62
     7
370
    25
100
AcDbLine
 10
354.1390089321
 20
1178.037755102
 30
0.0
 11
354.138871124
 21
1177.7328982484
 31
0.0
  0
SPLINE
  5
1B1
330
1F
100
AcDbEntity
  8
0
  6
Continuous
 62
     7
370
    25
100
AcDbSpline
210
0.0
220
0.0
230
1.0
 70
     8
 71
     3
 72
    12
 73
     8
 74
     0
 42
0.00000001
 43
0.00000001
 40
0.0
 40
0.0
 40
0.0
 40
0.0
 40
0.1591001189661128
 40
0.3202041399010048
 40
0.616853884929746
 40
0.9140545764649984
 40
1.0
 40
1.0
 40
1.0
 40
1.0
 10
355.2200052725613
 20
1177.564780927141
 30
0.0
 10
355.1670848959855
 20
1177.559001586686
 30
0.0
 10
355.0605775987262
 20
1177.547370113675
 30
0.0
 10
354.8601548118861
 20
1177.65112691068
 30
0.0
 10
354.6596450649263
 20
1177.840386736332
 30
0.0
 10
354.4555266224278
 20
1178.022821819231
 30
0.0
 10
354.3093316900816
 20
1178.035019074613
 30
0.0
 10
354.2765379727895
 20
1178.037755102041
 30
0.0
  0
LINE
  5
1B2
330
1F
100
AcDbEntity
  8
0
  6
Continuous
 62
     7
370
    25
100
AcDbLine
 10
355.2201229176
 20
1177.2594412689
 30
0.0
 11
355.2200052726
 21
1177.5647809271
 31
0.0
  0
LINE
  5
1B3
330
1F
100
AcDbEntity
  8
0
  6
Continuous
 62
     7
370
    25
100
AcDbLine
 10
351.8865063021
 20
1178.037755102
 30
0.0
 11
351.8863893839
 21
1177.7328982484
 31
0.0
  0
LINE
  5
1B4
330
1F
100
AcDbEntity
  8
0
  6
Continuous
 62
     7
370
    25
100
AcDbLine
 10
352.9684443037
 20
1177.2594412689
 30
0.0
 11
352.9683054233
 21
1177.5647809271
 31
0.0
  0
LINE
  5
1B5
330
1F
100
AcDbEntity
  8
0
  6
Continuous
 62
     7
370
    25
100
AcDbLine
 10
352.9684089615
 20
1178.037755102
 30
0.0
 11
352.9682711046
 21
1177.7328982484
 31
0.0
  0
LINE
  5
1B6
330
1F
100
AcDbEntity
  8
0
  6
Continuous
 62
     7
370
    25
100
AcDbLine
 10
354.1390442614
 20
1177.2594412689
 30
0.0
 11
354.1389054308
 21
1177.5647809271
 31
0.0
  0
LINE
  5
1B7
330
1F
100
AcDbEntity
  8
0
  6
Continuous
 62
     7
370
    25
100
AcDbLine
 10
355.2200052726
 20
1177.5647809271
 30
0.0
 11
355.0826540873
 21
1177.6488404706
 31
0.0
  0
LINE
  5
1B8
330
1F
100
AcDbEntity
  8
0
  6
Continuous
 62
     7
370
    25
100
AcDbLine
 10
354.0027154585
 20
1177.8013893411
 30
0.0
 11
354.1390089321
 21
1178.037755102
 31
0.0
  0
LINE
  5
1B9
330
1F
100
AcDbEntity
  8
0
  6
Continuous
 62
     7
370
    25
100
AcDbLine
 10
354.8333930597
 20
1177.8013893411
 30
0.0
 11
355.0206743802
 21
1177.6867723302
 31
0.0
  0
LINE
  5
1BA
330
1F
100
AcDbEntity
  8
0
  6
Continuous
 62
     7
370
    25
100
AcDbLine
 10
355.0826349544
 20
1177.6488384219
 30
0.0
 11
355.0206743802
 21
1177.6867723302
 31
0.0
  0
LINE
  5
1BB
330
1F
100
AcDbEntity
  8
0
  6
Continuous
 62
     7
370
    25
100
AcDbLine
 10
354.0904992589
 20
1177.6488384768
 30
0.0
 11
354.138871124
 21
1177.7328982484
 31
0.0
  0
LINE
  5
1BC
330
1F
100
AcDbEntity
  8
0
  6
Continuous
 62
     7
370
    25
100
AcDbLine
 10
354.0027154585
 20
1177.4962893411
 30
0.0
 11
354.4350415753
 21
1177.4962893411
 31
0.0
  0
SPLINE
  5
1BD
330
1F
100
AcDbEntity
  8
0
  6
Continuous
 62
     7
370
    25
100
AcDbSpline
210
0.0
220
0.0
230
1.0
 70
     8
 71
     3
 72
    13
 73
     9
 74
     0
 42
0.00000001
 43
0.00000001
 40
0.0
 40
0.0
 40
0.0
 40
0.0
 40
0.1421166978324312
 40
0.2860202338337854
 40
0.5510761480916325
 40
0.8166554578070591
 40
0.9604895185156032
 40
1.0
 40
1.0
 40
1.0
 40
1.0
 10
351.0579326464386
 20
1177.73289824845
 30
0.0
 10
351.0939447009795
 20
1177.738624808219
 30
0.0
 10
351.1664215908715
 20
1177.750149927991
 30
0.0
 10
351.3112313661896
 20
1177.646670866498
 30
0.0
 10
351.4624096327866
 20
1177.453121126511
 30
0.0
 10
351.6436450135704
 20
1177.263538496954
 30
0.0
 10
351.8062336580639
 20
1177.24791764183
 30
0.0
 10
351.8722992401292
 20
1177.257398218421
 30
0.0
 10
351.8865362767257
 20
1177.259441268851
 30
0.0
  0
LINE
  5
1BE
330
1F
100
AcDbEntity
  8
0
  6
Continuous
 62
     7
370
    25
100
AcDbLine
 10
351.0580108263
 20
1178.037755102
 30
0.0
 11
351.0579326464
 21
1177.7328982484
 31
0.0
  0
SPLINE
  5
1BF
330
1F
100
AcDbEntity
  8
0
  6
Continuous
 62
     7
370
    25
100
AcDbSpline
210
0.0
220
0.0
230
1.0
 70
     8
 71
     3
 72
    13
 73
     9
 74
     0
 42
0.00000001
 43
0.00000001
 40
0.0
 40
0.0
 40
0.0
 40
0.0
 40
0.1419103113865068
 40
0.285608015229121
 40
0.5502065457856743
 40
0.815296496403687
 40
0.9369116823971135
 40
1.0
 40
1.0
 40
1.0
 40
1.0
 10
351.8864184897739
 20
1177.564780927142
 30
0.0
 10
351.8347308798956
 20
1177.559032991811
 30
0.0
 10
351.7307046430067
 20
1177.547464724605
 30
0.0
 10
351.5550577544558
 20
1177.650608109964
 30
0.0
 10
351.3964953212559
 20
1177.844230290837
 30
0.0
 10
351.2398172342201
 20
1178.025487172813
 30
0.0
 10
351.1187093771419
 20
1178.050594908074
 30
0.0
 10
351.0734648047001
 20
1178.041024143598
 30
0.0
 10
351.0580108262944
 20
1178.037755102041
 30
0.0
  0
LINE
  5
1C0
330
1F
100
AcDbEntity
  8
0
  6
Continuous
 62
     7
370
    25
100
AcDbLine
 10
351.8865362767
 20
1177.2594412689
 30
0.0
 11
351.8864184898
 21
1177.5647809271
 31
0.0
  0
LINE
  5
1C1
330
1F
100
AcDbEntity
  8
0
  6
Continuous
 62
     7
370
    25
100
AcDbLine
 10
351.0579326464
 20
1177.7328982484
 30
0.0
 11
351.2631011101
 21
1177.6488385299
 31
0.0
  0
LINE
  5
1C2
330
1F
100
AcDbEntity
  8
0
  6
Continuous
 62
     7
370
    25
100
AcDbLine
 10
351.8865362767
 20
1177.2594412689
 30
0.0
 11
352.2719930327
 21
1177.4962893411
 31
0.0
  0
LINE
  5
1C3
330
1F
100
AcDbEntity
  8
0
  6
Continuous
 62
     7
370
    25
100
AcDbLine
 10
351.2631142342
 20
1177.6488405734
 30
0.0
 11
351.3083549568
 21
1177.6303064141
 31
0.0
  0
LINE
  5
1C4
330
1F
100
AcDbEntity
  8
0
  6
Continuous
 62
     7
370
    25
100
AcDbLine
 10
352.023401109
 20
1177.6488405231
 30
0.0
 11
351.8864184898
 21
1177.5647809271
 31
0.0
  0
SPLINE
  5
1C5
330
1F
100
AcDbEntity
  8
0
  6
Continuous
 62
     7
370
    25
100
AcDbSpline
210
0.0
220
0.0
230
1.0
 70
     8
 71
     3
 72
    13
 73
     9
 74
     0
 42
0.00000001
 43
0.00000001
 40
0.0
 40
0.0
 40
0.0
 40
0.0
 40
0.1421166978323319
 40
0.2860202338337043
 40
0.5510761480914796
 40
0.8166554578068794
 40
0.9604895185152755
 40
1.0
 40
1.0
 40
1.0
 40
1.0
 10
355.2199762005744
 20
1177.73289824845
 30
0.0
 10
355.2716777070364
 20
1177.738624808219
 30
0.0
 10
355.3757307647936
 20
1177.750149927991
 30
0.0
 10
355.5513556775347
 20
1177.646670866498
 30
0.0
 10
355.709766741537
 20
1177.453121126511
 30
0.0
 10
355.8718018115188
 20
1177.263538496954
 30
0.0
 10
355.9929532897975
 20
1177.24791764183
 30
0.0
 10
356.0374967880961
 20
1177.257398218421
 30
0.0
 10
356.0470958470249
 20
1177.259441268851
 30
0.0
  0
LINE
  5
1C6
330
1F
100
AcDbEntity
  8
0
  6
Continuous
 62
     7
370
    25
100
AcDbLine
 10
355.2200929798
 20
1178.037755102
 30
0.0
 11
355.2199762006
 21
1177.7328982484
 31
0.0
  0
SPLINE
  5
1C7
330
1F
100
AcDbEntity
  8
0
  6
Continuous
 62
     7
370
    25
100
AcDbSpline
210
0.0
220
0.0
230
1.0
 70
     8
 71
     3
 72
    12
 73
     8
 74
     0
 42
0.00000001
 43
0.00000001
 40
0.0
 40
0.0
 40
0.0
 40
0.0
 40
0.1591001189661824
 40
0.3202041399010458
 40
0.6168538849302131
 40
0.9140545764652815
 40
1.0
 40
1.0
 40
1.0
 40
1.0
 10
356.0470172979033
 20
1177.564780927142
 30
0.0
 10
356.0111454146212
 20
1177.559001586686
 30
0.0
 10
355.938949833577
 20
1177.547370113675
 30
0.0
 10
355.7947884220745
 20
1177.65112691068
 30
0.0
 10
355.643299504695
 20
1177.840386736331
 30
0.0
 10
355.4832132428338
 20
1178.022821819231
 30
0.0
 10
355.3621202044731
 20
1178.035019074613
 30
0.0
 10
355.3349572187096
 20
1178.037755102041
 30
0.0
  0
LINE
  5
1C8
330
1F
100
AcDbEntity
  8
0
  6
Continuous
 62
     7
370
    25
100
AcDbLine
 10
356.047095847
 20
1177.2594412689
 30
0.0
 11
356.0470172979
 21
1177.5647809271
 31
0.0
  0
LINE
  5
1C9
330
1F
100
AcDbEntity
  8
0
  6
Continuous
 62
     7
370
    25
100
AcDbLine
 10
355.2199762006
 20
1177.7328982484
 30
0.0
 11
355.0826353439
 21
1177.6488385299
 31
0.0
  0
LINE
  5
1CA
330
1F
100
AcDbEntity
  8
0
  6
Continuous
 62
     7
370
    25
100
AcDbLine
 10
355.2200929798
 20
1178.037755102
 30
0.0
 11
354.8333930597
 21
1177.8013893411
 31
0.0
  0
LINE
  5
1CB
330
1F
100
AcDbEntity
  8
0
  6
Continuous
 62
     7
370
    25
100
AcDbLine
 10
355.8416092947
 20
1177.6488405231
 30
0.0
 11
356.0470172979
 21
1177.5647809271
 31
0.0
  0
SPLINE
  5
1CC
330
1F
100
AcDbEntity
  8
0
  6
Continuous
 62
     7
370
    25
100
AcDbSpline
210
0.0
220
0.0
230
1.0
 70
     8
 71
     3
 72
    13
 73
     9
 74
     0
 42
0.00000001
 43
0.00000001
 40
0.0
 40
0.0
 40
0.0
 40
0.0
 40
0.1421166978323347
 40
0.2860202338336913
 40
0.5510761480911862
 40
0.8166554578063973
 40
0.9604895185145715
 40
1.0
 40
1.0
 40
1.0
 40
1.0
 10
350.6090259206385
 20
1177.73289824845
 30
0.0
 10
350.6225114108012
 20
1177.738624808219
 30
0.0
 10
350.649651944662
 20
1177.750149927991
 30
0.0
 10
350.7162299877688
 20
1177.646670866498
 30
0.0
 10
350.7952792043417
 20
1177.453121126511
 30
0.0
 10
350.9007107264698
 20
1177.263538496955
 30
0.0
 10
351.0045603837924
 20
1177.24791764183
 30
0.0
 10
351.0485509640476
 20
1177.257398218421
 30
0.0
 10
351.0580308699444
 20
1177.259441268852
 30
0.0
  0
LINE
  5
1CD
330
1F
100
AcDbEntity
  8
0
  6
Continuous
 62
     7
370
    25
100
AcDbLine
 10
350.6090534599
 20
1178.037755102
 30
0.0
 11
350.6090259206
 21
1177.7328982484
 31
0.0
  0
SPLINE
  5
1CE
330
1F
100
AcDbEntity
  8
0
  6
Continuous
 62
     7
370
    25
100
AcDbSpline
210
0.0
220
0.0
230
1.0
 70
     8
 71
     3
 72
    11
 73
     7
 74
     0
 42
0.00000001
 43
0.00000001
 40
0.0
 40
0.0
 40
0.0
 40
0.0
 40
0.1965526436526475
 40
0.39558091229015
 40
0.7620626723493652
 40
1.0
 40
1.0
 40
1.0
 40
1.0
 10
351.0579521084384
 20
1177.564780927141
 30
0.0
 10
351.0239176052761
 20
1177.559146878055
 30
0.0
 10
350.9554199266894
 20
1177.547807817761
 30
0.0
 10
350.8484864313728
 20
1177.648726752558
 30
0.0
 10
350.7711595404842
 20
1177.829149514783
 30
0.0
 10
350.7196480405545
 20
1177.923677102659
 30
0.0
 10
350.6993698777934
 20
1177.960889100272
 30
0.0
  0
LINE
  5
1CF
330
1F
100
AcDbEntity
  8
0
  6
Continuous
 62
     7
370
    25
100
AcDbLine
 10
351.0580308699
 20
1177.2594412689
 30
0.0
 11
351.0579521084
 21
1177.5647809271
 31
0.0
  0
LINE
  5
1D0
330
1F
100
AcDbEntity
  8
0
  6
Continuous
 62
     7
370
    25
100
AcDbLine
 10
351.0580308699
 20
1177.2594412689
 30
0.0
 11
351.4897459377
 21
1177.4365284679
 31
0.0
  0
LINE
  5
1D1
330
1F
100
AcDbEntity
  8
0
  6
Continuous
 62
     7
370
    25
100
AcDbLine
 10
351.0579521084
 20
1177.5647809271
 30
0.0
 11
351.2631136582
 21
1177.6488404706
 31
0.0
  0
LINE
  5
1D2
330
1F
100
AcDbEntity
  8
0
  6
Continuous
 62
     7
370
    25
100
AcDbLine
 10
350.6664403842
 20
1177.7129640727
 30
0.0
 11
350.6090259206
 21
1177.7328982484
 31
0.0
  0
LINE
  5
1D3
330
1F
100
AcDbEntity
  8
0
  6
Continuous
 62
     7
370
    25
100
AcDbLine
 10
351.057970895
 20
1177.8820458311
 30
0.0
 11
350.6701932275
 21
1178.0165484661
 31
0.0
  0
LINE
  5
1D4
330
1F
100
AcDbEntity
  8
0
  6
Continuous
 62
     7
370
    25
100
AcDbLine
 10
355.8415967787
 20
1177.6488384768
 30
0.0
 11
356.0469978867
 21
1177.7328982484
 31
0.0
  0
SPLINE
  5
1D5
330
1F
100
AcDbEntity
  8
0
  6
Continuous
 62
     7
370
    25
100
AcDbSpline
210
0.0
220
0.0
230
1.0
 70
     8
 71
     3
 72
    13
 73
     9
 74
     0
 42
0.00000001
 43
0.00000001
 40
0.0
 40
0.0
 40
0.0
 40
0.0
 40
0.1421166978323463
 40
0.2860202338338744
 40
0.5510761480916787
 40
0.8166554578071868
 40
0.9604895185157717
 40
1.0
 40
1.0
 40
1.0
 40
1.0
 10
356.0469978866745
 20
1177.73289824845
 30
0.0
 10
356.0809826336564
 20
1177.738624808218
 30
0.0
 10
356.1493794190225
 20
1177.750149927991
 30
0.0
 10
356.2562193794447
 20
1177.646670866498
 30
0.0
 10
356.3447187012391
 20
1177.453121126511
 30
0.0
 10
356.4250638083603
 20
1177.263538496954
 30
0.0
 10
356.4747731989369
 20
1177.24791764183
 30
0.0
 10
356.4906438216157
 20
1177.257398218421
 30
0.0
 10
356.49406391766
 20
1177.259441268852
 30
0.0
  0
LINE
  5
1D6
330
1F
100
AcDbEntity
  8
0
  6
Continuous
 62
     7
370
    25
100
AcDbLine
 10
356.4335799431
 20
1177.2804542551
 30
0.0
 11
356.0470558966
 21
1177.4147381635
 31
0.0
  0
LINE
  5
1D7
330
1F
100
AcDbEntity
  8
0
  6
Continuous
 62
     7
370
    25
100
AcDbLine
 10
355.615563194
 20
1177.8613651344
 30
0.0
 11
356.0470758585
 21
1178.037755102
 31
0.0
  0
LINE
  5
1D8
330
1F
100
AcDbEntity
  8
0
  6
Continuous
 62
     7
370
    25
100
AcDbLine
 10
356.0470758585
 20
1178.037755102
 30
0.0
 11
356.0469978867
 21
1177.7328982484
 31
0.0
  0
SPLINE
  5
1D9
330
1F
100
AcDbEntity
  8
0
  6
Continuous
 62
     7
370
    25
100
AcDbSpline
210
0.0
220
0.0
230
1.0
 70
     8
 71
     3
 72
    13
 73
     9
 74
     0
 42
0.00000001
 43
0.00000001
 40
0.0
 40
0.0
 40
0.0
 40
0.0
 40
0.1419103113864686
 40
0.2856080152290555
 40
0.5502065457857863
 40
0.8152964964039775
 40
0.9369116823976616
 40
0.9999999999999999
 40
0.9999999999999999
 40
0.9999999999999999
 40
0.9999999999999999
 10
356.4940364228489
 20
1177.564780927141
 30
0.0
 10
356.4806805147823
 20
1177.559032991811
 30
0.0
 10
356.4538004779673
 20
1177.547464724605
 30
0.0
 10
356.3877244055204
 20
1177.650608109964
 30
0.0
 10
356.309196026805
 20
1177.844230290837
 30
0.0
 10
356.2077603840366
 20
1178.025487172813
 30
0.0
 10
356.1061783564554
 20
1178.050594908074
 30
0.0
 10
356.0621234784726
 20
1178.041024143598
 30
0.0
 10
356.0470758584761
 20
1178.03775510204
 30
0.0
  0
LINE
  5
1DA
330
1F
100
AcDbEntity
  8
0
  6
Continuous
 62
     7
370
    25
100
AcDbLine
 10
356.4940639177
 20
1177.2594412689
 30
0.0
 11
356.4940364228
 21
1177.5647809271
 31
0.0
  0
LINE
  5
1DB
330
1F
100
AcDbEntity
  8
0
  6
Continuous
 62
     7
370
    25
100
AcDbLine
 10
356.4940364228
 20
1177.5647809271
 30
0.0
 11
356.4371543823
 21
1177.5845233509
 31
0.0
  0
SPLINE
  5
1DC
330
1F
100
AcDbEntity
  8
0
  6
Continuous
 62
     7
370
    25
100
AcDbSpline
210
0.0
220
0.0
230
1.0
 70
     8
 71
     3
 72
     9
 73
     5
 74
     0
 42
0.00000001
 43
0.00000001
 40
0.0
 40
0.0
 40
0.0
 40
0.0
 40
0.4968763780362625
 40
1.0
 40
1.0
 40
1.0
 40
1.0
 10
350.6080111861161
 20
1177.73289824845
 30
0.0
 10
350.5967847213303
 20
1177.739035456792
 30
0.0
 10
350.5741906410277
 20
1177.75138703681
 30
0.0
 10
350.5642232155032
 20
1177.693515729906
 30
0.0
 10
350.5592083682717
 20
1177.664399308369
 30
0.0
  0
SPLINE
  5
1DD
330
1F
100
AcDbEntity
  8
0
  6
Continuous
 62
     7
370
    25
100
AcDbSpline
210
0.0
220
0.0
230
1.0
 70
     8
 71
     3
 72
    11
 73
     7
 74
     0
 42
0.00000001
 43
0.00000001
 40
0.0
 40
0.0
 40
0.0
 40
0.0
 40
0.1030913913741844
 40
0.6336944505424922
 40
0.9210616882474132
 40
1.0
 40
1.0
 40
1.0
 40
1.0
 10
350.5528864909602
 20
1177.49499656176
 30
0.0
 10
350.5522602944537
 20
1177.481434185168
 30
0.0
 10
350.5484111151397
 20
1177.39806735242
 30
0.0
 10
350.5620587575281
 20
1177.262435181503
 30
0.0
 10
350.5905307331456
 20
1177.247961723748
 30
0.0
 10
350.6057753322685
 20
1177.257406033806
 30
0.0
 10
350.6090605211494
 20
1177.259441268852
 30
0.0
  0
LINE
  5
1DE
330
1F
100
AcDbEntity
  8
0
  6
Continuous
 62
     7
370
    25
100
AcDbLine
 10
350.6090605211
 20
1177.2594412689
 30
0.0
 11
350.8746244904
 21
1177.3517423818
 31
0.0
  0
LINE
  5
1DF
330
1F
100
AcDbEntity
  8
0
  6
Continuous
 62
     7
370
    25
100
AcDbLine
 10
350.6090605211
 20
1177.2594412689
 30
0.0
 11
350.6090327758
 21
1177.5647809271
 31
0.0
  0
LINE
  5
1E0
330
1F
100
AcDbEntity
  8
0
  6
Continuous
 62
     7
370
    25
100
AcDbLine
 10
350.7287311225
 20
1177.6063402618
 30
0.0
 11
350.6090327758
 21
1177.5647809271
 31
0.0
  0
SPLINE
  5
1E1
330
1F
100
AcDbEntity
  8
0
  6
Continuous
 62
     7
370
    25
100
AcDbSpline
210
0.0
220
0.0
230
1.0
 70
     8
 71
     3
 72
    10
 73
     6
 74
     0
 42
0.00000001
 43
0.00000001
 40
0.0
 40
0.0
 40
0.0
 40
0.0
 40
0.2813095273738845
 40
0.5661622118459297
 40
1.0
 40
1.0
 40
1.0
 40
1.0
 10
350.6090327758138
 20
1177.564780927142
 30
0.0
 10
350.597896915669
 20
1177.559076643998
 30
0.0
 10
350.5754849367032
 20
1177.547596230975
 30
0.0
 10
350.5542208086609
 20
1177.641382696824
 30
0.0
 10
350.5532749672305
 20
1177.744400549652
 30
0.0
 10
350.5527040096769
 20
1177.806587317272
 30
0.0
  0
LINE
  5
1E2
330
1F
100
AcDbEntity
  8
0
  6
Continuous
 62
     7
370
    25
100
AcDbLine
 10
350.6079838922
 20
1178.037755102
 30
0.0
 11
350.6090534264
 21
1178.0373842836
 31
0.0
  0
LINE
  5
1E3
330
1F
100
AcDbEntity
  8
0
  6
Continuous
 62
     7
370
    25
100
AcDbLine
 10
356.4940296276
 20
1177.7328982484
 30
0.0
 11
356.3749740913
 21
1177.6915763628
 31
0.0
  0
SPLINE
  5
1E4
330
1F
100
AcDbEntity
  8
0
  6
Continuous
 62
     7
370
    25
100
AcDbSpline
210
0.0
220
0.0
230
1.0
 70
     8
 71
     3
 72
    13
 73
     9
 74
     0
 42
0.00000001
 43
0.00000001
 40
0.0
 40
0.0
 40
0.0
 40
0.0
 40
0.1421166978324647
 40
0.2860202338338306
 40
0.5510761480919003
 40
0.816655457807582
 40
0.9604895185160572
 40
0.9999999999999999
 40
0.9999999999999999
 40
0.9999999999999999
 40
0.9999999999999999
 10
356.4940296275618
 20
1177.73289824845
 30
0.0
 10
356.5051237454082
 20
1177.738624808219
 30
0.0
 10
356.5274514678297
 20
1177.750149927991
 30
0.0
 10
356.5492410604651
 20
1177.646670866498
 30
0.0
 10
356.5543554205572
 20
1177.453121126511
 30
0.0
 10
356.5407787505876
 20
1177.263538496954
 30
0.0
 10
356.5114782493654
 20
1177.24791764183
 30
0.0
 10
356.4962598379881
 20
1177.257398218421
 30
0.0
 10
356.4929802925282
 20
1177.259441268852
 30
0.0
  0
LINE
  5
1E5
330
1F
100
AcDbEntity
  8
0
  6
Continuous
 62
     7
370
    25
100
AcDbLine
 10
356.4929802925
 20
1177.2594412689
 30
0.0
 11
356.047055976
 21
1177.4144295785
 31
0.0
  0
LINE
  5
1E6
330
1F
100
AcDbEntity
  8
0
  6
Continuous
 62
     7
370
    25
100
AcDbLine
 10
356.4940569214
 20
1178.037755102
 30
0.0
 11
356.2296172616
 21
1177.9460711735
 31
0.0
  0
LINE
  5
1E7
330
1F
100
AcDbEntity
  8
0
  6
Continuous
 62
     7
370
    25
100
AcDbLine
 10
356.4940569214
 20
1178.037755102
 30
0.0
 11
356.4940296276
 21
1177.7328982484
 31
0.0
  0
SPLINE
  5
1E8
330
1F
100
AcDbEntity
  8
0
  6
Continuous
 62
     7
370
    25
100
AcDbSpline
210
0.0
220
0.0
230
1.0
 70
     8
 71
     3
 72
    11
 73
     7
 74
     0
 42
0.00000001
 43
0.00000001
 40
0.0
 40
0.0
 40
0.0
 40
0.0
 40
0.0923106480574192
 40
0.6272657996453374
 40
0.8726869108820109
 40
1.0
 40
1.0
 40
1.0
 40
1.0
 10
356.5493368040011
 20
1177.806587317271
 30
0.0
 10
356.5499148136947
 20
1177.818617189396
 30
0.0
 10
356.553842483149
 20
1177.90036211825
 30
0.0
 10
356.5410553205496
 20
1178.02637299957
 30
0.0
 10
356.5142014620679
 20
1178.050527431543
 30
0.0
 10
356.4991857637511
 20
1178.041006963931
 30
0.0
 10
356.494056921439
 20
1178.037755102041
 30
0.0
  0
LINE
  5
1E9
330
1F
100
AcDbEntity
  8
0
  6
Continuous
 62
     7
370
    25
100
AcDbLine
 10
350.6080043908
 20
1177.5647809271
 30
0.0
 11
350.7285927438
 21
1177.6066343195
 31
0.0
  0
SPLINE
  5
1EA
330
1F
100
AcDbEntity
  8
0
  6
Continuous
 62
     7
370
    25
100
AcDbSpline
210
0.0
220
0.0
230
1.0
 70
     8
 71
     3
 72
    10
 73
     6
 74
     0
 42
0.00000001
 43
0.00000001
 40
0.0
 40
0.0
 40
0.0
 40
0.0
 40
0.3834427420120924
 40
0.7894054018744988
 40
1.0
 40
1.0
 40
1.0
 40
1.0
 10
350.8724235520427
 20
1177.946071173458
 30
0.0
 10
350.8898542057225
 20
1177.976709832463
 30
0.0
 10
350.9257392301744
 20
1178.039786584934
 30
0.0
 10
350.9961558584251
 20
1178.049891658699
 30
0.0
 10
351.0399920357669
 20
1178.040845094831
 30
0.0
 10
351.0549649552015
 20
1178.037755102041
 30
0.0
  0
LINE
  5
1EB
330
1F
100
AcDbEntity
  8
0
  6
Continuous
 62
     7
370
    25
100
AcDbLine
 10
351.058010507
 20
1178.036510168
 30
0.0
 11
351.0549649552
 21
1178.037755102
 31
0.0
  0
SPLINE
  5
1EC
330
1F
100
AcDbEntity
  8
0
  6
Continuous
 62
     7
370
    25
100
AcDbSpline
210
0.0
220
0.0
230
1.0
 70
     8
 71
     3
 72
    10
 73
     6
 74
     0
 42
0.00000001
 43
0.00000001
 40
0.0
 40
0.0
 40
0.0
 40
0.0
 40
0.3886151440722915
 40
0.8682474550834858
 40
1.0
 40
1.0
 40
1.0
 40
1.0
 10
356.2274163233101
 20
1177.35174238177
 30
0.0
 10
356.2096225061914
 20
1177.320577208409
 30
0.0
 10
356.1698673997188
 20
1177.250947697385
 30
0.0
 10
356.097296463055
 20
1177.248369500425
 30
0.0
 10
356.0534572337261
 20
1177.257478329474
 30
0.0
 10
356.044009943733
 20
1177.259441268852
 30
0.0
  0
LINE
  5
1ED
330
1F
100
AcDbEntity
  8
0
  6
Continuous
 62
     7
370
    25
100
AcDbLine
 10
356.2294252665
 20
1177.946337266
 30
0.0
 11
356.4929873537
 21
1178.037755102
 31
0.0
  0
LINE
  5
1EE
330
1F
100
AcDbEntity
  8
0
  6
Continuous
 62
     7
370
    25
100
AcDbLine
 10
351.8819478339
 20
1178.037755102
 30
0.0
 11
351.8865052338
 21
1178.0349694452
 31
0.0
  0
LINE
  5
1EF
330
1F
100
AcDbEntity
  8
0
  6
Continuous
 62
     7
370
    25
100
AcDbLine
 10
356.0440299874
 20
1178.037755102
 30
0.0
 11
355.6988372673
 21
1177.8964521527
 31
0.0
  0
LINE
  5
1F0
330
1F
100
AcDbEntity
  8
0
  6
Continuous
 62
     7
370
    25
100
AcDbLine
 10
356.0440299874
 20
1178.037755102
 30
0.0
 11
356.0440303066
 21
1178.036510168
 31
0.0
  0
LINE
  5
1F1
330
1F
100
AcDbEntity
  8
0
  6
Continuous
 62
     7
370
    25
100
AcDbLine
 10
355.2155345116
 20
1178.037755102
 30
0.0
 11
355.0510204082
 21
1177.9368813283
 31
0.0
  0
LINE
  5
1F2
330
1F
100
AcDbEntity
  8
0
  6
Continuous
 62
     7
370
    25
100
AcDbLine
 10
355.2155345116
 20
1178.037755102
 30
0.0
 11
355.2155355799
 21
1178.0349694452
 31
0.0
  0
LINE
  5
1F3
330
1F
100
AcDbEntity
  8
0
  6
Continuous
 62
     7
370
    25
100
AcDbLine
 10
782.9682711046
 20
1177.7328982484
 30
0.0
 11
783.0162324655
 21
1177.6488385299
 31
0.0
  0
SPLINE
  5
1F4
330
1F
100
AcDbEntity
  8
0
  6
Continuous
 62
     7
370
    25
100
AcDbSpline
210
0.0
220
0.0
230
1.0
 70
     8
 71
     3
 72
    13
 73
     9
 74
     0
 42
0.00000001
 43
0.00000001
 40
0.0
 40
0.0
 40
0.0
 40
0.0
 40
0.1421166978323154
 40
0.2860202338337614
 40
0.5510761480915803
 40
0.8166554578072012
 40
0.9604895185154421
 40
1.0
 40
1.0
 40
1.0
 40
1.0
 10
782.9682711046177
 20
1177.73289824845
 30
0.0
 10
783.0302939584049
 20
1177.738624808218
 30
0.0
 10
783.1551194814703
 20
1177.750149927991
 30
0.0
 10
783.381701022324
 20
1177.646670866498
 30
0.0
 10
783.6006137373741
 20
1177.453121126511
 30
0.0
 10
783.8433426008912
 20
1177.263538496954
 30
0.0
 10
784.0439771657982
 20
1177.24791764183
 30
0.0
 10
784.1221895965842
 20
1177.257398218421
 30
0.0
 10
784.1390442613672
 20
1177.259441268851
 30
0.0
  0
LINE
  5
1F5
330
1F
100
AcDbEntity
  8
0
  6
Continuous
 62
     7
370
    25
100
AcDbLine
 10
783.1032713804
 20
1177.4962893411
 30
0.0
 11
783.5530332846
 21
1177.4962893411
 31
0.0
  0
SPLINE
  5
1F6
330
1F
100
AcDbEntity
  8
0
  6
Continuous
 62
     7
370
    25
100
AcDbSpline
210
0.0
220
0.0
230
1.0
 70
     8
 71
     3
 72
    10
 73
     6
 74
     0
 42
0.00000001
 43
0.00000001
 40
0.0
 40
0.0
 40
0.0
 40
0.0
 40
0.3223023543381802
 40
0.6611511742647135
 40
1.0
 40
1.0
 40
1.0
 40
1.0
 10
783.0162547265572
 20
1177.648840573363
 30
0.0
 10
783.0256110672779
 20
1177.632451995769
 30
0.0
 10
783.0448040876545
 20
1177.598833478329
 30
0.0
 10
783.0738101619046
 20
1177.547982685037
 30
0.0
 10
783.0934509741832
 20
1177.513520455848
 30
0.0
 10
783.1032713804065
 20
1177.496289341106
 30
0.0
  0
LINE
  5
1F7
330
1F
100
AcDbEntity
  8
0
  6
Continuous
 62
     7
370
    25
100
AcDbLine
 10
782.0233823442
 20
1177.6488384768
 30
0.0
 11
781.8863893839
 21
1177.7328982484
 31
0.0
  0
SPLINE
  5
1F8
330
1F
100
AcDbEntity
  8
0
  6
Continuous
 62
     7
370
    25
100
AcDbSpline
210
0.0
220
0.0
230
1.0
 70
     8
 71
     3
 72
    13
 73
     9
 74
     0
 42
0.00000001
 43
0.00000001
 40
0.0
 40
0.0
 40
0.0
 40
0.0
 40
0.1421166978323087
 40
0.286020233833733
 40
0.5510761480912789
 40
0.8166554578066352
 40
0.9604895185151856
 40
1.0
 40
1.0
 40
1.0
 40
1.0
 10
781.8863893838632
 20
1177.73289824845
 30
0.0
 10
781.9394454939285
 20
1177.738624808218
 30
0.0
 10
782.0462247903704
 20
1177.750149927991
 30
0.0
 10
782.2472203223109
 20
1177.646670866498
 30
0.0
 10
782.4475121182772
 20
1177.453121126511
 30
0.0
 10
782.6769599138939
 20
1177.263538496955
 30
0.0
 10
782.8735348983041
 20
1177.24791764183
 30
0.0
 10
782.9516175961965
 20
1177.257398218421
 30
0.0
 10
782.9684443037299
 20
1177.259441268851
 30
0.0
  0
LINE
  5
1F9
330
1F
100
AcDbEntity
  8
0
  6
Continuous
 62
     7
370
    25
100
AcDbLine
 10
782.9684443037
 20
1177.2594412689
 30
0.0
 11
783.1032713804
 21
1177.4962893411
 31
0.0
  0
SPLINE
  5
1FA
330
1F
100
AcDbEntity
  8
0
  6
Continuous
 62
     7
370
    25
100
AcDbSpline
210
0.0
220
0.0
230
1.0
 70
     8
 71
     3
 72
    10
 73
     6
 74
     0
 42
0.00000001
 43
0.00000001
 40
0.0
 40
0.0
 40
0.0
 40
0.0
 40
0.3223023543360188
 40
0.6611511742600517
 40
1.0
 40
1.0
 40
1.0
 40
1.0
 10
782.2719930326858
 20
1177.496289341106
 30
0.0
 10
782.2452924749754
 20
1177.512679037445
 30
0.0
 10
782.1905205974319
 20
1177.546299849811
 30
0.0
 10
782.1076572385201
 20
1177.597150722956
 30
0.0
 10
782.0514866850154
 20
1177.631610623129
 30
0.0
 10
782.0234014080224
 20
1177.648840573363
 30
0.0
  0
LINE
  5
1FB
330
1F
100
AcDbEntity
  8
0
  6
Continuous
 62
     7
370
    25
100
AcDbLine
 10
784.0905213778
 20
1177.6488405231
 30
0.0
 11
784.1389054308
 21
1177.5647809271
 31
0.0
  0
SPLINE
  5
1FC
330
1F
100
AcDbEntity
  8
0
  6
Continuous
 62
     7
370
    25
100
AcDbSpline
210
0.0
220
0.0
230
1.0
 70
     8
 71
     3
 72
    12
 73
     8
 74
     0
 42
0.00000001
 43
0.00000001
 40
0.0
 40
0.0
 40
0.0
 40
0.0
 40
0.1591001189661011
 40
0.3202041399009238
 40
0.6168538849297562
 40
0.9140545764647251
 40
0.9999999999999999
 40
0.9999999999999999
 40
0.9999999999999999
 40
0.9999999999999999
 10
784.1389054307984
 20
1177.564780927142
 30
0.0
 10
784.0769932085379
 20
1177.559001586686
 30
0.0
 10
783.9523889655803
 20
1177.547370113675
 30
0.0
 10
783.7262173558627
 20
1177.65112691068
 30
0.0
 10
783.5072125706705
 20
1177.840386736331
 30
0.0
 10
783.2901371300678
 20
1178.022821819231
 30
0.0
 10
783.1410971569253
 20
1178.035019074613
 30
0.0
 10
783.1076652542866
 20
1178.037755102041
 30
0.0
  0
LINE
  5
1FD
330
1F
100
AcDbEntity
  8
0
  6
Continuous
 62
     7
370
    25
100
AcDbLine
 10
783.5530311015
 20
1177.8013893411
 30
0.0
 11
784.0027154585
 21
1177.8013893411
 31
0.0
  0
LINE
  5
1FE
330
1F
100
AcDbEntity
  8
0
  6
Continuous
 62
     7
370
    25
100
AcDbLine
 10
784.0027154585
 20
1177.8013893411
 30
0.0
 11
784.0686881231
 21
1177.6867723302
 31
0.0
  0
LINE
  5
1FF
330
1F
100
AcDbEntity
  8
0
  6
Continuous
 62
     7
370
    25
100
AcDbLine
 10
784.0904991523
 20
1177.6488384219
 30
0.0
 11
784.0686881231
 21
1177.6867723302
 31
0.0
  0
LINE
  5
200
330
1F
100
AcDbEntity
  8
0
  6
Continuous
 62
     7
370
    25
100
AcDbLine
 10
782.9684089615
 20
1178.037755102
 30
0.0
 11
782.9682711046
 21
1177.7328982484
 31
0.0
  0
LINE
  5
201
330
1F
100
AcDbEntity
  8
0
  6
Continuous
 62
     7
370
    25
100
AcDbLine
 10
784.1390442614
 20
1177.2594412689
 30
0.0
 11
784.1389054308
 21
1177.5647809271
 31
0.0
  0
LINE
  5
202
330
1F
100
AcDbEntity
  8
0
  6
Continuous
 62
     7
370
    25
100
AcDbLine
 10
781.8865063021
 20
1178.037755102
 30
0.0
 11
781.8863893839
 21
1177.7328982484
 31
0.0
  0
SPLINE
  5
203
330
1F
100
AcDbEntity
  8
0
  6
Continuous
 62
     7
370
    25
100
AcDbSpline
210
0.0
220
0.0
230
1.0
 70
     8
 71
     3
 72
    12
 73
     8
 74
     0
 42
0.00000001
 43
0.00000001
 40
0.0
 40
0.0
 40
0.0
 40
0.0
 40
0.1591001189658515
 40
0.3202041399009014
 40
0.6168538849295563
 40
0.9140545764644716
 40
1.0
 40
1.0
 40
1.0
 40
1.0
 10
782.9683054233286
 20
1177.564780927141
 30
0.0
 10
782.9068269299871
 20
1177.559001586686
 30
0.0
 10
782.7830956077813
 20
1177.547370113675
 30
0.0
 10
782.5656077525142
 20
1177.65112691068
 30
0.0
 10
782.3614494223525
 20
1177.840386736331
 30
0.0
 10
782.1644647516837
 20
1178.022821819231
 30
0.0
 10
782.0352697226052
 20
1178.035019074613
 30
0.0
 10
782.0062893387357
 20
1178.037755102041
 30
0.0
  0
LINE
  5
204
330
1F
100
AcDbEntity
  8
0
  6
Continuous
 62
     7
370
    25
100
AcDbLine
 10
782.9684443037
 20
1177.2594412689
 30
0.0
 11
782.9683054233
 21
1177.5647809271
 31
0.0
  0
LINE
  5
205
330
1F
100
AcDbEntity
  8
0
  6
Continuous
 62
     7
370
    25
100
AcDbLine
 10
785.2200052726
 20
1177.5647809271
 30
0.0
 11
785.0826540873
 21
1177.6488404706
 31
0.0
  0
SPLINE
  5
206
330
1F
100
AcDbEntity
  8
0
  6
Continuous
 62
     7
370
    25
100
AcDbSpline
210
0.0
220
0.0
230
1.0
 70
     8
 71
     3
 72
    12
 73
     8
 74
     0
 42
0.00000001
 43
0.00000001
 40
0.0
 40
0.0
 40
0.0
 40
0.0
 40
0.1591001189660818
 40
0.3202041399009017
 40
0.6168538849295101
 40
0.9140545764645532
 40
1.0
 40
1.0
 40
1.0
 40
1.0
 10
785.2200052725614
 20
1177.564780927141
 30
0.0
 10
785.1670848959856
 20
1177.559001586686
 30
0.0
 10
785.0605775987262
 20
1177.547370113675
 30
0.0
 10
784.8601548118861
 20
1177.65112691068
 30
0.0
 10
784.659645064926
 20
1177.840386736331
 30
0.0
 10
784.4555266224279
 20
1178.022821819231
 30
0.0
 10
784.3093316900813
 20
1178.035019074613
 30
0.0
 10
784.2765379727891
 20
1178.037755102041
 30
0.0
  0
LINE
  5
207
330
1F
100
AcDbEntity
  8
0
  6
Continuous
 62
     7
370
    25
100
AcDbLine
 10
784.0027154585
 20
1177.8013893411
 30
0.0
 11
784.1390089321
 21
1178.037755102
 31
0.0
  0
LINE
  5
208
330
1F
100
AcDbEntity
  8
0
  6
Continuous
 62
     7
370
    25
100
AcDbLine
 10
784.8333930597
 20
1177.8013893411
 30
0.0
 11
785.0206743802
 21
1177.6867723302
 31
0.0
  0
LINE
  5
209
330
1F
100
AcDbEntity
  8
0
  6
Continuous
 62
     7
370
    25
100
AcDbLine
 10
785.0826349544
 20
1177.6488384219
 30
0.0
 11
785.0206743802
 21
1177.6867723302
 31
0.0
  0
SPLINE
  5
20A
330
1F
100
AcDbEntity
  8
0
  6
Continuous
 62
     7
370
    25
100
AcDbSpline
210
0.0
220
0.0
230
1.0
 70
     8
 71
     3
 72
    13
 73
     9
 74
     0
 42
0.00000001
 43
0.00000001
 40
0.0
 40
0.0
 40
0.0
 40
0.0
 40
0.1421166978323103
 40
0.2860202338337997
 40
0.5510761480913443
 40
0.8166554578064643
 40
0.960489518514996
 40
1.0
 40
1.0
 40
1.0
 40
1.0
 10
784.1388711239999
 20
1177.73289824845
 30
0.0
 10
784.2004183042584
 20
1177.738624808218
 30
0.0
 10
784.3242864996064
 20
1177.750149927991
 30
0.0
 10
784.5419590637462
 20
1177.646670866498
 30
0.0
 10
784.7461652214606
 20
1177.453121126511
 30
0.0
 10
784.9652218837504
 20
1177.263538496955
 30
0.0
 10
785.139371235404
 20
1177.24791764183
 30
0.0
 10
785.2058062654943
 20
1177.257398218421
 30
0.0
 10
785.2201229176018
 20
1177.259441268851
 30
0.0
  0
LINE
  5
20B
330
1F
100
AcDbEntity
  8
0
  6
Continuous
 62
     7
370
    25
100
AcDbLine
 10
784.1390089321
 20
1178.037755102
 30
0.0
 11
784.138871124
 21
1177.7328982484
 31
0.0
  0
LINE
  5
20C
330
1F
100
AcDbEntity
  8
0
  6
Continuous
 62
     7
370
    25
100
AcDbLine
 10
785.2201229176
 20
1177.2594412689
 30
0.0
 11
785.2200052726
 21
1177.5647809271
 31
0.0
  0
LINE
  5
20D
330
1F
100
AcDbEntity
  8
0
  6
Continuous
 62
     7
370
    25
100
AcDbLine
 10
782.9683054233
 20
1177.5647809271
 30
0.0
 11
783.0162545919
 21
1177.6488404706
 31
0.0
  0
LINE
  5
20E
330
1F
100
AcDbEntity
  8
0
  6
Continuous
 62
     7
370
    25
100
AcDbLine
 10
782.6707165337
 20
1177.8013893411
 30
0.0
 11
782.9103529815
 21
1177.8013893411
 31
0.0
  0
LINE
  5
20F
330
1F
100
AcDbEntity
  8
0
  6
Continuous
 62
     7
370
    25
100
AcDbLine
 10
784.0904992589
 20
1177.6488384768
 30
0.0
 11
784.138871124
 21
1177.7328982484
 31
0.0
  0
LINE
  5
210
330
1F
100
AcDbEntity
  8
0
  6
Continuous
 62
     7
370
    25
100
AcDbLine
 10
784.0027154585
 20
1177.4962893411
 30
0.0
 11
784.4350415753
 21
1177.4962893411
 31
0.0
  0
SPLINE
  5
211
330
1F
100
AcDbEntity
  8
0
  6
Continuous
 62
     7
370
    25
100
AcDbSpline
210
0.0
220
0.0
230
1.0
 70
     8
 71
     3
 72
    13
 73
     9
 74
     0
 42
0.00000001
 43
0.00000001
 40
0.0
 40
0.0
 40
0.0
 40
0.0
 40
0.1421166978324387
 40
0.2860202338338005
 40
0.5510761480916154
 40
0.8166554578070832
 40
0.960489518515601
 40
1.0
 40
1.0
 40
1.0
 40
1.0
 10
781.0579326464386
 20
1177.73289824845
 30
0.0
 10
781.0939447009796
 20
1177.738624808219
 30
0.0
 10
781.1664215908714
 20
1177.750149927991
 30
0.0
 10
781.3112313661898
 20
1177.646670866498
 30
0.0
 10
781.4624096327866
 20
1177.453121126511
 30
0.0
 10
781.6436450135706
 20
1177.263538496954
 30
0.0
 10
781.8062336580639
 20
1177.24791764183
 30
0.0
 10
781.8722992401292
 20
1177.257398218421
 30
0.0
 10
781.8865362767257
 20
1177.259441268851
 30
0.0
  0
LINE
  5
212
330
1F
100
AcDbEntity
  8
0
  6
Continuous
 62
     7
370
    25
100
AcDbLine
 10
781.0580108263
 20
1178.037755102
 30
0.0
 11
781.0579326464
 21
1177.7328982484
 31
0.0
  0
SPLINE
  5
213
330
1F
100
AcDbEntity
  8
0
  6
Continuous
 62
     7
370
    25
100
AcDbSpline
210
0.0
220
0.0
230
1.0
 70
     8
 71
     3
 72
    13
 73
     9
 74
     0
 42
0.00000001
 43
0.00000001
 40
0.0
 40
0.0
 40
0.0
 40
0.0
 40
0.1419103113864741
 40
0.2856080152290901
 40
0.5502065457856465
 40
0.8152964964036623
 40
0.9369116823970652
 40
1.0
 40
1.0
 40
1.0
 40
1.0
 10
781.8864184897739
 20
1177.564780927142
 30
0.0
 10
781.8347308798957
 20
1177.559032991811
 30
0.0
 10
781.7307046430068
 20
1177.547464724605
 30
0.0
 10
781.555057754456
 20
1177.650608109964
 30
0.0
 10
781.3964953212562
 20
1177.844230290837
 30
0.0
 10
781.23981723422
 20
1178.025487172812
 30
0.0
 10
781.1187093771421
 20
1178.050594908074
 30
0.0
 10
781.0734648047
 20
1178.041024143598
 30
0.0
 10
781.0580108262943
 20
1178.03775510204
 30
0.0
  0
LINE
  5
214
330
1F
100
AcDbEntity
  8
0
  6
Continuous
 62
     7
370
    25
100
AcDbLine
 10
781.8865362767
 20
1177.2594412689
 30
0.0
 11
781.8864184898
 21
1177.5647809271
 31
0.0
  0
LINE
  5
215
330
1F
100
AcDbEntity
  8
0
  6
Continuous
 62
     7
370
    25
100
AcDbLine
 10
781.0579326464
 20
1177.7328982484
 30
0.0
 11
781.2631011101
 21
1177.6488385299
 31
0.0
  0
LINE
  5
216
330
1F
100
AcDbEntity
  8
0
  6
Continuous
 62
     7
370
    25
100
AcDbLine
 10
781.8865362767
 20
1177.2594412689
 30
0.0
 11
782.2719930327
 21
1177.4962893411
 31
0.0
  0
LINE
  5
217
330
1F
100
AcDbEntity
  8
0
  6
Continuous
 62
     7
370
    25
100
AcDbLine
 10
781.2631142342
 20
1177.6488405734
 30
0.0
 11
781.3083549568
 21
1177.6303064141
 31
0.0
  0
LINE
  5
218
330
1F
100
AcDbEntity
  8
0
  6
Continuous
 62
     7
370
    25
100
AcDbLine
 10
782.023401109
 20
1177.6488405231
 30
0.0
 11
781.8864184898
 21
1177.5647809271
 31
0.0
  0
SPLINE
  5
219
330
1F
100
AcDbEntity
  8
0
  6
Continuous
 62
     7
370
    25
100
AcDbSpline
210
0.0
220
0.0
230
1.0
 70
     8
 71
     3
 72
    13
 73
     9
 74
     0
 42
0.00000001
 43
0.00000001
 40
0.0
 40
0.0
 40
0.0
 40
0.0
 40
0.1421166978323965
 40
0.2860202338337038
 40
0.5510761480914715
 40
0.8166554578069111
 40
0.9604895185152531
 40
1.0
 40
1.0
 40
1.0
 40
1.0
 10
785.2199762005744
 20
1177.73289824845
 30
0.0
 10
785.2716777070364
 20
1177.738624808219
 30
0.0
 10
785.3757307647937
 20
1177.750149927991
 30
0.0
 10
785.5513556775345
 20
1177.646670866498
 30
0.0
 10
785.7097667415369
 20
1177.453121126511
 30
0.0
 10
785.871801811519
 20
1177.263538496954
 30
0.0
 10
785.9929532897975
 20
1177.24791764183
 30
0.0
 10
786.0374967880961
 20
1177.257398218421
 30
0.0
 10
786.047095847025
 20
1177.259441268851
 30
0.0
  0
LINE
  5
21A
330
1F
100
AcDbEntity
  8
0
  6
Continuous
 62
     7
370
    25
100
AcDbLine
 10
785.2200929798
 20
1178.037755102
 30
0.0
 11
785.2199762006
 21
1177.7328982484
 31
0.0
  0
SPLINE
  5
21B
330
1F
100
AcDbEntity
  8
0
  6
Continuous
 62
     7
370
    25
100
AcDbSpline
210
0.0
220
0.0
230
1.0
 70
     8
 71
     3
 72
    12
 73
     8
 74
     0
 42
0.00000001
 43
0.00000001
 40
0.0
 40
0.0
 40
0.0
 40
0.0
 40
0.1591001189661159
 40
0.3202041399009396
 40
0.6168538849300088
 40
0.9140545764649529
 40
1.0
 40
1.0
 40
1.0
 40
1.0
 10
786.0470172979034
 20
1177.564780927142
 30
0.0
 10
786.0111454146214
 20
1177.559001586686
 30
0.0
 10
785.9389498335772
 20
1177.547370113675
 30
0.0
 10
785.7947884220745
 20
1177.65112691068
 30
0.0
 10
785.6432995046953
 20
1177.840386736331
 30
0.0
 10
785.4832132428334
 20
1178.022821819231
 30
0.0
 10
785.3621202044731
 20
1178.035019074613
 30
0.0
 10
785.3349572187092
 20
1178.037755102041
 30
0.0
  0
LINE
  5
21C
330
1F
100
AcDbEntity
  8
0
  6
Continuous
 62
     7
370
    25
100
AcDbLine
 10
786.047095847
 20
1177.2594412689
 30
0.0
 11
786.0470172979
 21
1177.5647809271
 31
0.0
  0
LINE
  5
21D
330
1F
100
AcDbEntity
  8
0
  6
Continuous
 62
     7
370
    25
100
AcDbLine
 10
785.2199762006
 20
1177.7328982484
 30
0.0
 11
785.0826353439
 21
1177.6488385299
 31
0.0
  0
LINE
  5
21E
330
1F
100
AcDbEntity
  8
0
  6
Continuous
 62
     7
370
    25
100
AcDbLine
 10
785.2200929798
 20
1178.037755102
 30
0.0
 11
784.8333930597
 21
1177.8013893411
 31
0.0
  0
LINE
  5
21F
330
1F
100
AcDbEntity
  8
0
  6
Continuous
 62
     7
370
    25
100
AcDbLine
 10
785.8416092947
 20
1177.6488405231
 30
0.0
 11
786.0470172979
 21
1177.5647809271
 31
0.0
  0
LINE
  5
220
330
1F
100
AcDbEntity
  8
0
  6
Continuous
 62
     7
370
    25
100
AcDbLine
 10
781.0580308699
 20
1177.2594412689
 30
0.0
 11
781.4897459377
 21
1177.4365284679
 31
0.0
  0
LINE
  5
221
330
1F
100
AcDbEntity
  8
0
  6
Continuous
 62
     7
370
    25
100
AcDbLine
 10
781.0580308699
 20
1177.2594412689
 30
0.0
 11
781.0579521084
 21
1177.5647809271
 31
0.0
  0
LINE
  5
222
330
1F
100
AcDbEntity
  8
0
  6
Continuous
 62
     7
370
    25
100
AcDbLine
 10
781.0579521084
 20
1177.5647809271
 30
0.0
 11
781.2631136582
 21
1177.6488404706
 31
0.0
  0
SPLINE
  5
223
330
1F
100
AcDbEntity
  8
0
  6
Continuous
 62
     7
370
    25
100
AcDbSpline
210
0.0
220
0.0
230
1.0
 70
     8
 71
     3
 72
    13
 73
     9
 74
     0
 42
0.00000001
 43
0.00000001
 40
0.0
 40
0.0
 40
0.0
 40
0.0
 40
0.1421166978323524
 40
0.2860202338337059
 40
0.5510761480911954
 40
0.816655457806401
 40
0.9604895185145724
 40
1.0
 40
1.0
 40
1.0
 40
1.0
 10
780.6090259206385
 20
1177.73289824845
 30
0.0
 10
780.6225114108012
 20
1177.738624808218
 30
0.0
 10
780.649651944662
 20
1177.750149927991
 30
0.0
 10
780.7162299877687
 20
1177.646670866498
 30
0.0
 10
780.7952792043417
 20
1177.453121126511
 30
0.0
 10
780.9007107264698
 20
1177.263538496955
 30
0.0
 10
781.0045603837924
 20
1177.24791764183
 30
0.0
 10
781.0485509640474
 20
1177.257398218421
 30
0.0
 10
781.0580308699444
 20
1177.259441268851
 30
0.0
  0
LINE
  5
224
330
1F
100
AcDbEntity
  8
0
  6
Continuous
 62
     7
370
    25
100
AcDbLine
 10
780.6090534599
 20
1178.037755102
 30
0.0
 11
780.6090259206
 21
1177.7328982484
 31
0.0
  0
SPLINE
  5
225
330
1F
100
AcDbEntity
  8
0
  6
Continuous
 62
     7
370
    25
100
AcDbSpline
210
0.0
220
0.0
230
1.0
 70
     8
 71
     3
 72
    11
 73
     7
 74
     0
 42
0.00000001
 43
0.00000001
 40
0.0
 40
0.0
 40
0.0
 40
0.0
 40
0.1965526436526257
 40
0.3955809122901063
 40
0.7620626723492809
 40
1.0
 40
1.0
 40
1.0
 40
1.0
 10
781.0579521084386
 20
1177.564780927141
 30
0.0
 10
781.0239176052763
 20
1177.559146878055
 30
0.0
 10
780.9554199266894
 20
1177.547807817761
 30
0.0
 10
780.8484864313731
 20
1177.648726752558
 30
0.0
 10
780.7711595404838
 20
1177.829149514783
 30
0.0
 10
780.7196480405544
 20
1177.923677102659
 30
0.0
 10
780.6993698777934
 20
1177.960889100272
 30
0.0
  0
LINE
  5
226
330
1F
100
AcDbEntity
  8
0
  6
Continuous
 62
     7
370
    25
100
AcDbLine
 10
780.6664403842
 20
1177.7129640727
 30
0.0
 11
780.6090259206
 21
1177.7328982484
 31
0.0
  0
LINE
  5
227
330
1F
100
AcDbEntity
  8
0
  6
Continuous
 62
     7
370
    25
100
AcDbLine
 10
781.057970895
 20
1177.8820458311
 30
0.0
 11
780.6701932275
 21
1178.0165484661
 31
0.0
  0
LINE
  5
228
330
1F
100
AcDbEntity
  8
0
  6
Continuous
 62
     7
370
    25
100
AcDbLine
 10
785.8415967787
 20
1177.6488384768
 30
0.0
 11
786.0469978867
 21
1177.7328982484
 31
0.0
  0
SPLINE
  5
229
330
1F
100
AcDbEntity
  8
0
  6
Continuous
 62
     7
370
    25
100
AcDbSpline
210
0.0
220
0.0
230
1.0
 70
     8
 71
     3
 72
    13
 73
     9
 74
     0
 42
0.00000001
 43
0.00000001
 40
0.0
 40
0.0
 40
0.0
 40
0.0
 40
0.1421166978323424
 40
0.2860202338338478
 40
0.5510761480916724
 40
0.8166554578071732
 40
0.9604895185157643
 40
1.0
 40
1.0
 40
1.0
 40
1.0
 10
786.0469978866745
 20
1177.73289824845
 30
0.0
 10
786.0809826336566
 20
1177.738624808218
 30
0.0
 10
786.1493794190227
 20
1177.75014992799
 30
0.0
 10
786.2562193794442
 20
1177.646670866498
 30
0.0
 10
786.3447187012392
 20
1177.453121126511
 30
0.0
 10
786.4250638083603
 20
1177.263538496954
 30
0.0
 10
786.4747731989369
 20
1177.24791764183
 30
0.0
 10
786.4906438216157
 20
1177.257398218421
 30
0.0
 10
786.4940639176601
 20
1177.259441268851
 30
0.0
  0
LINE
  5
22A
330
1F
100
AcDbEntity
  8
0
  6
Continuous
 62
     7
370
    25
100
AcDbLine
 10
786.4335799431
 20
1177.2804542551
 30
0.0
 11
786.0470558966
 21
1177.4147381635
 31
0.0
  0
LINE
  5
22B
330
1F
100
AcDbEntity
  8
0
  6
Continuous
 62
     7
370
    25
100
AcDbLine
 10
785.615563194
 20
1177.8613651344
 30
0.0
 11
786.0470758585
 21
1178.037755102
 31
0.0
  0
LINE
  5
22C
330
1F
100
AcDbEntity
  8
0
  6
Continuous
 62
     7
370
    25
100
AcDbLine
 10
786.0470758585
 20
1178.037755102
 30
0.0
 11
786.0469978867
 21
1177.7328982484
 31
0.0
  0
SPLINE
  5
22D
330
1F
100
AcDbEntity
  8
0
  6
Continuous
 62
     7
370
    25
100
AcDbSpline
210
0.0
220
0.0
230
1.0
 70
     8
 71
     3
 72
    13
 73
     9
 74
     0
 42
0.00000001
 43
0.00000001
 40
0.0
 40
0.0
 40
0.0
 40
0.0
 40
0.1419103113864685
 40
0.2856080152290424
 40
0.5502065457857727
 40
0.8152964964039795
 40
0.9369116823976849
 40
1.0
 40
1.0
 40
1.0
 40
1.0
 10
786.494036422849
 20
1177.564780927141
 30
0.0
 10
786.4806805147823
 20
1177.559032991811
 30
0.0
 10
786.4538004779674
 20
1177.547464724605
 30
0.0
 10
786.3877244055202
 20
1177.650608109964
 30
0.0
 10
786.3091960268052
 20
1177.844230290837
 30
0.0
 10
786.2077603840364
 20
1178.025487172813
 30
0.0
 10
786.1061783564554
 20
1178.050594908074
 30
0.0
 10
786.0621234784726
 20
1178.041024143597
 30
0.0
 10
786.0470758584762
 20
1178.03775510204
 30
0.0
  0
LINE
  5
22E
330
1F
100
AcDbEntity
  8
0
  6
Continuous
 62
     7
370
    25
100
AcDbLine
 10
786.4940639177
 20
1177.2594412689
 30
0.0
 11
786.4940364228
 21
1177.5647809271
 31
0.0
  0
LINE
  5
22F
330
1F
100
AcDbEntity
  8
0
  6
Continuous
 62
     7
370
    25
100
AcDbLine
 10
786.4940364228
 20
1177.5647809271
 30
0.0
 11
786.4371543823
 21
1177.5845233509
 31
0.0
  0
SPLINE
  5
230
330
1F
100
AcDbEntity
  8
0
  6
Continuous
 62
     7
370
    25
100
AcDbSpline
210
0.0
220
0.0
230
1.0
 70
     8
 71
     3
 72
    10
 73
     6
 74
     0
 42
0.00000001
 43
0.00000001
 40
0.0
 40
0.0
 40
0.0
 40
0.0
 40
0.4156288886462703
 40
0.8364834937190699
 40
1.0
 40
1.0
 40
1.0
 40
1.0
 10
780.6080111861162
 20
1177.73289824845
 30
0.0
 10
780.5971338979808
 20
1177.738165795039
 30
0.0
 10
780.575242561189
 20
1177.748767117263
 30
0.0
 10
780.5590944243328
 20
1177.690123999801
 30
0.0
 10
780.5578895860448
 20
1177.635352811464
 30
0.0
 10
780.557552452768
 20
1177.620026945438
 30
0.0
  0
SPLINE
  5
231
330
1F
100
AcDbEntity
  8
0
  6
Continuous
 62
     7
370
    25
100
AcDbSpline
210
0.0
220
0.0
230
1.0
 70
     8
 71
     3
 72
    11
 73
     7
 74
     0
 42
0.00000001
 43
0.00000001
 40
0.0
 40
0.0
 40
0.0
 40
0.0
 40
0.103091391374201
 40
0.6336944505424524
 40
0.9210616882473955
 40
1.0
 40
1.0
 40
1.0
 40
1.0
 10
780.5528864909604
 20
1177.49499656176
 30
0.0
 10
780.5522602944538
 20
1177.481434185168
 30
0.0
 10
780.5484111151392
 20
1177.398067352419
 30
0.0
 10
780.5620587575282
 20
1177.262435181503
 30
0.0
 10
780.5905307331457
 20
1177.247961723748
 30
0.0
 10
780.6057753322688
 20
1177.257406033806
 30
0.0
 10
780.6090605211496
 20
1177.259441268851
 30
0.0
  0
LINE
  5
232
330
1F
100
AcDbEntity
  8
0
  6
Continuous
 62
     7
370
    25
100
AcDbLine
 10
780.6090605211
 20
1177.2594412689
 30
0.0
 11
780.8746244904
 21
1177.3517423818
 31
0.0
  0
LINE
  5
233
330
1F
100
AcDbEntity
  8
0
  6
Continuous
 62
     7
370
    25
100
AcDbLine
 10
780.6090605211
 20
1177.2594412689
 30
0.0
 11
780.6090327758
 21
1177.5647809271
 31
0.0
  0
LINE
  5
234
330
1F
100
AcDbEntity
  8
0
  6
Continuous
 62
     7
370
    25
100
AcDbLine
 10
780.7287311225
 20
1177.6063402618
 30
0.0
 11
780.6090327758
 21
1177.5647809271
 31
0.0
  0
SPLINE
  5
235
330
1F
100
AcDbEntity
  8
0
  6
Continuous
 62
     7
370
    25
100
AcDbSpline
210
0.0
220
0.0
230
1.0
 70
     8
 71
     3
 72
    10
 73
     6
 74
     0
 42
0.00000001
 43
0.00000001
 40
0.0
 40
0.0
 40
0.0
 40
0.0
 40
0.2813095273739185
 40
0.5661622118459451
 40
0.9999999999999999
 40
0.9999999999999999
 40
0.9999999999999999
 40
0.9999999999999999
 10
780.6090327758137
 20
1177.564780927142
 30
0.0
 10
780.597896915669
 20
1177.559076643998
 30
0.0
 10
780.575484936703
 20
1177.547596230975
 30
0.0
 10
780.5542208086607
 20
1177.641382696824
 30
0.0
 10
780.5532749672305
 20
1177.744400549652
 30
0.0
 10
780.552704009677
 20
1177.806587317271
 30
0.0
  0
LINE
  5
236
330
1F
100
AcDbEntity
  8
0
  6
Continuous
 62
     7
370
    25
100
AcDbLine
 10
780.6079838922
 20
1178.037755102
 30
0.0
 11
780.6090534264
 21
1178.0373842836
 31
0.0
  0
LINE
  5
237
330
1F
100
AcDbEntity
  8
0
  6
Continuous
 62
     7
370
    25
100
AcDbLine
 10
786.4940569214
 20
1178.037755102
 30
0.0
 11
786.2296172616
 21
1177.9460711735
 31
0.0
  0
LINE
  5
238
330
1F
100
AcDbEntity
  8
0
  6
Continuous
 62
     7
370
    25
100
AcDbLine
 10
786.4940569214
 20
1178.037755102
 30
0.0
 11
786.4940296276
 21
1177.7328982484
 31
0.0
  0
LINE
  5
239
330
1F
100
AcDbEntity
  8
0
  6
Continuous
 62
     7
370
    25
100
AcDbLine
 10
786.4940296276
 20
1177.7328982484
 30
0.0
 11
786.3749740913
 21
1177.6915763628
 31
0.0
  0
SPLINE
  5
23A
330
1F
100
AcDbEntity
  8
0
  6
Continuous
 62
     7
370
    25
100
AcDbSpline
210
0.0
220
0.0
230
1.0
 70
     8
 71
     3
 72
    13
 73
     9
 74
     0
 42
0.00000001
 43
0.00000001
 40
0.0
 40
0.0
 40
0.0
 40
0.0
 40
0.1421166978324629
 40
0.2860202338338209
 40
0.5510761480918872
 40
0.816655457807586
 40
0.9604895185160569
 40
1.0
 40
1.0
 40
1.0
 40
1.0
 10
786.4940296275619
 20
1177.73289824845
 30
0.0
 10
786.5051237454085
 20
1177.738624808219
 30
0.0
 10
786.52745146783
 20
1177.750149927991
 30
0.0
 10
786.549241060465
 20
1177.646670866498
 30
0.0
 10
786.5543554205573
 20
1177.45312112651
 30
0.0
 10
786.5407787505878
 20
1177.263538496954
 30
0.0
 10
786.5114782493654
 20
1177.24791764183
 30
0.0
 10
786.4962598379882
 20
1177.257398218421
 30
0.0
 10
786.4929802925282
 20
1177.259441268851
 30
0.0
  0
LINE
  5
23B
330
1F
100
AcDbEntity
  8
0
  6
Continuous
 62
     7
370
    25
100
AcDbLine
 10
786.4929802925
 20
1177.2594412689
 30
0.0
 11
786.047055976
 21
1177.4144295785
 31
0.0
  0
SPLINE
  5
23C
330
1F
100
AcDbEntity
  8
0
  6
Continuous
 62
     7
370
    25
100
AcDbSpline
210
0.0
220
0.0
230
1.0
 70
     8
 71
     3
 72
    11
 73
     7
 74
     0
 42
0.00000001
 43
0.00000001
 40
0.0
 40
0.0
 40
0.0
 40
0.0
 40
0.0923106480574181
 40
0.6272657996453477
 40
0.8726869108819971
 40
1.0
 40
1.0
 40
1.0
 40
1.0
 10
786.5493368040012
 20
1177.806587317271
 30
0.0
 10
786.5499148136948
 20
1177.818617189396
 30
0.0
 10
786.5538424831487
 20
1177.90036211825
 30
0.0
 10
786.5410553205498
 20
1178.02637299957
 30
0.0
 10
786.514201462068
 20
1178.050527431543
 30
0.0
 10
786.4991857637511
 20
1178.041006963931
 30
0.0
 10
786.494056921439
 20
1178.03775510204
 30
0.0
  0
LINE
  5
23D
330
1F
100
AcDbEntity
  8
0
  6
Continuous
 62
     7
370
    25
100
AcDbLine
 10
780.6080043908
 20
1177.5647809271
 30
0.0
 11
780.7285927438
 21
1177.6066343195
 31
0.0
  0
SPLINE
  5
23E
330
1F
100
AcDbEntity
  8
0
  6
Continuous
 62
     7
370
    25
100
AcDbSpline
210
0.0
220
0.0
230
1.0
 70
     8
 71
     3
 72
    10
 73
     6
 74
     0
 42
0.00000001
 43
0.00000001
 40
0.0
 40
0.0
 40
0.0
 40
0.0
 40
0.3834427420121624
 40
0.7894054018746025
 40
0.9999999999999999
 40
0.9999999999999999
 40
0.9999999999999999
 40
0.9999999999999999
 10
780.8724235520427
 20
1177.946071173458
 30
0.0
 10
780.8898542057225
 20
1177.976709832463
 30
0.0
 10
780.9257392301745
 20
1178.039786584934
 30
0.0
 10
780.9961558584253
 20
1178.049891658699
 30
0.0
 10
781.039992035767
 20
1178.040845094831
 30
0.0
 10
781.0549649552015
 20
1178.03775510204
 30
0.0
  0
LINE
  5
23F
330
1F
100
AcDbEntity
  8
0
  6
Continuous
 62
     7
370
    25
100
AcDbLine
 10
781.058010507
 20
1178.036510168
 30
0.0
 11
781.0549649552
 21
1178.037755102
 31
0.0
  0
SPLINE
  5
240
330
1F
100
AcDbEntity
  8
0
  6
Continuous
 62
     7
370
    25
100
AcDbSpline
210
0.0
220
0.0
230
1.0
 70
     8
 71
     3
 72
    10
 73
     6
 74
     0
 42
0.00000001
 43
0.00000001
 40
0.0
 40
0.0
 40
0.0
 40
0.0
 40
0.3886151440723286
 40
0.8682474550833714
 40
1.0
 40
1.0
 40
1.0
 40
1.0
 10
786.2274163233101
 20
1177.35174238177
 30
0.0
 10
786.2096225061913
 20
1177.320577208409
 30
0.0
 10
786.1698673997187
 20
1177.250947697385
 30
0.0
 10
786.0972964630554
 20
1177.248369500425
 30
0.0
 10
786.0534572337261
 20
1177.257478329474
 30
0.0
 10
786.0440099437329
 20
1177.259441268851
 30
0.0
  0
LINE
  5
241
330
1F
100
AcDbEntity
  8
0
  6
Continuous
 62
     7
370
    25
100
AcDbLine
 10
786.2294252665
 20
1177.946337266
 30
0.0
 11
786.4929873537
 21
1178.037755102
 31
0.0
  0
LINE
  5
242
330
1F
100
AcDbEntity
  8
0
  6
Continuous
 62
     7
370
    25
100
AcDbLine
 10
781.8819478339
 20
1178.037755102
 30
0.0
 11
781.8865052338
 21
1178.0349694452
 31
0.0
  0
LINE
  5
243
330
1F
100
AcDbEntity
  8
0
  6
Continuous
 62
     7
370
    25
100
AcDbLine
 10
786.0440299874
 20
1178.037755102
 30
0.0
 11
785.6988372673
 21
1177.8964521527
 31
0.0
  0
LINE
  5
244
330
1F
100
AcDbEntity
  8
0
  6
Continuous
 62
     7
370
    25
100
AcDbLine
 10
786.0440299874
 20
1178.037755102
 30
0.0
 11
786.0440303066
 21
1178.036510168
 31
0.0
  0
LINE
  5
245
330
1F
100
AcDbEntity
  8
0
  6
Continuous
 62
     7
370
    25
100
AcDbLine
 10
785.2155345116
 20
1178.037755102
 30
0.0
 11
785.0510204082
 21
1177.9368813283
 31
0.0
  0
LINE
  5
246
330
1F
100
AcDbEntity
  8
0
  6
Continuous
 62
     7
370
    25
100
AcDbLine
 10
785.2155345116
 20
1178.037755102
 30
0.0
 11
785.2155355799
 21
1178.0349694452
 31
0.0
  0
LINE
  5
247
330
1F
100
AcDbEntity
  8
0
  6
Continuous
 62
     7
370
    25
100
AcDbLine
 10
353.5510204082
 20
1177.2594412689
 30
0.0
 11
350.7510204082
 21
1177.2594412689
 31
0.0
  0
LINE
  5
248
330
1F
100
AcDbEntity
  8
0
  6
Continuous
 62
     7
370
    25
100
AcDbLine
 10
356.3510204082
 20
1177.2594412689
 30
0.0
 11
353.5510204082
 21
1177.2594412689
 31
0.0
  0
LINE
  5
249
330
1F
100
AcDbEntity
  8
0
  6
Continuous
 62
     7
370
    25
100
AcDbLine
 10
354.8573520296
 20
1175.0473110031
 30
0.0
 11
354.8635897054
 21
1175.0348001589
 31
0.0
  0
ARC
  5
24A
330
1F
100
AcDbEntity
  8
0
  6
Continuous
 62
     7
370
    25
100
AcDbCircle
 10
353.5510204082
 20
1179.8594412689
 30
0.0
 40
4.986291206899209
100
AcDbArc
 50
276.5034226004
 51
285.1878552918
  0
LINE
  5
24B
330
1F
100
AcDbEntity
  8
0
  6
Continuous
 62
     7
370
    25
100
AcDbLine
 10
354.1157805412
 20
1174.9052363889
 30
0.0
 11
353.9210204082
 21
1174.9052363889
 31
0.0
  0
LINE
  5
24C
330
1F
100
AcDbEntity
  8
0
  6
Continuous
 62
     7
370
    25
100
AcDbLine
 10
353.9210204082
 20
1174.9052363889
 30
0.0
 11
353.9210204082
 21
1175.0473110031
 31
0.0
  0
ARC
  5
24D
330
1F
100
AcDbEntity
  8
0
  6
Continuous
 62
     7
370
    25
100
AcDbCircle
 10
353.5510204082
 20
1180.5120498172
 30
0.0
 40
5.477250250539191
100
AcDbArc
 50
266.1265974981
 51
273.8734025019
  0
LINE
  5
24E
330
1F
100
AcDbEntity
  8
0
  6
Continuous
 62
     7
370
    25
100
AcDbLine
 10
353.1810204082
 20
1175.0473110031
 30
0.0
 11
353.1810204082
 21
1174.9052363889
 31
0.0
  0
LINE
  5
24F
330
1F
100
AcDbEntity
  8
0
  6
Continuous
 62
     7
370
    25
100
AcDbLine
 10
353.1810204082
 20
1174.9052363889
 30
0.0
 11
352.9862602751
 21
1174.9052363889
 31
0.0
  0
ARC
  5
250
330
1F
100
AcDbEntity
  8
0
  6
Continuous
 62
     7
370
    25
100
AcDbCircle
 10
353.5510204082
 20
1179.8594412689
 30
0.0
 40
4.98629120689924
100
AcDbArc
 50
254.8121447082
 51
263.4965773996
  0
LINE
  5
251
330
1F
100
AcDbEntity
  8
0
  6
Continuous
 62
     7
370
    25
100
AcDbLine
 10
352.2384511109
 20
1175.0348001589
 30
0.0
 11
352.2446887867
 21
1175.0473110031
 31
0.0
  0
LINE
  5
252
330
1F
100
AcDbEntity
  8
0
  6
Continuous
 62
     7
370
    25
100
AcDbLine
 10
783.5510204082
 20
1177.2594412689
 30
0.0
 11
780.7510204082
 21
1177.2594412689
 31
0.0
  0
LINE
  5
253
330
1F
100
AcDbEntity
  8
0
  6
Continuous
 62
     7
370
    25
100
AcDbLine
 10
786.3510204082
 20
1177.2594412689
 30
0.0
 11
783.5510204082
 21
1177.2594412689
 31
0.0
  0
LINE
  5
254
330
1F
100
AcDbEntity
  8
0
  6
Continuous
 62
     7
370
    25
100
AcDbLine
 10
784.8573520296
 20
1175.0473110031
 30
0.0
 11
784.8635897054
 21
1175.0348001589
 31
0.0
  0
ARC
  5
255
330
1F
100
AcDbEntity
  8
0
  6
Continuous
 62
     7
370
    25
100
AcDbCircle
 10
783.5510204082
 20
1179.8594412689
 30
0.0
 40
4.986291206899194
100
AcDbArc
 50
276.5034226004
 51
285.1878552918
  0
LINE
  5
256
330
1F
100
AcDbEntity
  8
0
  6
Continuous
 62
     7
370
    25
100
AcDbLine
 10
784.1157805412
 20
1174.9052363889
 30
0.0
 11
783.9210204082
 21
1174.9052363889
 31
0.0
  0
LINE
  5
257
330
1F
100
AcDbEntity
  8
0
  6
Continuous
 62
     7
370
    25
100
AcDbLine
 10
783.9210204082
 20
1174.9052363889
 30
0.0
 11
783.9210204082
 21
1175.0473110031
 31
0.0
  0
ARC
  5
258
330
1F
100
AcDbEntity
  8
0
  6
Continuous
 62
     7
370
    25
100
AcDbCircle
 10
783.5510204082
 20
1180.5120498171
 30
0.0
 40
5.477250250420776
100
AcDbArc
 50
266.126597498
 51
273.873402502
  0
LINE
  5
259
330
1F
100
AcDbEntity
  8
0
  6
Continuous
 62
     7
370
    25
100
AcDbLine
 10
783.1810204082
 20
1175.0473110031
 30
0.0
 11
783.1810204082
 21
1174.9052363889
 31
0.0
  0
LINE
  5
25A
330
1F
100
AcDbEntity
  8
0
  6
Continuous
 62
     7
370
    25
100
AcDbLine
 10
783.1810204082
 20
1174.9052363889
 30
0.0
 11
782.9862602751
 21
1174.9052363889
 31
0.0
  0
ARC
  5
25B
330
1F
100
AcDbEntity
  8
0
  6
Continuous
 62
     7
370
    25
100
AcDbCircle
 10
783.5510204082
 20
1179.8594412689
 30
0.0
 40
4.986291206899224
100
AcDbArc
 50
254.8121447082
 51
263.4965773996
  0
LINE
  5
25C
330
1F
100
AcDbEntity
  8
0
  6
Continuous
 62
     7
370
    25
100
AcDbLine
 10
782.2384511109
 20
1175.0348001589
 30
0.0
 11
782.2446887867
 21
1175.0473110031
 31
0.0
  0
LINE
  5
25D
330
1F
100
AcDbEntity
  8
0
  6
Continuous
 62
     7
370
    25
100
AcDbLine
 10
321.0510204082
 20
1204.487755102
 30
0.0
 11
321.0510204082
 21
1196.487755102
 31
0.0
  0
LINE
  5
25E
330
1F
100
AcDbEntity
  8
0
  6
Continuous
 62
     7
370
    25
100
AcDbLine
 10
321.0510204082
 20
1192.987755102
 30
0.0
 11
321.0510204082
 21
1184.987755102
 31
0.0
  0
ELLIPSE
  5
25F
330
1F
100
AcDbEntity
  8
0
  6
Continuous
 62
     7
370
    25
100
AcDbEllipse
 10
1106.5202313557
 20
1213.5075753618
 30
0.0
 11
4.0
 21
0.0
 31
0.0
210
0.0
220
0.0
230
1.0
 40
0.0174550649
 41
4.71238898038469
 42
6.265732014661892
  0
ELLIPSE
  5
260
330
1F
100
AcDbEntity
  8
0
  6
Continuous
 62
     7
370
    25
100
AcDbEllipse
 10
1086.5818094606
 20
1213.5075753618
 30
0.0
 11
4.0
 21
0.0
 31
0.0
210
0.0
220
0.0
230
1.0
 40
0.0174550649
 41
3.159045946109094
 42
4.71238898038469
  0
LINE
  5
261
330
1F
100
AcDbEntity
  8
0
  6
Continuous
 62
     7
370
    25
100
AcDbLine
 10
1084.6510204082
 20
1213.8496946343
 30
0.0
 11
1082.2390808759
 21
1213.8496946343
 31
0.0
  0
LINE
  5
262
330
1F
100
AcDbEntity
  8
0
  6
Continuous
 62
     7
370
    25
100
AcDbLine
 10
1084.9937489465
 20
1213.506966096
 30
0.0
 11
1084.6510204082
 21
1213.8496946343
 31
0.0
  0
ELLIPSE
  5
263
330
1F
100
AcDbEntity
  8
0
  6
Continuous
 62
     7
370
    25
100
AcDbEllipse
 10
1086.9934443368
 20
1213.5075753618
 30
0.0
 11
1.999999999999773
 21
0.0
 31
0.0
210
0.0
220
0.0
230
1.0
 40
0.0174550649
 41
3.159045946109149
 42
4.71238898038469
  0
LINE
  5
264
330
1F
100
AcDbEntity
  8
0
  6
Continuous
 62
     7
370
    25
100
AcDbLine
 10
1106.1085964795
 20
1213.4726652319
 30
0.0
 11
1086.9934443368
 21
1213.4726652319
 31
0.0
  0
ELLIPSE
  5
265
330
1F
100
AcDbEntity
  8
0
  6
Continuous
 62
     7
370
    25
100
AcDbEllipse
 10
1106.1085964795
 20
1213.5075753618
 30
0.0
 11
2.0
 21
0.0
 31
0.0
210
0.0
220
0.0
230
1.0
 40
0.0174550649
 41
4.71238898038469
 42
6.265732014661835
  0
LINE
  5
266
330
1F
100
AcDbEntity
  8
0
  6
Continuous
 62
     7
370
    25
100
AcDbLine
 10
1108.4510204082
 20
1213.8496946343
 30
0.0
 11
1108.1082918698
 21
1213.506966096
 31
0.0
  0
LINE
  5
267
330
1F
100
AcDbEntity
  8
0
  6
Continuous
 62
     7
370
    25
100
AcDbLine
 10
1110.8629599405
 20
1213.8496946343
 30
0.0
 11
1108.4510204082
 21
1213.8496946343
 31
0.0
  0
LINE
  5
268
330
1F
100
AcDbEntity
  8
0
  6
Continuous
 62
     7
370
    25
100
AcDbLine
 10
1110.5196221363
 20
1213.5063568302
 30
0.0
 11
1110.8629599405
 21
1213.8496946343
 31
0.0
  0
LINE
  5
269
330
1F
100
AcDbEntity
  8
0
  6
Continuous
 62
     7
370
    25
100
AcDbLine
 10
1086.5818094606
 20
1213.437755102
 30
0.0
 11
1106.5202313557
 21
1213.437755102
 31
0.0
  0
LINE
  5
26A
330
1F
100
AcDbEntity
  8
0
  6
Continuous
 62
     7
370
    25
100
AcDbLine
 10
1082.2390808759
 20
1213.8496946343
 30
0.0
 11
1082.58241868
 21
1213.5063568302
 31
0.0
  0
LINE
  5
26B
330
1F
100
AcDbEntity
  8
0
  6
Continuous
 62
     7
370
    25
100
AcDbLine
 10
1110.8629599405
 20
1211.437755102
 30
0.0
 11
1110.8629599405
 21
1213.8496946343
 31
0.0
  0
LINE
  5
26C
330
1F
100
AcDbEntity
  8
0
  6
Continuous
 62
     7
370
    25
100
AcDbLine
 10
1082.2390808759
 20
1211.437755102
 30
0.0
 11
1082.2390808759
 21
1213.8496946343
 31
0.0
  0
ARC
  5
26D
330
1F
100
AcDbEntity
  8
0
  6
Continuous
 62
     7
370
    25
100
AcDbCircle
 10
1086.6059993846
 20
1253.0078421114
 30
0.0
 40
39.44378493498871
100
AcDbArc
 50
267.8230715778
 51
270.7030059108
  0
LINE
  5
26E
330
1F
100
AcDbEntity
  8
0
  6
Continuous
 62
     7
370
    25
100
AcDbLine
 10
1087.0899533239
 20
1213.5670262149
 30
0.0
 11
1106.0120874925
 21
1213.5670262149
 31
0.0
  0
ARC
  5
26F
330
1F
100
AcDbEntity
  8
0
  6
Continuous
 62
     7
370
    25
100
AcDbCircle
 10
1106.4960414317
 20
1253.0078421114
 30
0.0
 40
39.44378493500258
100
AcDbArc
 50
269.2969940892
 51
272.1769284222
  0
ELLIPSE
  5
270
330
1F
100
AcDbEntity
  8
0
  6
Continuous
 62
     7
370
    25
100
AcDbEllipse
 10
1108.1297055244
 20
1213.8440682828
 30
0.0
 11
0.2000315478082939
 21
8.116808203340043E-7
 31
0.0
210
0.0
220
0.0
230
1.0
 40
0.0130895241
 41
6.26573196239454
 42
7.85367163306778
  0
LINE
  5
271
330
1F
100
AcDbEntity
  8
0
  6
Continuous
 62
     7
370
    25
100
AcDbLine
 10
1108.3297066065
 20
1213.8440233982
 30
0.0
 11
1107.9943304763
 21
1213.592524024
 31
0.0
  0
LINE
  5
272
330
1F
100
AcDbEntity
  8
0
  6
Continuous
 62
     7
370
    25
100
AcDbLine
 10
1084.7723342099
 20
1213.8440233982
 30
0.0
 11
1085.10771034
 21
1213.592524024
 31
0.0
  0
ELLIPSE
  5
273
330
1F
100
AcDbEntity
  8
0
  6
Continuous
 62
     7
370
    25
100
AcDbEllipse
 10
1084.9723352919
 20
1213.8440682828
 30
0.0
 11
0.2000315478080665
 21
-8.116808203340043E-7
 31
0.0
210
0.0
220
0.0
230
1.0
 40
0.0130895241
 41
1.571106327702763
 42
3.159045998375413
  0
LINE
  5
274
330
1F
100
AcDbEntity
  8
0
  6
Continuous
 62
     7
370
    25
100
AcDbLine
 10
1084.9722732926
 20
1213.8466866007
 30
0.0
 11
1108.1297675238
 21
1213.8466866007
 31
0.0
  0
LINE
  5
275
330
1F
100
AcDbEntity
  8
0
  6
Continuous
 62
     7
370
    25
100
AcDbLine
 10
1084.7723342099
 20
1213.8440233982
 30
0.0
 11
1084.7703153456
 21
1213.7303996969
 31
0.0
  0
LINE
  5
276
330
1F
100
AcDbEntity
  8
0
  6
Continuous
 62
     7
370
    25
100
AcDbLine
 10
1108.3317254707
 20
1213.7303996969
 30
0.0
 11
1108.3297066065
 21
1213.8440233982
 31
0.0
  0
CIRCLE
  5
277
330
1F
100
AcDbEntity
  8
0
  6
Continuous
 62
     7
370
    25
100
AcDbCircle
 10
970.5510204082
 20
1194.837755102
 30
0.0
 40
4.327517831609384
  0
CIRCLE
  5
278
330
1F
100
AcDbEntity
  8
0
  6
Continuous
 62
     7
370
    25
100
AcDbCircle
 10
970.5510204082
 20
1194.837755102
 30
0.0
 40
4.476605857119921
  0
LINE
  5
279
330
1F
100
AcDbEntity
  8
0
  6
Continuous
 62
     7
370
    25
100
AcDbLine
 10
1189.0510204082
 20
1172.537755102
 30
0.0
 11
742.4965479867
 21
1172.537755102
 31
0.0
  0
LINE
  5
27A
330
1F
100
AcDbEntity
  8
0
  6
Continuous
 62
     7
370
    25
100
AcDbLine
 10
384.5510204082
 20
1172.537755102
 30
0.0
 11
229.0510204082
 21
1172.537755102
 31
0.0
  0
LINE
  5
27B
330
1F
100
AcDbEntity
  8
0
  6
Continuous
 62
     7
370
    25
100
AcDbLine
 10
1189.0510204082
 20
982.537755102
 30
0.0
 11
1189.0510204082
 21
1172.537755102
 31
0.0
  0
LINE
  5
27C
330
1F
100
AcDbEntity
  8
0
  6
Continuous
 62
     7
370
    25
100
AcDbLine
 10
229.0510204082
 20
982.537755102
 30
0.0
 11
1189.0510204082
 21
982.537755102
 31
0.0
  0
LINE
  5
27D
330
1F
100
AcDbEntity
  8
0
  6
Continuous
 62
     7
370
    25
100
AcDbLine
 10
229.0510204082
 20
1172.537755102
 30
0.0
 11
229.0510204082
 21
982.537755102
 31
0.0
  0
LINE
  5
27E
330
1F
100
AcDbEntity
  8
0
  6
Continuous
 62
     7
370
    25
100
AcDbLine
 10
226.5510204082
 20
1012.537755102
 30
0.0
 11
229.0510204082
 21
1012.537755102
 31
0.0
  0
LINE
  5
27F
330
1F
100
AcDbEntity
  8
0
  6
Continuous
 62
     7
370
    25
100
AcDbLine
 10
224.0510204082
 20
1012.537755102
 30
0.0
 11
226.5510204082
 21
1012.537755102
 31
0.0
  0
LINE
  5
280
330
1F
100
AcDbEntity
  8
0
  6
Continuous
 62
     7
370
    25
100
AcDbLine
 10
226.5510204082
 20
1047.537755102
 30
0.0
 11
229.0510204082
 21
1047.537755102
 31
0.0
  0
LINE
  5
281
330
1F
100
AcDbEntity
  8
0
  6
Continuous
 62
     7
370
    25
100
AcDbLine
 10
224.0510204082
 20
1047.537755102
 30
0.0
 11
226.5510204082
 21
1047.537755102
 31
0.0
  0
LINE
  5
282
330
1F
100
AcDbEntity
  8
0
  6
Continuous
 62
     7
370
    25
100
AcDbLine
 10
226.5510204082
 20
1072.537755102
 30
0.0
 11
229.0510204082
 21
1072.537755102
 31
0.0
  0
LINE
  5
283
330
1F
100
AcDbEntity
  8
0
  6
Continuous
 62
     7
370
    25
100
AcDbLine
 10
224.0510204082
 20
1072.537755102
 30
0.0
 11
226.5510204082
 21
1072.537755102
 31
0.0
  0
LINE
  5
284
330
1F
100
AcDbEntity
  8
0
  6
Continuous
 62
     7
370
    25
100
AcDbLine
 10
226.5510204082
 20
987.537755102
 30
0.0
 11
229.0510204082
 21
987.537755102
 31
0.0
  0
LINE
  5
285
330
1F
100
AcDbEntity
  8
0
  6
Continuous
 62
     7
370
    25
100
AcDbLine
 10
224.0510204082
 20
987.537755102
 30
0.0
 11
226.5510204082
 21
987.537755102
 31
0.0
  0
LINE
  5
286
330
1F
100
AcDbEntity
  8
0
  6
Continuous
 62
     7
370
    25
100
AcDbLine
 10
159.0510204082
 20
1242.537755102
 30
0.0
 11
159.0510204082
 21
982.537755102
 31
0.0
  0
LINE
  5
287
330
1F
100
AcDbEntity
  8
0
  6
Continuous
 62
     7
370
    25
100
AcDbLine
 10
1259.0510204082
 20
1242.537755102
 30
0.0
 11
159.0510204082
 21
1242.537755102
 31
0.0
  0
LINE
  5
288
330
1F
100
AcDbEntity
  8
0
  6
Continuous
 62
     7
370
    25
100
AcDbLine
 10
1259.0510204082
 20
982.537755102
 30
0.0
 11
1259.0510204082
 21
1242.537755102
 31
0.0
  0
LINE
  5
289
330
1F
100
AcDbEntity
  8
0
  6
Continuous
 62
     7
370
    25
100
AcDbLine
 10
1194.0510204082
 20
982.537755102
 30
0.0
 11
1259.0510204082
 21
982.537755102
 31
0.0
  0
LINE
  5
28A
330
1F
100
AcDbEntity
  8
0
  6
Continuous
 62
     7
370
    25
100
AcDbLine
 10
1194.0510204082
 20
982.537755102
 30
0.0
 11
1194.0510204082
 21
1177.537755102
 31
0.0
  0
LINE
  5
28B
330
1F
100
AcDbEntity
  8
0
  6
Continuous
 62
     7
370
    25
100
AcDbLine
 10
1194.0510204082
 20
1177.537755102
 30
0.0
 11
786.5511704068
 21
1177.537755102
 31
0.0
  0
LINE
  5
28C
330
1F
100
AcDbEntity
  8
0
  6
Continuous
 62
     7
370
    25
100
AcDbLine
 10
780.5508704068
 20
1177.537755102
 30
0.0
 11
736.5423519758
 21
1177.537755102
 31
0.0
  0
LINE
  5
28D
330
1F
100
AcDbEntity
  8
0
  6
Continuous
 62
     7
370
    25
100
AcDbLine
 10
726.4507439975
 20
1177.537755102
 30
0.0
 11
356.5511704068
 21
1177.537755102
 31
0.0
  0
LINE
  5
28E
330
1F
100
AcDbEntity
  8
0
  6
Continuous
 62
     7
370
    25
100
AcDbLine
 10
350.5508704068
 20
1177.537755102
 30
0.0
 11
224.0510204082
 21
1177.537755102
 31
0.0
  0
LINE
  5
28F
330
1F
100
AcDbEntity
  8
0
  6
Continuous
 62
     7
370
    25
100
AcDbLine
 10
224.0510204082
 20
1177.537755102
 30
0.0
 11
224.0510204082
 21
982.537755102
 31
0.0
  0
LINE
  5
290
330
1F
100
AcDbEntity
  8
0
  6
Continuous
 62
     7
370
    25
100
AcDbLine
 10
159.0510204082
 20
982.537755102
 30
0.0
 11
224.0510204082
 21
982.537755102
 31
0.0
  0
LINE
  5
291
330
1F
100
AcDbEntity
  8
0
  6
Continuous
 62
     7
370
    25
100
AcDbLine
 10
724.9965479867
 20
1167.937755102
 30
0.0
 11
737.9965479867
 21
1167.937755102
 31
0.0
  0
LINE
  5
292
330
1F
100
AcDbEntity
  8
0
  6
HIDDEN
 62
     7
370
    25
100
AcDbLine
 10
395.5510204082
 20
1161.237755102
 30
0.0
 11
379.5510204082
 21
1161.237755102
 31
0.0
  0
LINE
  5
293
330
1F
100
AcDbEntity
  8
0
  6
HIDDEN
 62
     7
370
    25
100
AcDbLine
 10
411.5510204082
 20
1161.237755102
 30
0.0
 11
395.5510204082
 21
1161.237755102
 31
0.0
  0
LINE
  5
294
330
1F
100
AcDbEntity
  8
0
  6
HIDDEN
 62
     7
370
    25
100
AcDbLine
 10
379.4010204082
 20
1094.837755102
 30
0.0
 11
411.7010204082
 21
1094.837755102
 31
0.0
  0
LINE
  5
295
330
1F
100
AcDbEntity
  8
0
  6
Continuous
 62
     7
370
    25
100
AcDbLine
 10
353.5510204082
 20
1175.6348128678
 30
0.0
 11
350.8766018035
 21
1175.6348128678
 31
0.0
  0
LINE
  5
296
330
1F
100
AcDbEntity
  8
0
  6
Continuous
 62
     7
370
    25
100
AcDbLine
 10
356.2254390128
 20
1175.6348128678
 30
0.0
 11
353.5510204082
 21
1175.6348128678
 31
0.0
  0
LINE
  5
297
330
1F
100
AcDbEntity
  8
0
  6
Continuous
 62
     7
370
    25
100
AcDbLine
 10
353.5510204082
 20
1175.8629428014
 30
0.0
 11
350.7510204082
 21
1175.8629428014
 31
0.0
  0
LINE
  5
298
330
1F
100
AcDbEntity
  8
0
  6
Continuous
 62
     7
370
    25
100
AcDbLine
 10
356.3510204082
 20
1175.8629428014
 30
0.0
 11
353.5510204082
 21
1175.8629428014
 31
0.0
  0
LINE
  5
299
330
1F
100
AcDbEntity
  8
0
  6
Continuous
 62
     7
370
    25
100
AcDbLine
 10
354.1393597473
 20
1177.3594412689
 30
0.0
 11
354.6941020546
 21
1177.3594412689
 31
0.0
  0
LINE
  5
29A
330
1F
100
AcDbEntity
  8
0
  6
Continuous
 62
     7
370
    25
100
AcDbLine
 10
352.0510204082
 20
1177.3594412689
 30
0.0
 11
352.5960968684
 21
1177.3594412689
 31
0.0
  0
LINE
  5
29B
330
1F
100
AcDbEntity
  8
0
  6
Continuous
 62
     7
370
    25
100
AcDbLine
 10
353.0253698575
 20
1177.3594412689
 30
0.0
 11
353.5510204082
 21
1177.3594412689
 31
0.0
  0
LINE
  5
29C
330
1F
100
AcDbEntity
  8
0
  6
Continuous
 62
     7
370
    25
100
AcDbLine
 10
783.5510204082
 20
1175.6348128678
 30
0.0
 11
780.8766018035
 21
1175.6348128678
 31
0.0
  0
LINE
  5
29D
330
1F
100
AcDbEntity
  8
0
  6
Continuous
 62
     7
370
    25
100
AcDbLine
 10
786.2254390128
 20
1175.6348128678
 30
0.0
 11
783.5510204082
 21
1175.6348128678
 31
0.0
  0
LINE
  5
29E
330
1F
100
AcDbEntity
  8
0
  6
Continuous
 62
     7
370
    25
100
AcDbLine
 10
783.5510204082
 20
1175.8629428014
 30
0.0
 11
780.7510204082
 21
1175.8629428014
 31
0.0
  0
LINE
  5
29F
330
1F
100
AcDbEntity
  8
0
  6
Continuous
 62
     7
370
    25
100
AcDbLine
 10
786.3510204082
 20
1175.8629428014
 30
0.0
 11
783.5510204082
 21
1175.8629428014
 31
0.0
  0
LINE
  5
2A0
330
1F
100
AcDbEntity
  8
0
  6
Continuous
 62
     7
370
    25
100
AcDbLine
 10
784.1393597473
 20
1177.3594412689
 30
0.0
 11
784.6941020546
 21
1177.3594412689
 31
0.0
  0
LINE
  5
2A1
330
1F
100
AcDbEntity
  8
0
  6
Continuous
 62
     7
370
    25
100
AcDbLine
 10
782.0510204082
 20
1177.3594412689
 30
0.0
 11
782.5960968684
 21
1177.3594412689
 31
0.0
  0
LINE
  5
2A2
330
1F
100
AcDbEntity
  8
0
  6
Continuous
 62
     7
370
    25
100
AcDbLine
 10
783.0253698575
 20
1177.3594412689
 30
0.0
 11
783.5510204082
 21
1177.3594412689
 31
0.0
  0
LINE
  5
2A3
330
1F
100
AcDbEntity
  8
0
  6
Continuous
 62
     7
370
    25
100
AcDbLine
 10
322.0510204082
 20
1205.487755102
 30
0.0
 11
322.0510204082
 21
1195.487755102
 31
0.0
  0
LINE
  5
2A4
330
1F
100
AcDbEntity
  8
0
  6
Continuous
 62
     7
370
    25
100
AcDbLine
 10
322.0510204082
 20
1193.987755102
 30
0.0
 11
322.0510204082
 21
1183.987755102
 31
0.0
  0
LINE
  5
2A5
330
1F
100
AcDbEntity
  8
0
  6
Continuous
 62
     7
370
    25
100
AcDbLine
 10
1106.5202313557
 20
1211.437755102
 30
0.0
 11
1106.5202313557
 21
1213.437755102
 31
0.0
  0
LINE
  5
2A6
330
1F
100
AcDbEntity
  8
0
  6
Continuous
 62
     7
370
    25
100
AcDbLine
 10
1110.5196221363
 20
1213.5063568302
 30
0.0
 11
1110.5196221363
 21
1211.437755102
 31
0.0
  0
LINE
  5
2A7
330
1F
100
AcDbEntity
  8
0
  6
Continuous
 62
     7
370
    25
100
AcDbLine
 10
1082.58241868
 20
1211.437755102
 30
0.0
 11
1082.58241868
 21
1213.5063568302
 31
0.0
  0
LINE
  5
2A8
330
1F
100
AcDbEntity
  8
0
  6
Continuous
 62
     7
370
    25
100
AcDbLine
 10
1086.5818094606
 20
1213.437755102
 30
0.0
 11
1086.5818094606
 21
1211.437755102
 31
0.0
  0
LINE
  5
2A9
330
1F
100
AcDbEntity
  8
0
  6
Continuous
 62
     7
370
    25
100
AcDbLine
 10
1085.106026113
 20
1213.4960279102
 30
0.0
 11
1085.10771034
 21
1213.592524024
 31
0.0
  0
LINE
  5
2AA
330
1F
100
AcDbEntity
  8
0
  6
Continuous
 62
     7
370
    25
100
AcDbLine
 10
1087.0899533239
 20
1213.5670262149
 30
0.0
 11
1087.0899533239
 21
1213.4726652319
 31
0.0
  0
LINE
  5
2AB
330
1F
100
AcDbEntity
  8
0
  6
Continuous
 62
     7
370
    25
100
AcDbLine
 10
1106.0120874925
 20
1213.4726652319
 30
0.0
 11
1106.0120874925
 21
1213.5670262149
 31
0.0
  0
LINE
  5
2AC
330
1F
100
AcDbEntity
  8
0
  6
Continuous
 62
     7
370
    25
100
AcDbLine
 10
1107.9943304763
 20
1213.592524024
 30
0.0
 11
1107.9960147033
 21
1213.4960279102
 31
0.0
  0
DIMENSION
  5
2AD
330
1F
100
AcDbEntity
  8
FORMAT
100
AcDbDimension
  2
_D
 10
395.5510204082
 20
1013.0678393233
 30
0.0
 11
311.0510204082
 21
1013.0678393233
 31
0.0
 70
   160
  1
(<>)
 71
     2
 42
-1.0
  3
SLDDIMSTYLE0
100
AcDbAlignedDimension
 13
226.5510204082
 23
976.5339445623
 33
0.0
 14
395.5510204082
 24
1146.037755102
 34
0.0
100
AcDbRotatedDimension
  0
DIMENSION
  5
2B9
330
1F
100
AcDbEntity
  8
FORMAT
100
AcDbDimension
  2
_D_1
 10
323.0510204082
 20
1322.537755102
 30
0.0
 11
274.8010204082
 21
1322.537755102
 31
0.0
 70
   160
  1
<>
 71
     2
 42
-1.0
  3
SLDDIMSTYLE0
100
AcDbAlignedDimension
 13
226.5510204082
 23
1076.3855285775
 33
0.0
 14
323.0510204082
 24
1210.537755102
 34
0.0
100
AcDbRotatedDimension
  0
DIMENSION
  5
2C3
330
1F
100
AcDbEntity
  8
FORMAT
100
AcDbDimension
  2
_D_2
 10
1121.5510204082
 20
1318.037755102
 30
0.0
 11
722.3010204082
 21
1318.037755102
 31
0.0
 70
   160
  1
<>
 71
     2
 42
-1.0
  3
SLDDIMSTYLE0
100
AcDbAlignedDimension
 13
323.0510204082
 23
1210.537755102
 33
0.0
 14
1121.5510204082
 24
1210.537755102
 34
0.0
100
AcDbRotatedDimension
  0
LINE
  5
2CD
330
1F
100
AcDbEntity
  8
0
  6
CENTER
 62
     7
370
    18
100
AcDbLine
 10
471.498997436
 20
1273.737755102
 30
0.0
 11
471.498997436
 21
951.337755102
 31
0.0
  0
LINE
  5
2CE
330
1F
100
AcDbEntity
  8
0
  6
Continuous
 62
     7
370
    18
100
AcDbLine
 10
407.998997436
 20
1263.737755102
 30
0.0
 11
471.498997436
 21
1263.737755102
 31
0.0
  0
SOLID
  5
2CF
330
1F
100
AcDbEntity
  8
0
  6
Continuous
 62
     7
370
    18
100
AcDbTrace
 10
471.498997436
 20
1263.737755102
 30
0.0
 11
439.748997436
 21
1268.817755102
 31
0.0
 12
439.748997436
 22
1258.657755102
 32
0.0
 13
439.748997436
 23
1258.657755102
 33
0.0
  0
LINE
  5
2D0
330
1F
100
AcDbEntity
  8
0
  6
Continuous
 62
     7
370
    18
100
AcDbLine
 10
407.998997436
 20
961.337755102
 30
0.0
 11
471.498997436
 21
961.337755102
 31
0.0
  0
SOLID
  5
2D1
330
1F
100
AcDbEntity
  8
0
  6
Continuous
 62
     7
370
    18
100
AcDbTrace
 10
471.498997436
 20
961.337755102
 30
0.0
 11
439.748997436
 21
966.417755102
 31
0.0
 12
439.748997436
 22
956.257755102
 32
0.0
 13
439.748997436
 23
956.257755102
 33
0.0
  0
MTEXT
  5
2D2
330
1F
100
AcDbEntity
  8
0
  6
Continuous
 62
     7
100
AcDbMText
 10
407.998997436
 20
1302.0619055504
 30
0.0
 40
25.0
 41
0.0
 71
     1
 72
     1
  1
A
  7
SLDTEXTSTYLE0
 73
     1
 44
1.0
  0
MTEXT
  5
2D3
330
1F
100
AcDbEntity
  8
0
  6
Continuous
 62
     7
100
AcDbMText
 10
407.998997436
 20
948.5758130027
 30
0.0
 40
25.0
 41
0.0
 71
     1
 72
     1
  1
A
  7
SLDTEXTSTYLE0
 73
     1
 44
1.0
  0
LINE
  5
2D4
330
1F
100
AcDbEntity
  8
FORMAT
  6
CENTERX2
370
    18
100
AcDbLine
 10
226.5510204082
 20
1076.3855285775
 30
0.0
 11
226.5510204082
 21
976.5339445623
 31
0.0
  0
LINE
  5
2D5
330
1F
100
AcDbEntity
  8
0
  6
Continuous
 62
     7
370
    25
100
AcDbLine
 10
1189.0510204082
 20
625.2091836735
 30
0.0
 11
229.0510204082
 21
625.2091836735
 31
0.0
  0
LINE
  5
2D6
330
1F
100
AcDbEntity
  8
0
  6
Continuous
 62
     7
370
    25
100
AcDbLine
 10
229.0510204082
 20
435.2091836735
 30
0.0
 11
1189.0510204082
 21
435.2091836735
 31
0.0
  0
LINE
  5
2D7
330
1F
100
AcDbEntity
  8
0
  6
Continuous
 62
     7
370
    25
100
AcDbLine
 10
229.0510204082
 20
625.2091836735
 30
0.0
 11
229.0510204082
 21
435.2091836735
 31
0.0
  0
CIRCLE
  5
2D8
330
1F
100
AcDbEntity
  8
0
  6
Continuous
 62
     7
370
    25
100
AcDbCircle
 10
508.5510204082
 20
576.2091836735
 30
0.0
 40
2.5
  0
CIRCLE
  5
2D9
330
1F
100
AcDbEntity
  8
0
  6
Continuous
 62
     7
370
    25
100
AcDbCircle
 10
508.5510204082
 20
560.2091836735
 30
0.0
 40
2.5
  0
CIRCLE
  5
2DA
330
1F
100
AcDbEntity
  8
0
  6
Continuous
 62
     7
370
    25
100
AcDbCircle
 10
348.5510204082
 20
560.2091836735
 30
0.0
 40
2.5
  0
CIRCLE
  5
2DB
330
1F
100
AcDbEntity
  8
0
  6
Continuous
 62
     7
370
    25
100
AcDbCircle
 10
348.5510204082
 20
576.2091836735
 30
0.0
 40
2.5
  0
LINE
  5
2DC
330
1F
100
AcDbEntity
  8
0
  6
Continuous
 62
     7
370
    25
100
AcDbLine
 10
1189.0510204082
 20
435.2091836735
 30
0.0
 11
1189.0510204082
 21
625.2091836735
 31
0.0
  0
LINE
  5
2DD
330
1F
100
AcDbEntity
  8
0
  6
Continuous
 62
     7
370
    25
100
AcDbLine
 10
226.5510204082
 20
465.2091836735
 30
0.0
 11
229.0510204082
 21
465.2091836735
 31
0.0
  0
LINE
  5
2DE
330
1F
100
AcDbEntity
  8
0
  6
Continuous
 62
     7
370
    25
100
AcDbLine
 10
224.0510204082
 20
465.2091836735
 30
0.0
 11
226.5510204082
 21
465.2091836735
 31
0.0
  0
LINE
  5
2DF
330
1F
100
AcDbEntity
  8
0
  6
Continuous
 62
     7
370
    25
100
AcDbLine
 10
226.5510204082
 20
500.2091836735
 30
0.0
 11
229.0510204082
 21
500.2091836735
 31
0.0
  0
LINE
  5
2E0
330
1F
100
AcDbEntity
  8
0
  6
Continuous
 62
     7
370
    25
100
AcDbLine
 10
224.0510204082
 20
500.2091836735
 30
0.0
 11
226.5510204082
 21
500.2091836735
 31
0.0
  0
LINE
  5
2E1
330
1F
100
AcDbEntity
  8
0
  6
Continuous
 62
     7
370
    25
100
AcDbLine
 10
226.5510204082
 20
525.2091836735
 30
0.0
 11
229.0510204082
 21
525.2091836735
 31
0.0
  0
LINE
  5
2E2
330
1F
100
AcDbEntity
  8
0
  6
Continuous
 62
     7
370
    25
100
AcDbLine
 10
224.0510204082
 20
525.2091836735
 30
0.0
 11
226.5510204082
 21
525.2091836735
 31
0.0
  0
LINE
  5
2E3
330
1F
100
AcDbEntity
  8
0
  6
Continuous
 62
     7
370
    25
100
AcDbLine
 10
226.5510204082
 20
440.2091836735
 30
0.0
 11
229.0510204082
 21
440.2091836735
 31
0.0
  0
LINE
  5
2E4
330
1F
100
AcDbEntity
  8
0
  6
Continuous
 62
     7
370
    25
100
AcDbLine
 10
224.0510204082
 20
440.2091836735
 30
0.0
 11
226.5510204082
 21
440.2091836735
 31
0.0
  0
LINE
  5
2E5
330
1F
100
AcDbEntity
  8
0
  6
Continuous
 62
     7
370
    25
100
AcDbLine
 10
159.0510204082
 20
695.2091836735
 30
0.0
 11
159.0510204082
 21
435.2091836735
 31
0.0
  0
LINE
  5
2E6
330
1F
100
AcDbEntity
  8
0
  6
Continuous
 62
     7
370
    25
100
AcDbLine
 10
1259.0510204082
 20
695.2091836735
 30
0.0
 11
159.0510204082
 21
695.2091836735
 31
0.0
  0
LINE
  5
2E7
330
1F
100
AcDbEntity
  8
0
  6
Continuous
 62
     7
370
    25
100
AcDbLine
 10
1259.0510204082
 20
435.2091836735
 30
0.0
 11
1259.0510204082
 21
695.2091836735
 31
0.0
  0
LINE
  5
2E8
330
1F
100
AcDbEntity
  8
0
  6
Continuous
 62
     7
370
    25
100
AcDbLine
 10
1194.0510204082
 20
435.2091836735
 30
0.0
 11
1259.0510204082
 21
435.2091836735
 31
0.0
  0
LINE
  5
2E9
330
1F
100
AcDbEntity
  8
0
  6
Continuous
 62
     7
370
    25
100
AcDbLine
 10
1194.0510204082
 20
435.2091836735
 30
0.0
 11
1194.0510204082
 21
630.2091836735
 31
0.0
  0
LINE
  5
2EA
330
1F
100
AcDbEntity
  8
0
  6
Continuous
 62
     7
370
    25
100
AcDbLine
 10
1194.0510204082
 20
630.2091836735
 30
0.0
 11
224.0510204082
 21
630.2091836735
 31
0.0
  0
LINE
  5
2EB
330
1F
100
AcDbEntity
  8
0
  6
Continuous
 62
     7
370
    25
100
AcDbLine
 10
224.0510204082
 20
630.2091836735
 30
0.0
 11
224.0510204082
 21
435.2091836735
 31
0.0
  0
LINE
  5
2EC
330
1F
100
AcDbEntity
  8
0
  6
Continuous
 62
     7
370
    25
100
AcDbLine
 10
159.0510204082
 20
435.2091836735
 30
0.0
 11
224.0510204082
 21
435.2091836735
 31
0.0
  0
CIRCLE
  5
2ED
330
1F
100
AcDbEntity
  8
0
  6
Continuous
 62
     7
370
    25
100
AcDbCircle
 10
798.5510204082
 20
641.2091836735
 30
0.0
 40
2.5
  0
CIRCLE
  5
2EE
330
1F
100
AcDbEntity
  8
0
  6
Continuous
 62
     7
370
    25
100
AcDbCircle
 10
338.5510204082
 20
641.2091836735
 30
0.0
 40
2.5
  0
CIRCLE
  5
2EF
330
1F
100
AcDbEntity
  8
0
  6
Continuous
 62
     7
370
    25
100
AcDbCircle
 10
1088.5510204082
 20
654.9091836735
 30
0.0
 40
6.000000000000227
  0
CIRCLE
  5
2F0
330
1F
100
AcDbEntity
  8
0
  6
Continuous
 62
     7
370
    25
100
AcDbCircle
 10
1104.5510204082
 20
639.9091836735
 30
0.0
 40
5.999999999999773
  0
CIRCLE
  5
2F1
330
1F
100
AcDbEntity
  8
0
  6
Continuous
 62
     7
370
    25
100
AcDbCircle
 10
1088.5510204082
 20
639.9091836735
 30
0.0
 40
6.000000000000227
  0
CIRCLE
  5
2F2
330
1F
100
AcDbEntity
  8
0
  6
Continuous
 62
     7
370
    25
100
AcDbCircle
 10
1104.5510204082
 20
654.9091836735
 30
0.0
 40
5.999999999999773
  0
DIMENSION
  5
2F3
330
1F
100
AcDbEntity
  8
FORMAT
100
AcDbDimension
  2
_D_3
 10
338.5510204082
 20
732.4185536724
 30
0.0
 11
282.5510204082
 21
732.4185536724
 31
0.0
 70
   160
  1
<>
 71
     2
 42
-1.0
  3
SLDDIMSTYLE1
100
AcDbAlignedDimension
 13
226.5510204082
 23
528.2646869696
 33
0.0
 14
338.5510204082
 24
646.2091836735
 34
0.0
100
AcDbRotatedDimension
  0
DIMENSION
  5
2FE
330
1F
100
AcDbEntity
  8
FORMAT
100
AcDbDimension
  2
_D_4
 10
798.5510204082
 20
732.4185536724
 30
0.0
 11
568.5510204082
 21
732.4185536724
 31
0.0
 70
   160
  1
<>
 71
     2
 42
-1.0
  3
SLDDIMSTYLE2
100
AcDbAlignedDimension
 13
338.5510204082
 23
646.2091836735
 33
0.0
 14
798.5510204082
 24
646.2091836735
 34
0.0
100
AcDbRotatedDimension
  0
DIMENSION
  5
309
330
1F
100
AcDbEntity
  8
FORMAT
100
AcDbDimension
  2
_D_5
 10
859.6125373441
 20
641.2091836735
 30
0.0
 11
859.6125373441
 21
718.6840043866
 31
0.0
 70
   160
  1
<>
 71
     2
 42
-1.0
  3
SLDDIMSTYLE3
100
AcDbAlignedDimension
 13
1194.0510204082
 23
630.2091836735
 33
0.0
 14
803.5510204082
 24
641.2091836735
 34
0.0
 50
90.0
100
AcDbRotatedDimension
  0
DIMENSION
  5
315
330
1F
100
AcDbEntity
  8
FORMAT
100
AcDbDimension
  2
_D_6
 10
348.5510204082
 20
479.1245568032
 30
0.0
 11
287.5510204082
 21
479.1245568032
 31
0.0
 70
   160
  1
<>
 71
     2
 42
-1.0
  3
SLDDIMSTYLE1
100
AcDbAlignedDimension
 13
226.5510204082
 23
436.7716276949
 33
0.0
 14
348.5510204082
 24
555.2091836735
 34
0.0
100
AcDbRotatedDimension
  0
DIMENSION
  5
31E
330
1F
100
AcDbEntity
  8
FORMAT
100
AcDbDimension
  2
_D_7
 10
508.5510204082
 20
479.1245568032
 30
0.0
 11
428.5510204082
 21
479.1245568032
 31
0.0
 70
   160
  1
<>
 71
     2
 42
-1.0
  3
SLDDIMSTYLE2
100
AcDbAlignedDimension
 13
348.5510204082
 23
555.2091836735
 33
0.0
 14
508.5510204082
 24
555.2091836735
 34
0.0
100
AcDbRotatedDimension
  0
DIMENSION
  5
328
330
1F
100
AcDbEntity
  8
FORMAT
100
AcDbDimension
  2
_D_8
 10
568.5510204082
 20
576.2091836735
 30
0.0
 11
568.5510204082
 21
508.57726363
 31
0.0
 70
   160
  1
<>
 71
     2
 42
-1.0
  3
SLDDIMSTYLE4
100
AcDbAlignedDimension
 13
513.5510204082
 23
560.2091836735
 33
0.0
 14
513.5510204082
 24
576.2091836735
 34
0.0
 50
90.0
100
AcDbRotatedDimension
  0
DIMENSION
  5
335
330
1F
100
AcDbEntity
  8
FORMAT
100
AcDbDimension
  2
_D_9
 10
623.6505882006
 20
630.2091836735
 30
0.0
 11
623.6505882006
 21
500.3311197292
 31
0.0
 70
   160
  1
<>
 71
     2
 42
-1.0
  3
SLDDIMSTYLE3
100
AcDbAlignedDimension
 13
513.5510204082
 23
576.2091836735
 33
0.0
 14
224.0510204082
 24
630.2091836735
 34
0.0
 50
90.0
100
AcDbRotatedDimension
  0
DIMENSION
  5
340
330
1F
100
AcDbEntity
  8
FORMAT
100
AcDbDimension
  2
_D_10
 10
1094.5510204082
 20
586.0654437814
 30
0.0
 11
1030.6039292708
 21
586.0654437814
 31
0.0
 70
   160
  1
%%c<>
 71
     2
 42
-1.0
  3
SLDDIMSTYLE5
100
AcDbAlignedDimension
 13
1082.5510204082
 23
639.9091836735
 33
0.0
 14
1094.5510204082
 24
639.9091836735
 34
0.0
100
AcDbRotatedDimension
  0
DIMENSION
  5
34E
330
1F
100
AcDbEntity
  8
FORMAT
100
AcDbDimension
  2
_D_11
 10
1104.5510204082
 20
718.6840043866
 30
0.0
 11
1142.2927192951
 21
718.6840043866
 31
0.0
 70
   160
  1
<>
 71
     2
 42
-1.0
  3
SLDDIMSTYLE5
100
AcDbAlignedDimension
 13
1088.5510204082
 23
663.4091836735
 33
0.0
 14
1104.5510204082
 24
663.4091836735
 34
0.0
100
AcDbRotatedDimension
  0
DIMENSION
  5
35A
330
1F
100
AcDbEntity
  8
FORMAT
100
AcDbDimension
  2
_D_12
 10
1200.3990837792
 20
654.9091836735
 30
0.0
 11
1200.3990837792
 21
718.6840043866
 31
0.0
 70
   160
  1
<>
 71
     2
 42
-1.0
  3
SLDDIMSTYLE5
100
AcDbAlignedDimension
 13
1113.0510204082
 23
639.9091836735
 33
0.0
 14
1113.0510204082
 24
654.9091836735
 34
0.0
 50
90.0
100
AcDbRotatedDimension
  0
DIMENSION
  5
366
330
1F
100
AcDbEntity
  8
FORMAT
100
AcDbDimension
  2
_D_13
 10
1088.5510204082
 20
775.2091836735
 30
0.0
 11
657.5510204082
 21
775.2091836735
 31
0.0
 70
   160
  1
<>
 71
     2
 42
-1.0
  3
SLDDIMSTYLE0
100
AcDbAlignedDimension
 13
226.5510204082
 23
528.2646869696
 33
0.0
 14
1088.5510204082
 24
663.4091836735
 34
0.0
100
AcDbRotatedDimension
  0
INSERT
  5
37B
330
1F
100
AcDbEntity
  8
FORMAT
100
AcDbBlockReference
  2
SW_CENTERMARKSYMBOL_0
 10
348.5510204082
 20
560.2091836735
 30
0.0
  0
INSERT
  5
387
330
1F
100
AcDbEntity
  8
FORMAT
100
AcDbBlockReference
  2
SW_CENTERMARKSYMBOL_1
 10
348.5510204082
 20
576.2091836735
 30
0.0
  0
INSERT
  5
393
330
1F
100
AcDbEntity
  8
FORMAT
100
AcDbBlockReference
  2
SW_CENTERMARKSYMBOL_2
 10
338.5510204082
 20
641.2091836735
 30
0.0
  0
INSERT
  5
39F
330
1F
100
AcDbEntity
  8
FORMAT
100
AcDbBlockReference
  2
SW_CENTERMARKSYMBOL_3
 10
508.5510204082
 20
560.2091836735
 30
0.0
  0
INSERT
  5
3AB
330
1F
100
AcDbEntity
  8
FORMAT
100
AcDbBlockReference
  2
SW_CENTERMARKSYMBOL_4
 10
508.5510204082
 20
576.2091836735
 30
0.0
  0
INSERT
  5
3B7
330
1F
100
AcDbEntity
  8
FORMAT
100
AcDbBlockReference
  2
SW_CENTERMARKSYMBOL_5
 10
798.5510204082
 20
641.2091836735
 30
0.0
  0
INSERT
  5
3C3
330
1F
100
AcDbEntity
  8
FORMAT
100
AcDbBlockReference
  2
SW_CENTERMARKSYMBOL_6
 10
1088.5510204082
 20
639.9091836735
 30
0.0
  0
INSERT
  5
3CF
330
1F
100
AcDbEntity
  8
FORMAT
100
AcDbBlockReference
  2
SW_CENTERMARKSYMBOL_7
 10
1104.5510204082
 20
639.9091836735
 30
0.0
  0
INSERT
  5
3DB
330
1F
100
AcDbEntity
  8
FORMAT
100
AcDbBlockReference
  2
SW_CENTERMARKSYMBOL_8
 10
1104.5510204082
 20
654.9091836735
 30
0.0
  0
INSERT
  5
3E7
330
1F
100
AcDbEntity
  8
FORMAT
100
AcDbBlockReference
  2
SW_CENTERMARKSYMBOL_9
 10
1088.5510204082
 20
654.9091836735
 30
0.0
  0
LINE
  5
3E8
330
1F
100
AcDbEntity
  8
FORMAT
  6
CENTERX2
370
    18
100
AcDbLine
 10
226.5510204082
 20
528.2646869696
 30
0.0
 11
226.5510204082
 21
436.7716276949
 31
0.0
  0
ARC
  5
3E9
330
1F
100
AcDbEntity
  8
0
  6
Continuous
 62
     7
370
    25
100
AcDbCircle
 10
1549.1173469365
 20
1167.937755102
 30
0.0
 40
0.4000000000000909
100
AcDbArc
 50
180.0
 51
270.0
  0
LINE
  5
3EA
330
1F
100
AcDbEntity
  8
0
  6
Continuous
 62
     7
370
    25
100
AcDbLine
 10
1548.7173469365
 20
1168.537755102
 30
0.0
 11
1548.7173469365
 21
1167.937755102
 31
0.0
  0
LINE
  5
3EB
330
1F
100
AcDbEntity
  8
0
  6
Continuous
 62
     7
370
    25
100
AcDbLine
 10
1560.2173469365
 20
1172.537755102
 30
0.0
 11
1560.2173469365
 21
1173.037755102
 31
0.0
  0
LINE
  5
3EC
330
1F
100
AcDbEntity
  8
0
  6
Continuous
 62
     7
370
    25
100
AcDbLine
 10
1550.2173469365
 20
1173.037755102
 30
0.0
 11
1550.2173469365
 21
1172.537755102
 31
0.0
  0
LINE
  5
3ED
330
1F
100
AcDbEntity
  8
0
  6
Continuous
 62
     7
370
    25
100
AcDbLine
 10
1551.2173469365
 20
1174.5841652636
 30
0.0
 11
1551.8173469365
 21
1174.237755102
 31
0.0
  0
LINE
  5
3EE
330
1F
100
AcDbEntity
  8
0
  6
Continuous
 62
     7
370
    25
100
AcDbLine
 10
1558.6173469365
 20
1174.237755102
 30
0.0
 11
1559.2173469365
 21
1174.5841652636
 31
0.0
  0
LINE
  5
3EF
330
1F
100
AcDbEntity
  8
0
  6
Continuous
 62
     7
370
    25
100
AcDbLine
 10
1559.2173469365
 20
1174.5841652636
 30
0.0
 11
1559.2173469365
 21
1177.287755102
 31
0.0
  0
LINE
  5
3F0
330
1F
100
AcDbEntity
  8
0
  6
Continuous
 62
     7
370
    25
100
AcDbLine
 10
1551.2173469365
 20
1177.287755102
 30
0.0
 11
1551.2173469365
 21
1174.5841652636
 31
0.0
  0
LINE
  5
3F1
330
1F
100
AcDbEntity
  8
0
  6
Continuous
 62
     7
370
    25
100
AcDbLine
 10
1558.6173469365
 20
1173.037755102
 30
0.0
 11
1558.6173469365
 21
1174.237755102
 31
0.0
  0
LINE
  5
3F2
330
1F
100
AcDbEntity
  8
0
  6
Continuous
 62
     7
370
    25
100
AcDbLine
 10
1551.8173469365
 20
1174.237755102
 30
0.0
 11
1551.8173469365
 21
1173.037755102
 31
0.0
  0
LINE
  5
3F3
330
1F
100
AcDbEntity
  8
0
  6
HIDDEN
 62
     7
370
    25
100
AcDbLine
 10
1535.087346941
 20
1156.487755102
 30
0.0
 11
1535.087346941
 21
1102.087755102
 31
0.0
  0
ARC
  5
3F4
330
1F
100
AcDbEntity
  8
0
  6
HIDDEN
 62
     7
370
    25
100
AcDbCircle
 10
1547.2673469365
 20
1161.237755102
 30
0.0
 40
2.0
100
AcDbArc
 50
90.0
 51
180.0
  0
ARC
  5
3F5
330
1F
100
AcDbEntity
  8
0
  6
HIDDEN
 62
     7
370
    25
100
AcDbCircle
 10
1575.2673469365
 20
1161.237755102
 30
0.0
 40
2.0
100
AcDbArc
 50
0.0
 51
90.0
  0
LINE
  5
3F6
330
1F
100
AcDbEntity
  8
0
  6
HIDDEN
 62
     7
370
    25
100
AcDbLine
 10
1545.2673469365
 20
1161.237755102
 30
0.0
 11
1545.2673469365
 21
1159.737755102
 31
0.0
  0
LINE
  5
3F7
330
1F
100
AcDbEntity
  8
0
  6
HIDDEN
 62
     7
370
    25
100
AcDbLine
 10
1577.2673469365
 20
1159.737755102
 30
0.0
 11
1577.2673469365
 21
1161.237755102
 31
0.0
  0
LINE
  5
3F8
330
1F
100
AcDbEntity
  8
0
  6
Continuous
 62
     7
370
    25
100
AcDbLine
 10
1550.7673469365
 20
1168.537755102
 30
0.0
 11
1550.7673469365
 21
1163.237755102
 31
0.0
  0
LINE
  5
3F9
330
1F
100
AcDbEntity
  8
0
  6
Continuous
 62
     7
370
    25
100
AcDbLine
 10
1571.7673469365
 20
1163.237755102
 30
0.0
 11
1571.7673469365
 21
1168.537755102
 31
0.0
  0
LINE
  5
3FA
330
1F
100
AcDbEntity
  8
0
  6
Continuous
 62
     7
370
    25
100
AcDbLine
 10
1572.2673469365
 20
1168.537755102
 30
0.0
 11
1572.2673469365
 21
1172.537755102
 31
0.0
  0
LINE
  5
3FB
330
1F
100
AcDbEntity
  8
0
  6
Continuous
 62
     7
370
    25
100
AcDbLine
 10
1544.2173469365
 20
1172.537755102
 30
0.0
 11
1544.2173469365
 21
1168.537755102
 31
0.0
  0
LINE
  5
3FC
330
1F
100
AcDbEntity
  8
0
  6
HIDDEN
 62
     7
370
    25
100
AcDbLine
 10
1577.4173469365
 20
1094.837755102
 30
0.0
 11
1577.4173469365
 21
1097.337755102
 31
0.0
  0
LINE
  5
3FD
330
1F
100
AcDbEntity
  8
0
  6
HIDDEN
 62
     7
370
    25
100
AcDbLine
 10
1545.1173469365
 20
1097.337755102
 30
0.0
 11
1545.1173469365
 21
1094.837755102
 31
0.0
  0
ARC
  5
3FE
330
1F
100
AcDbEntity
  8
0
  6
HIDDEN
 62
     7
370
    25
100
AcDbCircle
 10
1547.1173469365
 20
1094.837755102
 30
0.0
 40
2.0
100
AcDbArc
 50
180.0
 51
270.0
  0
ARC
  5
3FF
330
1F
100
AcDbEntity
  8
0
  6
HIDDEN
 62
     7
370
    25
100
AcDbCircle
 10
1575.4173469365
 20
1094.837755102
 30
0.0
 40
2.000000000000227
100
AcDbArc
 50
270.0
 51
0.0
  0
LINE
  5
400
330
1F
100
AcDbEntity
  8
0
  6
Continuous
 62
     7
370
    25
100
AcDbLine
 10
1548.0173469365
 20
1178.937755102
 30
0.0
 11
1548.0173469365
 21
1178.837755102
 31
0.0
  0
LINE
  5
401
330
1F
100
AcDbEntity
  8
0
  6
Continuous
 62
     7
370
    25
100
AcDbLine
 10
1548.0173469365
 20
1178.037755102
 30
0.0
 11
1548.0173469365
 21
1177.587755102
 31
0.0
  0
LINE
  5
402
330
1F
100
AcDbEntity
  8
0
  6
Continuous
 62
     7
370
    25
100
AcDbLine
 10
1562.4173469365
 20
1177.587755102
 30
0.0
 11
1562.4173469365
 21
1178.037755102
 31
0.0
  0
LINE
  5
403
330
1F
100
AcDbEntity
  8
0
  6
Continuous
 62
     7
370
    25
100
AcDbLine
 10
1562.4173469365
 20
1178.837755102
 30
0.0
 11
1562.4173469365
 21
1178.937755102
 31
0.0
  0
ARC
  5
404
330
1F
100
AcDbEntity
  8
0
  6
Continuous
 62
     7
370
    25
100
AcDbCircle
 10
1559.9673469365
 20
1177.587755102
 30
0.0
 40
0.2999999999999545
100
AcDbArc
 50
270.0
 51
0.0
  0
ARC
  5
405
330
1F
100
AcDbEntity
  8
0
  6
Continuous
 62
     7
370
    25
100
AcDbCircle
 10
1550.4673469365
 20
1177.587755102
 30
0.0
 40
0.3000000000001819
100
AcDbArc
 50
180.0
 51
270.0
  0
LINE
  5
406
330
1F
100
AcDbEntity
  8
0
  6
Continuous
 62
     7
370
    25
100
AcDbLine
 10
1545.734381797
 20
1177.4962893411
 30
0.0
 11
1546.1573551257
 21
1177.3776704993
 31
0.0
  0
LINE
  5
407
330
1F
100
AcDbEntity
  8
0
  6
Continuous
 62
     7
370
    25
100
AcDbLine
 10
1544.0039579197
 20
1177.8013893411
 30
0.0
 11
1543.5821142019
 21
1177.9197124063
 31
0.0
  0
LINE
  5
408
330
1F
100
AcDbEntity
  8
0
  6
Continuous
 62
     7
370
    25
100
AcDbLine
 10
1544.8693210403
 20
1177.4962893411
 30
0.0
 11
1544.870424557
 21
1177.4959135362
 31
0.0
  0
LINE
  5
409
330
1F
100
AcDbEntity
  8
0
  6
Continuous
 62
     7
370
    25
100
AcDbLine
 10
1543.2700399265
 20
1177.8013893411
 30
0.0
 11
1542.5964156201
 21
1177.960713294
 31
0.0
  0
LINE
  5
40A
330
1F
100
AcDbEntity
  8
0
  6
Continuous
 62
     7
370
    25
100
AcDbLine
 10
1546.467444357
 20
1177.4962893411
 30
0.0
 11
1547.1412422042
 21
1177.3367932681
 31
0.0
  0
LINE
  5
40B
330
1F
100
AcDbEntity
  8
0
  6
Continuous
 62
     7
370
    25
100
AcDbLine
 10
1542.3742907588
 20
1177.8560265042
 30
0.0
 11
1541.9983088493
 21
1177.9816065675
 31
0.0
  0
LINE
  5
40C
330
1F
100
AcDbEntity
  8
0
  6
Continuous
 62
     7
370
    25
100
AcDbLine
 10
1547.3633756644
 20
1177.4410496851
 30
0.0
 11
1547.7372376546
 21
1177.3159042604
 31
0.0
  0
LINE
  5
40D
330
1F
100
AcDbEntity
  8
0
  6
Continuous
 62
     7
370
    25
100
AcDbLine
 10
1541.8671969432
 20
1177.8065873173
 30
0.0
 11
1541.8671969432
 21
1177.4949965618
 31
0.0
  0
LINE
  5
40E
330
1F
100
AcDbEntity
  8
0
  6
Continuous
 62
     7
370
    25
100
AcDbLine
 10
1547.8674969432
 20
1177.4949965618
 30
0.0
 11
1547.8674969432
 21
1177.8065873173
 31
0.0
  0
LINE
  5
40F
330
1F
100
AcDbEntity
  8
0
  6
Continuous
 62
     7
370
    25
100
AcDbLine
 10
1542.5934516823
 20
1177.3367932681
 30
0.0
 11
1542.8608523123
 21
1177.4000902207
 31
0.0
  0
LINE
  5
410
330
1F
100
AcDbEntity
  8
0
  6
Continuous
 62
     7
370
    25
100
AcDbLine
 10
1547.1382782664
 20
1177.960713294
 30
0.0
 11
1546.8708158003
 21
1177.8974537338
 31
0.0
  0
ARC
  5
411
330
1F
100
AcDbEntity
  8
0
  6
Continuous
 62
     7
370
    25
100
AcDbCircle
 10
1547.3973469365
 20
1175.8629428014
 30
0.0
 40
0.2699999999999818
100
AcDbArc
 50
302.3360259975
 51
0.0
  0
ARC
  5
412
330
1F
100
AcDbEntity
  8
0
  6
Continuous
 62
     7
370
    25
100
AcDbCircle
 10
1542.3373469365
 20
1175.8629428014
 30
0.0
 40
0.270000000000035
100
AcDbArc
 50
180.0
 51
237.6639740024
  0
LINE
  5
413
330
1F
100
AcDbEntity
  8
0
  6
Continuous
 62
     7
370
    25
100
AcDbLine
 10
1547.6673469365
 20
1175.8629428014
 30
0.0
 11
1547.6673469365
 21
1177.2594412689
 31
0.0
  0
LINE
  5
414
330
1F
100
AcDbEntity
  8
0
  6
Continuous
 62
     7
370
    25
100
AcDbLine
 10
1542.0673469365
 20
1177.2594412689
 30
0.0
 11
1542.0673469365
 21
1175.8629428014
 31
0.0
  0
ARC
  5
415
330
1F
100
AcDbEntity
  8
0
  6
Continuous
 62
     7
370
    25
100
AcDbCircle
 10
1544.8673469365
 20
1179.8594412689
 30
0.0
 40
5.000000000000021
100
AcDbArc
 50
285.2192781064
 51
302.3360259976
  0
ARC
  5
416
330
1F
100
AcDbEntity
  8
0
  6
Continuous
 62
     7
370
    25
100
AcDbCircle
 10
1544.8673469365
 20
1179.8594412689
 30
0.0
 40
5.000000000000021
100
AcDbArc
 50
237.6639740024
 51
254.7807218936
  0
ARC
  5
417
330
1F
100
AcDbEntity
  8
0
  6
Continuous
 62
     7
370
    25
100
AcDbCircle
 10
1543.2673469365
 20
1177.3594412689
 30
0.0
 40
0.0999999999999091
100
AcDbArc
 50
270.0
 51
0.0
  0
LINE
  5
418
330
1F
100
AcDbEntity
  8
0
  6
Continuous
 62
     7
370
    25
100
AcDbLine
 10
1546.3673469365
 20
1177.9344114837
 30
0.0
 11
1546.3673469365
 21
1178.037755102
 31
0.0
  0
LINE
  5
419
330
1F
100
AcDbEntity
  8
0
  6
Continuous
 62
     7
370
    25
100
AcDbLine
 10
1546.3673469365
 20
1178.837755102
 30
0.0
 11
1546.3673469365
 21
1178.887755102
 31
0.0
  0
LINE
  5
41A
330
1F
100
AcDbEntity
  8
0
  6
Continuous
 62
     7
370
    25
100
AcDbLine
 10
1543.3673469365
 20
1178.887755102
 30
0.0
 11
1543.3673469365
 21
1178.837755102
 31
0.0
  0
LINE
  5
41B
330
1F
100
AcDbEntity
  8
0
  6
Continuous
 62
     7
370
    25
100
AcDbLine
 10
1583.0139047979
 20
1199.3143609592
 30
0.0
 11
1582.8673469365
 21
1199.3143609592
 31
0.0
  0
LINE
  5
41C
330
1F
100
AcDbEntity
  8
0
  6
Continuous
 62
     7
370
    25
100
AcDbLine
 10
1582.8673469365
 20
1190.3611492449
 30
0.0
 11
1583.0139047979
 21
1190.3611492449
 31
0.0
  0
ARC
  5
41D
330
1F
100
AcDbEntity
  8
0
  6
Continuous
 62
     7
370
    25
100
AcDbCircle
 10
1582.8673469365
 20
1190.5611492449
 30
0.0
 40
0.2000000000000455
100
AcDbArc
 50
180.0
 51
270.0
  0
ARC
  5
41E
330
1F
100
AcDbEntity
  8
0
  6
Continuous
 62
     7
370
    25
100
AcDbCircle
 10
1582.8673469365
 20
1199.1143609592
 30
0.0
 40
0.2000000000000455
100
AcDbArc
 50
90.0
 51
180.0000000001
  0
ARC
  5
41F
330
1F
100
AcDbEntity
  8
0
  6
Continuous
 62
     7
370
    25
100
AcDbCircle
 10
1583.0139047979
 20
1190.5611492449
 30
0.0
 40
0.2000000000000455
100
AcDbArc
 50
270.0
 51
345.2524929007
  0
ARC
  5
420
330
1F
100
AcDbEntity
  8
0
  6
Continuous
 62
     7
370
    25
100
AcDbCircle
 10
1583.0139047979
 20
1199.1143609592
 30
0.0
 40
0.1999999999998181
100
AcDbArc
 50
14.7475070993
 51
90.0
  0
ARC
  5
421
330
1F
100
AcDbEntity
  8
0
  6
Continuous
 62
     7
370
    25
100
AcDbCircle
 10
1566.7673469365
 20
1194.837755102
 30
0.0
 40
17.0
100
AcDbArc
 50
345.2524929007
 51
0.0
  0
ARC
  5
422
330
1F
100
AcDbEntity
  8
0
  6
Continuous
 62
     7
370
    25
100
AcDbCircle
 10
1566.7673469365
 20
1194.837755102
 30
0.0
 40
17.0
100
AcDbArc
 50
0.0
 51
14.7475070993
  0
LINE
  5
423
330
1F
100
AcDbEntity
  8
0
  6
Continuous
 62
     7
370
    25
100
AcDbLine
 10
1534.6673469365
 20
1172.537755102
 30
0.0
 11
1534.6673469365
 21
1156.337755102
 31
0.0
  0
LINE
  5
424
330
1F
100
AcDbEntity
  8
0
  6
Continuous
 62
     7
370
    25
100
AcDbLine
 10
1534.6673469365
 20
1100.737755102
 30
0.0
 11
1534.6673469365
 21
982.537755102
 31
0.0
  0
LINE
  5
425
330
1F
100
AcDbEntity
  8
0
  6
Continuous
 62
     7
370
    25
100
AcDbLine
 10
1479.6673469365
 20
982.537755102
 30
0.0
 11
1534.6673469365
 21
982.537755102
 31
0.0
  0
LINE
  5
426
330
1F
100
AcDbEntity
  8
0
  6
Continuous
 62
     7
370
    25
100
AcDbLine
 10
1479.6673469365
 20
1172.537755102
 30
0.0
 11
1479.6673469365
 21
982.537755102
 31
0.0
  0
LINE
  5
427
330
1F
100
AcDbEntity
  8
0
  6
Continuous
 62
     7
370
    25
100
AcDbLine
 10
1534.6673469365
 20
1172.537755102
 30
0.0
 11
1479.6673469365
 21
1172.537755102
 31
0.0
  0
LINE
  5
428
330
1F
100
AcDbEntity
  8
0
  6
Continuous
 62
     7
370
    25
100
AcDbLine
 10
1534.6673469365
 20
1242.537755102
 30
0.0
 11
1534.6673469365
 21
1211.437755102
 31
0.0
  0
LINE
  5
429
330
1F
100
AcDbEntity
  8
0
  6
Continuous
 62
     7
370
    25
100
AcDbLine
 10
1534.6673469365
 20
1210.637755102
 30
0.0
 11
1534.6673469365
 21
1210.537755102
 31
0.0
  0
LINE
  5
42A
330
1F
100
AcDbEntity
  8
0
  6
Continuous
 62
     7
370
    25
100
AcDbLine
 10
1534.6673469365
 20
1178.937755102
 30
0.0
 11
1534.6673469365
 21
1178.837755102
 31
0.0
  0
LINE
  5
42B
330
1F
100
AcDbEntity
  8
0
  6
Continuous
 62
     7
370
    25
100
AcDbLine
 10
1534.6673469365
 20
1178.037755102
 30
0.0
 11
1534.6673469365
 21
1177.537755102
 31
0.0
  0
LINE
  5
42C
330
1F
100
AcDbEntity
  8
0
  6
Continuous
 62
     7
370
    25
100
AcDbLine
 10
1534.6673469365
 20
1177.537755102
 30
0.0
 11
1479.6673469365
 21
1177.537755102
 31
0.0
  0
LINE
  5
42D
330
1F
100
AcDbEntity
  8
0
  6
Continuous
 62
     7
370
    25
100
AcDbLine
 10
1534.6673469365
 20
1242.537755102
 30
0.0
 11
1479.6673469365
 21
1242.537755102
 31
0.0
  0
LINE
  5
42E
330
1F
100
AcDbEntity
  8
0
  6
Continuous
 62
     7
370
    25
100
AcDbLine
 10
1479.6673469365
 20
1242.537755102
 30
0.0
 11
1479.6673469365
 21
1177.537755102
 31
0.0
  0
LINE
  5
42F
330
1F
100
AcDbEntity
  8
0
  6
Continuous
 62
     7
370
    25
100
AcDbLine
 10
1534.6673469365
 20
1172.537755102
 30
0.0
 11
1534.6673469365
 21
1177.537755102
 31
0.0
  0
LINE
  5
430
330
1F
100
AcDbEntity
  8
0
  6
Continuous
 62
     7
370
    25
100
AcDbLine
 10
1479.6673469365
 20
1172.537755102
 30
0.0
 11
1479.6673469365
 21
1177.537755102
 31
0.0
  0
LINE
  5
431
330
1F
100
AcDbEntity
  8
0
  6
Continuous
 62
     7
370
    25
100
AcDbLine
 10
1550.7673469365
 20
1167.537755102
 30
0.0
 11
1549.1173469365
 21
1167.537755102
 31
0.0
  0
LINE
  5
432
330
1F
100
AcDbEntity
  8
0
  6
Continuous
 62
     7
370
    25
100
AcDbLine
 10
1560.2173469365
 20
1173.037755102
 30
0.0
 11
1550.2173469365
 21
1173.037755102
 31
0.0
  0
LINE
  5
433
330
1F
100
AcDbEntity
  8
0
  6
Continuous
 62
     7
370
    25
100
AcDbLine
 10
1559.2173469365
 20
1174.5841652636
 30
0.0
 11
1551.2173469365
 21
1174.5841652636
 31
0.0
  0
LINE
  5
434
330
1F
100
AcDbEntity
  8
0
  6
Continuous
 62
     7
370
    25
100
AcDbLine
 10
1558.6173469365
 20
1174.237755102
 30
0.0
 11
1551.8173469365
 21
1174.237755102
 31
0.0
  0
LINE
  5
435
330
1F
100
AcDbEntity
  8
0
  6
HIDDEN
 62
     7
370
    25
100
AcDbLine
 10
1535.087346941
 20
1156.487755102
 30
0.0
 11
1535.987346941
 21
1156.487755102
 31
0.0
  0
LINE
  5
436
330
1F
100
AcDbEntity
  8
0
  6
HIDDEN
 62
     7
370
    25
100
AcDbLine
 10
1535.987346941
 20
1156.487755102
 30
0.0
 11
1535.987346941
 21
1102.087755102
 31
0.0
  0
LINE
  5
437
330
1F
100
AcDbEntity
  8
0
  6
HIDDEN
 62
     7
370
    25
100
AcDbLine
 10
1535.087346941
 20
1102.087755102
 30
0.0
 11
1535.987346941
 21
1102.087755102
 31
0.0
  0
LINE
  5
438
330
1F
100
AcDbEntity
  8
0
  6
HIDDEN
 62
     7
370
    25
100
AcDbLine
 10
1540.087346941
 20
1102.087755102
 30
0.0
 11
1540.087346941
 21
1100.587755102
 31
0.0
  0
LINE
  5
439
330
1F
100
AcDbEntity
  8
0
  6
HIDDEN
 62
     7
370
    25
100
AcDbLine
 10
1535.987346941
 20
1156.487755102
 30
0.0
 11
1581.667346941
 21
1156.487755102
 31
0.0
  0
LINE
  5
43A
330
1F
100
AcDbEntity
  8
0
  6
HIDDEN
 62
     7
370
    25
100
AcDbLine
 10
1581.667346941
 20
1100.587755102
 30
0.0
 11
1581.667346941
 21
1156.487755102
 31
0.0
  0
LINE
  5
43B
330
1F
100
AcDbEntity
  8
0
  6
HIDDEN
 62
     7
370
    25
100
AcDbLine
 10
1540.087346941
 20
1100.587755102
 30
0.0
 11
1581.667346941
 21
1100.587755102
 31
0.0
  0
LINE
  5
43C
330
1F
100
AcDbEntity
  8
0
  6
HIDDEN
 62
     7
370
    25
100
AcDbLine
 10
1535.987346941
 20
1102.087755102
 30
0.0
 11
1540.087346941
 21
1102.087755102
 31
0.0
  0
LINE
  5
43D
330
1F
100
AcDbEntity
  8
0
  6
HIDDEN
 62
     7
370
    25
100
AcDbLine
 10
1583.467346941
 20
1156.487755102
 30
0.0
 11
1583.467346941
 21
1100.587755102
 31
0.0
  0
LINE
  5
43E
330
1F
100
AcDbEntity
  8
0
  6
HIDDEN
 62
     7
370
    25
100
AcDbLine
 10
1581.667346941
 20
1156.487755102
 30
0.0
 11
1583.467346941
 21
1156.487755102
 31
0.0
  0
LINE
  5
43F
330
1F
100
AcDbEntity
  8
0
  6
HIDDEN
 62
     7
370
    25
100
AcDbLine
 10
1583.467346941
 20
1100.587755102
 30
0.0
 11
1581.667346941
 21
1100.587755102
 31
0.0
  0
LINE
  5
440
330
1F
100
AcDbEntity
  8
0
  6
HIDDEN
 62
     7
370
    25
100
AcDbLine
 10
1547.26734711
 20
1163.237755102
 30
0.0
 11
1575.2673469365
 21
1163.237755102
 31
0.0
  0
LINE
  5
441
330
1F
100
AcDbEntity
  8
0
  6
Continuous
 62
     7
370
    25
100
AcDbLine
 10
1550.2691302599
 20
1172.537755102
 30
0.0
 11
1550.2691302599
 21
1168.537755102
 31
0.0
  0
LINE
  5
442
330
1F
100
AcDbEntity
  8
0
  6
Continuous
 62
     7
370
    25
100
AcDbLine
 10
1550.2691302599
 20
1168.537755102
 30
0.0
 11
1572.2673469365
 21
1168.537755102
 31
0.0
  0
LINE
  5
443
330
1F
100
AcDbEntity
  8
0
  6
Continuous
 62
     7
370
    25
100
AcDbLine
 10
1550.2691302599
 20
1172.537755102
 30
0.0
 11
1572.2673469365
 21
1172.537755102
 31
0.0
  0
LINE
  5
444
330
1F
100
AcDbEntity
  8
0
  6
Continuous
 62
     7
370
    25
100
AcDbLine
 10
1544.2191302599
 20
1172.537755102
 30
0.0
 11
1544.2191302599
 21
1168.537755102
 31
0.0
  0
LINE
  5
445
330
1F
100
AcDbEntity
  8
0
  6
Continuous
 62
     7
370
    25
100
AcDbLine
 10
1544.2191302599
 20
1168.537755102
 30
0.0
 11
1550.2691302599
 21
1168.537755102
 31
0.0
  0
LINE
  5
446
330
1F
100
AcDbEntity
  8
0
  6
Continuous
 62
     7
370
    25
100
AcDbLine
 10
1544.2191302599
 20
1172.537755102
 30
0.0
 11
1550.2691302599
 21
1172.537755102
 31
0.0
  0
LINE
  5
447
330
1F
100
AcDbEntity
  8
0
  6
Continuous
 62
     7
370
    25
100
AcDbLine
 10
1544.2173469365
 20
1168.537755102
 30
0.0
 11
1544.2191302599
 21
1168.537755102
 31
0.0
  0
LINE
  5
448
330
1F
100
AcDbEntity
  8
0
  6
Continuous
 62
     7
370
    25
100
AcDbLine
 10
1544.2173469365
 20
1172.537755102
 30
0.0
 11
1544.2191302599
 21
1172.537755102
 31
0.0
  0
LINE
  5
449
330
1F
100
AcDbEntity
  8
0
  6
HIDDEN
 62
     7
370
    25
100
AcDbLine
 10
1575.4173469151
 20
1092.837755102
 30
0.0
 11
1547.1173469365
 21
1092.837755102
 31
0.0
  0
LINE
  5
44A
330
1F
100
AcDbEntity
  8
0
  6
HIDDEN
 62
     7
370
    25
100
AcDbLine
 10
1579.8673469365
 20
1097.337755102
 30
0.0
 11
1577.1673469365
 21
1097.337755102
 31
0.0
  0
ARC
  5
44B
330
1F
100
AcDbEntity
  8
0
  6
HIDDEN
 62
     7
370
    25
100
AcDbCircle
 10
1575.7673469365
 20
1097.337755102
 30
0.0
 40
1.400000000000091
100
AcDbArc
 50
0.0
 51
180.0
  0
LINE
  5
44C
330
1F
100
AcDbEntity
  8
0
  6
HIDDEN
 62
     7
370
    25
100
AcDbLine
 10
1574.3673469365
 20
1097.337755102
 30
0.0
 11
1571.6673469365
 21
1097.337755102
 31
0.0
  0
ARC
  5
44D
330
1F
100
AcDbEntity
  8
0
  6
HIDDEN
 62
     7
370
    25
100
AcDbCircle
 10
1570.2673469365
 20
1097.337755102
 30
0.0
 40
1.400000000000091
100
AcDbArc
 50
0.0
 51
180.0
  0
LINE
  5
44E
330
1F
100
AcDbEntity
  8
0
  6
HIDDEN
 62
     7
370
    25
100
AcDbLine
 10
1568.8673469365
 20
1097.337755102
 30
0.0
 11
1566.1673469365
 21
1097.337755102
 31
0.0
  0
ARC
  5
44F
330
1F
100
AcDbEntity
  8
0
  6
HIDDEN
 62
     7
370
    25
100
AcDbCircle
 10
1564.7673469365
 20
1097.337755102
 30
0.0
 40
1.400000000000091
100
AcDbArc
 50
0.0
 51
180.0
  0
LINE
  5
450
330
1F
100
AcDbEntity
  8
0
  6
HIDDEN
 62
     7
370
    25
100
AcDbLine
 10
1563.3673469365
 20
1097.337755102
 30
0.0
 11
1560.6673469365
 21
1097.337755102
 31
0.0
  0
ARC
  5
451
330
1F
100
AcDbEntity
  8
0
  6
HIDDEN
 62
     7
370
    25
100
AcDbCircle
 10
1559.2673469365
 20
1097.337755102
 30
0.0
 40
1.400000000000091
100
AcDbArc
 50
0.0
 51
180.0
  0
LINE
  5
452
330
1F
100
AcDbEntity
  8
0
  6
HIDDEN
 62
     7
370
    25
100
AcDbLine
 10
1557.8673469365
 20
1097.337755102
 30
0.0
 11
1555.1673469365
 21
1097.337755102
 31
0.0
  0
ARC
  5
453
330
1F
100
AcDbEntity
  8
0
  6
HIDDEN
 62
     7
370
    25
100
AcDbCircle
 10
1553.7673469365
 20
1097.337755102
 30
0.0
 40
1.400000000000091
100
AcDbArc
 50
0.0
 51
180.0
  0
LINE
  5
454
330
1F
100
AcDbEntity
  8
0
  6
HIDDEN
 62
     7
370
    25
100
AcDbLine
 10
1552.3673469365
 20
1097.337755102
 30
0.0
 11
1549.6673469365
 21
1097.337755102
 31
0.0
  0
ARC
  5
455
330
1F
100
AcDbEntity
  8
0
  6
HIDDEN
 62
     7
370
    25
100
AcDbCircle
 10
1548.2673469365
 20
1097.337755102
 30
0.0
 40
1.400000000000091
100
AcDbArc
 50
0.0
 51
180.0
  0
LINE
  5
456
330
1F
100
AcDbEntity
  8
0
  6
HIDDEN
 62
     7
370
    25
100
AcDbLine
 10
1546.8673469365
 20
1097.337755102
 30
0.0
 11
1544.1673469365
 21
1097.337755102
 31
0.0
  0
ARC
  5
457
330
1F
100
AcDbEntity
  8
0
  6
HIDDEN
 62
     7
370
    25
100
AcDbCircle
 10
1542.7673469365
 20
1097.337755102
 30
0.0
 40
1.399999999999864
100
AcDbArc
 50
0.0
 51
180.0
  0
LINE
  5
458
330
1F
100
AcDbEntity
  8
0
  6
HIDDEN
 62
     7
370
    25
100
AcDbLine
 10
1541.3673469365
 20
1097.337755102
 30
0.0
 11
1534.8673469365
 21
1097.337755102
 31
0.0
  0
LINE
  5
459
330
1F
100
AcDbEntity
  8
0
  6
HIDDEN
 62
     7
370
    25
100
AcDbLine
 10
1534.8673469365
 20
1100.337755102
 30
0.0
 11
1534.8673469365
 21
1097.337755102
 31
0.0
  0
LINE
  5
45A
330
1F
100
AcDbEntity
  8
0
  6
HIDDEN
 62
     7
370
    25
100
AcDbLine
 10
1534.8673469365
 20
1100.337755102
 30
0.0
 11
1582.0673469365
 21
1100.337755102
 31
0.0
  0
LINE
  5
45B
330
1F
100
AcDbEntity
  8
0
  6
HIDDEN
 62
     7
370
    25
100
AcDbLine
 10
1582.0673469365
 20
1098.4866676313
 30
0.0
 11
1582.0673469365
 21
1100.337755102
 31
0.0
  0
ARC
  5
45C
330
1F
100
AcDbEntity
  8
0
  6
HIDDEN
 62
     7
370
    25
100
AcDbCircle
 10
1581.2673469365
 20
1097.337755102
 30
0.0
 40
1.400000000000091
100
AcDbArc
 50
55.150095421
 51
180.0
  0
ARC
  5
45D
330
1F
100
AcDbEntity
  8
0
  6
HIDDEN
 62
     7
370
    25
100
AcDbCircle
 10
1542.7673469365
 20
1159.737755102
 30
0.0
 40
1.399999999999864
100
AcDbArc
 50
180.0
 51
0.0
  0
LINE
  5
45E
330
1F
100
AcDbEntity
  8
0
  6
HIDDEN
 62
     7
370
    25
100
AcDbLine
 10
1544.1673469365
 20
1159.737755102
 30
0.0
 11
1546.8673469365
 21
1159.737755102
 31
0.0
  0
ARC
  5
45F
330
1F
100
AcDbEntity
  8
0
  6
HIDDEN
 62
     7
370
    25
100
AcDbCircle
 10
1548.2673469365
 20
1159.737755102
 30
0.0
 40
1.400000000000091
100
AcDbArc
 50
180.0
 51
0.0
  0
LINE
  5
460
330
1F
100
AcDbEntity
  8
0
  6
HIDDEN
 62
     7
370
    25
100
AcDbLine
 10
1549.6673469365
 20
1159.737755102
 30
0.0
 11
1552.3673469365
 21
1159.737755102
 31
0.0
  0
ARC
  5
461
330
1F
100
AcDbEntity
  8
0
  6
HIDDEN
 62
     7
370
    25
100
AcDbCircle
 10
1553.7673469365
 20
1159.737755102
 30
0.0
 40
1.400000000000091
100
AcDbArc
 50
180.0
 51
0.0
  0
LINE
  5
462
330
1F
100
AcDbEntity
  8
0
  6
HIDDEN
 62
     7
370
    25
100
AcDbLine
 10
1555.1673469365
 20
1159.737755102
 30
0.0
 11
1557.8673469365
 21
1159.737755102
 31
0.0
  0
ARC
  5
463
330
1F
100
AcDbEntity
  8
0
  6
HIDDEN
 62
     7
370
    25
100
AcDbCircle
 10
1559.2673469365
 20
1159.737755102
 30
0.0
 40
1.400000000000091
100
AcDbArc
 50
180.0
 51
0.0
  0
LINE
  5
464
330
1F
100
AcDbEntity
  8
0
  6
HIDDEN
 62
     7
370
    25
100
AcDbLine
 10
1560.6673469365
 20
1159.737755102
 30
0.0
 11
1563.3673469365
 21
1159.737755102
 31
0.0
  0
ARC
  5
465
330
1F
100
AcDbEntity
  8
0
  6
HIDDEN
 62
     7
370
    25
100
AcDbCircle
 10
1564.7673469365
 20
1159.737755102
 30
0.0
 40
1.400000000000091
100
AcDbArc
 50
180.0
 51
0.0
  0
LINE
  5
466
330
1F
100
AcDbEntity
  8
0
  6
HIDDEN
 62
     7
370
    25
100
AcDbLine
 10
1566.1673469365
 20
1159.737755102
 30
0.0
 11
1568.8673469365
 21
1159.737755102
 31
0.0
  0
ARC
  5
467
330
1F
100
AcDbEntity
  8
0
  6
HIDDEN
 62
     7
370
    25
100
AcDbCircle
 10
1570.2673469365
 20
1159.737755102
 30
0.0
 40
1.400000000000091
100
AcDbArc
 50
180.0
 51
0.0
  0
LINE
  5
468
330
1F
100
AcDbEntity
  8
0
  6
HIDDEN
 62
     7
370
    25
100
AcDbLine
 10
1571.6673469365
 20
1159.737755102
 30
0.0
 11
1574.3673469365
 21
1159.737755102
 31
0.0
  0
ARC
  5
469
330
1F
100
AcDbEntity
  8
0
  6
HIDDEN
 62
     7
370
    25
100
AcDbCircle
 10
1575.7673469365
 20
1159.737755102
 30
0.0
 40
1.400000000000091
100
AcDbArc
 50
180.0
 51
0.0
  0
LINE
  5
46A
330
1F
100
AcDbEntity
  8
0
  6
HIDDEN
 62
     7
370
    25
100
AcDbLine
 10
1577.1673469365
 20
1159.737755102
 30
0.0
 11
1579.8673469365
 21
1159.737755102
 31
0.0
  0
ARC
  5
46B
330
1F
100
AcDbEntity
  8
0
  6
HIDDEN
 62
     7
370
    25
100
AcDbCircle
 10
1581.2673469365
 20
1159.737755102
 30
0.0
 40
1.400000000000091
100
AcDbArc
 50
180.0
 51
304.8499048028
  0
LINE
  5
46C
330
1F
100
AcDbEntity
  8
0
  6
HIDDEN
 62
     7
370
    25
100
AcDbLine
 10
1582.067346941
 20
1156.737755102
 30
0.0
 11
1582.067346941
 21
1158.5888425759
 31
0.0
  0
LINE
  5
46D
330
1F
100
AcDbEntity
  8
0
  6
HIDDEN
 62
     7
370
    25
100
AcDbLine
 10
1534.867346941
 20
1159.737755102
 30
0.0
 11
1534.867346941
 21
1156.737755102
 31
0.0
  0
LINE
  5
46E
330
1F
100
AcDbEntity
  8
0
  6
HIDDEN
 62
     7
370
    25
100
AcDbLine
 10
1534.867346941
 20
1159.737755102
 30
0.0
 11
1541.3673469365
 21
1159.737755102
 31
0.0
  0
LINE
  5
46F
330
1F
100
AcDbEntity
  8
0
  6
HIDDEN
 62
     7
370
    25
100
AcDbLine
 10
1582.067346941
 20
1156.737755102
 30
0.0
 11
1534.867346941
 21
1156.737755102
 31
0.0
  0
LINE
  5
470
330
1F
100
AcDbEntity
  8
0
  6
HIDDEN
 62
     7
370
    25
100
AcDbLine
 10
1582.6673469365
 20
1159.737755102
 30
0.0
 11
1584.067346941
 21
1159.737755102
 31
0.0
  0
LINE
  5
471
330
1F
100
AcDbEntity
  8
0
  6
HIDDEN
 62
     7
370
    25
100
AcDbLine
 10
1584.067346941
 20
1159.737755102
 30
0.0
 11
1584.067346941
 21
1156.737755102
 31
0.0
  0
SPLINE
  5
472
330
1F
100
AcDbEntity
  8
0
  6
HIDDEN
 62
     7
370
    25
100
AcDbSpline
210
0.0
220
0.0
230
1.0
 70
     8
 71
     3
 72
    10
 73
     6
 74
     0
 42
0.00000001
 43
0.00000001
 40
0.0
 40
0.0
 40
0.0
 40
0.0
 40
0.3434322050965674
 40
0.686164401676014
 40
1.0
 40
1.0
 40
1.0
 40
1.0
 10
1582.06734694102
 20
1158.588842575856
 30
0.0
 10
1582.185084588533
 20
1158.689467640756
 30
0.0
 10
1582.420319902116
 20
1158.890512669223
 30
0.0
 10
1582.627567076057
 20
1159.302266249534
 30
0.0
 10
1582.654481836926
 20
1159.596914802487
 30
0.0
 10
1582.667346936534
 20
1159.73775510204
 30
0.0
  0
LINE
  5
473
330
1F
100
AcDbEntity
  8
0
  6
HIDDEN
 62
     7
370
    25
100
AcDbLine
 10
1584.067346941
 20
1156.737755102
 30
0.0
 11
1582.067346941
 21
1156.737755102
 31
0.0
  0
LINE
  5
474
330
1F
100
AcDbEntity
  8
0
  6
HIDDEN
 62
     7
370
    25
100
AcDbLine
 10
1584.0673469365
 20
1100.337755102
 30
0.0
 11
1584.0673469365
 21
1097.337755102
 31
0.0
  0
LINE
  5
475
330
1F
100
AcDbEntity
  8
0
  6
HIDDEN
 62
     7
370
    25
100
AcDbLine
 10
1584.0673469365
 20
1097.337755102
 30
0.0
 11
1582.6673469365
 21
1097.337755102
 31
0.0
  0
SPLINE
  5
476
330
1F
100
AcDbEntity
  8
0
  6
HIDDEN
 62
     7
370
    25
100
AcDbSpline
210
0.0
220
0.0
230
1.0
 70
     8
 71
     3
 72
    10
 73
     6
 74
     0
 42
0.00000001
 43
0.00000001
 40
0.0
 40
0.0
 40
0.0
 40
0.0
 40
0.3436774998516932
 40
0.6868902570680364
 40
1.0
 40
1.0
 40
1.0
 40
1.0
 10
1582.667346936534
 20
1097.33775510204
 30
0.0
 10
1582.651996882683
 20
1097.492103789599
 30
0.0
 10
1582.621317532303
 20
1097.800592444576
 30
0.0
 10
1582.401509314304
 20
1098.205728960473
 30
0.0
 10
1582.175275568935
 20
1098.395929329992
 30
0.0
 10
1582.067346936534
 20
1098.486667631348
 30
0.0
  0
LINE
  5
477
330
1F
100
AcDbEntity
  8
0
  6
HIDDEN
 62
     7
370
    25
100
AcDbLine
 10
1582.0673469365
 20
1100.337755102
 30
0.0
 11
1584.0673469365
 21
1100.337755102
 31
0.0
  0
LINE
  5
478
330
1F
100
AcDbEntity
  8
0
  6
HIDDEN
 62
     7
370
    25
100
AcDbLine
 10
1581.667346941
 20
1100.337755102
 30
0.0
 11
1581.667346941
 21
1100.587755102
 31
0.0
  0
ARC
  5
479
330
1F
100
AcDbEntity
  8
0
  6
HIDDEN
 62
     7
370
    25
100
AcDbCircle
 10
1538.6673469365
 20
1101.337755102
 30
0.0
 40
1.000000000000227
100
AcDbArc
 50
270.0
 51
0.0
  0
LINE
  5
47A
330
1F
100
AcDbEntity
  8
0
  6
HIDDEN
 62
     7
370
    25
100
AcDbLine
 10
1539.6673469365
 20
1102.087755102
 30
0.0
 11
1539.6673469365
 21
1101.337755102
 31
0.0
  0
LINE
  5
47B
330
1F
100
AcDbEntity
  8
0
  6
HIDDEN
 62
     7
370
    25
100
AcDbLine
 10
1581.667346941
 20
1156.487755102
 30
0.0
 11
1581.667346941
 21
1156.737755102
 31
0.0
  0
ARC
  5
47C
330
1F
100
AcDbEntity
  8
0
  6
HIDDEN
 62
     7
370
    25
100
AcDbCircle
 10
1538.667346941
 20
1155.737755102
 30
0.0
 40
1.000000000000003
100
AcDbArc
 50
48.5903778907
 51
90.0
  0
LINE
  5
47D
330
1F
100
AcDbEntity
  8
0
  6
HIDDEN
 62
     7
370
    25
100
AcDbLine
 10
1582.667346941
 20
1156.737755102
 30
0.0
 11
1582.667346941
 21
1156.487755102
 31
0.0
  0
LINE
  5
47E
330
1F
100
AcDbEntity
  8
0
  6
HIDDEN
 62
     7
370
    25
100
AcDbLine
 10
1582.667346941
 20
1100.587755102
 30
0.0
 11
1582.667346941
 21
1100.337755102
 31
0.0
  0
LINE
  5
47F
330
1F
100
AcDbEntity
  8
0
  6
Continuous
 62
     7
370
    25
100
AcDbLine
 10
1539.1673469365
 20
1100.737755102
 30
0.0
 11
1539.6617566574
 21
1101.2321648229
 31
0.0
  0
LINE
  5
480
330
1F
100
AcDbEntity
  8
0
  6
Continuous
 62
     7
370
    25
100
AcDbLine
 10
1534.6673469365
 20
1156.337755102
 30
0.0
 11
1534.6673469365
 21
1100.737755102
 31
0.0
  0
LINE
  5
481
330
1F
100
AcDbEntity
  8
0
  6
Continuous
 62
     7
370
    25
100
AcDbLine
 10
1535.087346941
 20
1156.337755102
 30
0.0
 11
1534.6673469365
 21
1156.337755102
 31
0.0
  0
LINE
  5
482
330
1F
100
AcDbEntity
  8
0
  6
Continuous
 62
     7
370
    25
100
AcDbLine
 10
1534.6673469365
 20
1100.737755102
 30
0.0
 11
1539.1673469365
 21
1100.737755102
 31
0.0
  0
LINE
  5
483
330
1F
100
AcDbEntity
  8
0
  6
Continuous
 62
     7
370
    25
100
AcDbLine
 10
1562.4173469365
 20
1177.587755102
 30
0.0
 11
1548.0173469365
 21
1177.587755102
 31
0.0
  0
LINE
  5
484
330
1F
100
AcDbEntity
  8
0
  6
Continuous
 62
     7
370
    25
100
AcDbLine
 10
1551.1037262686
 20
1177.287755102
 30
0.0
 11
1550.4673469365
 21
1177.287755102
 31
0.0
  0
LINE
  5
485
330
1F
100
AcDbEntity
  8
0
  6
Continuous
 62
     7
370
    25
100
AcDbLine
 10
1559.9673469365
 20
1177.287755102
 30
0.0
 11
1551.1037262686
 21
1177.287755102
 31
0.0
  0
LINE
  5
486
330
1F
100
AcDbEntity
  8
0
  6
Continuous
 62
     7
370
    25
100
AcDbLine
 10
1539.6673469365
 20
1204.487755102
 30
0.0
 11
1539.6673469365
 21
1203.487755102
 31
0.0
  0
LINE
  5
487
330
1F
100
AcDbEntity
  8
0
  6
Continuous
 62
     7
370
    25
100
AcDbLine
 10
1539.6673469365
 20
1185.987755102
 30
0.0
 11
1539.6673469365
 21
1184.987755102
 31
0.0
  0
LINE
  5
488
330
1F
100
AcDbEntity
  8
0
  6
Continuous
 62
     7
370
    25
100
AcDbLine
 10
1534.6673469365
 20
1204.487755102
 30
0.0
 11
1534.6673469365
 21
1203.487755102
 31
0.0
  0
LINE
  5
489
330
1F
100
AcDbEntity
  8
0
  6
Continuous
 62
     7
370
    25
100
AcDbLine
 10
1534.6673469365
 20
1185.987755102
 30
0.0
 11
1534.6673469365
 21
1184.987755102
 31
0.0
  0
LINE
  5
48A
330
1F
100
AcDbEntity
  8
0
  6
Continuous
 62
     7
370
    25
100
AcDbLine
 10
1547.5673469365
 20
1178.887755102
 30
0.0
 11
1547.5673469365
 21
1178.937755102
 31
0.0
  0
LWPOLYLINE
  5
48B
330
1F
100
AcDbEntity
  8
0
  6
Continuous
 62
     7
370
    25
100
AcDbPolyline
 90
        3
 70
   128
 43
0.0
 10
1541.2229372157
 20
1178.937755102
 10
1541.2771662925
 20
1178.9261845412
 10
1541.6673469365
 20
1178.887755102
  0
LWPOLYLINE
  5
48C
330
1F
100
AcDbEntity
  8
0
  6
Continuous
 62
     7
370
    25
100
AcDbPolyline
 90
        3
 70
   128
 43
0.0
 10
1568.9673469365
 20
1178.887755102
 10
1569.3575275806
 20
1178.9261845412
 10
1569.4117566574
 20
1178.937755102
  0
LINE
  5
48D
330
1F
100
AcDbEntity
  8
0
  6
Continuous
 62
     7
370
    25
100
AcDbLine
 10
1563.0673469365
 20
1178.887755102
 30
0.0
 11
1568.9673469365
 21
1178.887755102
 31
0.0
  0
LINE
  5
48E
330
1F
100
AcDbEntity
  8
0
  6
Continuous
 62
     7
370
    25
100
AcDbLine
 10
1563.0673469365
 20
1178.937755102
 30
0.0
 11
1563.0673469365
 21
1178.887755102
 31
0.0
  0
LINE
  5
48F
330
1F
100
AcDbEntity
  8
0
  6
Continuous
 62
     7
370
    25
100
AcDbLine
 10
1542.6673469365
 20
1184.987755102
 30
0.0
 11
1542.6673469365
 21
1185.987755102
 31
0.0
  0
LINE
  5
490
330
1F
100
AcDbEntity
  8
0
  6
Continuous
 62
     7
370
    25
100
AcDbLine
 10
1550.5903559857
 20
1197.387755102
 30
0.0
 11
1550.6673469365
 21
1197.387755102
 31
0.0
  0
LINE
  5
491
330
1F
100
AcDbEntity
  8
0
  6
Continuous
 62
     7
370
    25
100
AcDbLine
 10
1541.6673469365
 20
1178.887755102
 30
0.0
 11
1547.5673469365
 21
1178.887755102
 31
0.0
  0
LINE
  5
492
330
1F
100
AcDbEntity
  8
0
  6
Continuous
 62
     7
370
    25
100
AcDbLine
 10
1542.8976402352
 20
1184.987755102
 30
0.0
 11
1542.884898529
 21
1185.7177269608
 31
0.0
  0
LINE
  5
493
330
1F
100
AcDbEntity
  8
0
  6
Continuous
 62
     7
370
    25
100
AcDbLine
 10
1534.6673469365
 20
1211.437755102
 30
0.0
 11
1534.6673469365
 21
1210.637755102
 31
0.0
  0
LINE
  5
494
330
1F
100
AcDbEntity
  8
0
  6
Continuous
 62
     7
370
    25
100
AcDbLine
 10
1580.8673469365
 20
1211.437755102
 30
0.0
 11
1534.6673469365
 21
1211.437755102
 31
0.0
  0
LINE
  5
495
330
1F
100
AcDbEntity
  8
0
  6
Continuous
 62
     7
370
    25
100
AcDbLine
 10
1580.8673469365
 20
1211.437755102
 30
0.0
 11
1580.8673469365
 21
1210.637755102
 31
0.0
  0
LINE
  5
496
330
1F
100
AcDbEntity
  8
0
  6
Continuous
 62
     7
370
    25
100
AcDbLine
 10
1580.8673469365
 20
1210.637755102
 30
0.0
 11
1534.6673469365
 21
1210.637755102
 31
0.0
  0
LINE
  5
497
330
1F
100
AcDbEntity
  8
0
  6
Continuous
 62
     7
370
    25
100
AcDbLine
 10
1580.8673469365
 20
1210.537755102
 30
0.0
 11
1534.6673469365
 21
1210.537755102
 31
0.0
  0
LINE
  5
498
330
1F
100
AcDbEntity
  8
0
  6
Continuous
 62
     7
370
    25
100
AcDbLine
 10
1580.8673469365
 20
1210.537755102
 30
0.0
 11
1580.8673469365
 21
1178.937755102
 31
0.0
  0
LINE
  5
499
330
1F
100
AcDbEntity
  8
0
  6
Continuous
 62
     7
370
    25
100
AcDbLine
 10
1580.8673469365
 20
1178.937755102
 30
0.0
 11
1534.6673469365
 21
1178.937755102
 31
0.0
  0
LINE
  5
49A
330
1F
100
AcDbEntity
  8
0
  6
Continuous
 62
     7
370
    25
100
AcDbLine
 10
1534.6673469365
 20
1184.987755102
 30
0.0
 11
1534.6673469365
 21
1178.937755102
 31
0.0
  0
LINE
  5
49B
330
1F
100
AcDbEntity
  8
0
  6
Continuous
 62
     7
370
    25
100
AcDbLine
 10
1534.6673469365
 20
1184.987755102
 30
0.0
 11
1540.3673469365
 21
1184.987755102
 31
0.0
  0
LINE
  5
49C
330
1F
100
AcDbEntity
  8
0
  6
Continuous
 62
     7
370
    25
100
AcDbLine
 10
1540.3673469365
 20
1184.987755102
 30
0.0
 11
1540.1910199558
 21
1185.987755102
 31
0.0
  0
LINE
  5
49D
330
1F
100
AcDbEntity
  8
0
  6
Continuous
 62
     7
370
    25
100
AcDbLine
 10
1540.1910199558
 20
1185.987755102
 30
0.0
 11
1534.6673469365
 21
1185.987755102
 31
0.0
  0
LINE
  5
49E
330
1F
100
AcDbEntity
  8
0
  6
Continuous
 62
     7
370
    25
100
AcDbLine
 10
1534.6673469365
 20
1203.487755102
 30
0.0
 11
1534.6673469365
 21
1185.987755102
 31
0.0
  0
LINE
  5
49F
330
1F
100
AcDbEntity
  8
0
  6
Continuous
 62
     7
370
    25
100
AcDbLine
 10
1534.6673469365
 20
1203.487755102
 30
0.0
 11
1540.1910199558
 21
1203.487755102
 31
0.0
  0
LINE
  5
4A0
330
1F
100
AcDbEntity
  8
0
  6
Continuous
 62
     7
370
    25
100
AcDbLine
 10
1540.1910199558
 20
1203.487755102
 30
0.0
 11
1540.3673469365
 21
1204.487755102
 31
0.0
  0
LINE
  5
4A1
330
1F
100
AcDbEntity
  8
0
  6
Continuous
 62
     7
370
    25
100
AcDbLine
 10
1540.3673469365
 20
1204.487755102
 30
0.0
 11
1534.6673469365
 21
1204.487755102
 31
0.0
  0
LINE
  5
4A2
330
1F
100
AcDbEntity
  8
0
  6
Continuous
 62
     7
370
    25
100
AcDbLine
 10
1534.6673469365
 20
1210.537755102
 30
0.0
 11
1534.6673469365
 21
1204.487755102
 31
0.0
  0
LINE
  5
4A3
330
1F
100
AcDbEntity
  8
0
  6
Continuous
 62
     7
370
    25
100
AcDbLine
 10
1540.9673469365
 20
1204.487755102
 30
0.0
 11
1541.1436739172
 21
1203.487755102
 31
0.0
  0
LINE
  5
4A4
330
1F
100
AcDbEntity
  8
0
  6
Continuous
 62
     7
370
    25
100
AcDbLine
 10
1541.1436739172
 20
1203.487755102
 30
0.0
 11
1542.6673469365
 21
1203.487755102
 31
0.0
  0
LINE
  5
4A5
330
1F
100
AcDbEntity
  8
0
  6
Continuous
 62
     7
370
    25
100
AcDbLine
 10
1549.6673469365
 20
1196.487755102
 30
0.0
 11
1549.6673469365
 21
1192.987755102
 31
0.0
  0
LINE
  5
4A6
330
1F
100
AcDbEntity
  8
0
  6
Continuous
 62
     7
370
    25
100
AcDbLine
 10
1542.6673469365
 20
1185.987755102
 30
0.0
 11
1541.1436739172
 21
1185.987755102
 31
0.0
  0
LINE
  5
4A7
330
1F
100
AcDbEntity
  8
0
  6
Continuous
 62
     7
370
    25
100
AcDbLine
 10
1541.1436739172
 20
1185.987755102
 30
0.0
 11
1540.9673469365
 21
1184.987755102
 31
0.0
  0
LINE
  5
4A8
330
1F
100
AcDbEntity
  8
0
  6
Continuous
 62
     7
370
    25
100
AcDbLine
 10
1540.9673469365
 20
1184.987755102
 30
0.0
 11
1543.6673469365
 21
1184.987755102
 31
0.0
  0
LINE
  5
4A9
330
1F
100
AcDbEntity
  8
0
  6
Continuous
 62
     7
370
    25
100
AcDbLine
 10
1550.6673469365
 20
1191.987755102
 30
0.0
 11
1550.6673469365
 21
1197.487755102
 31
0.0
  0
LINE
  5
4AA
330
1F
100
AcDbEntity
  8
0
  6
Continuous
 62
     7
370
    25
100
AcDbLine
 10
1543.6673469365
 20
1204.487755102
 30
0.0
 11
1540.9673469365
 21
1204.487755102
 31
0.0
  0
SPLINE
  5
4AB
330
1F
100
AcDbEntity
  8
0
  6
Continuous
 62
     7
370
    25
100
AcDbSpline
210
0.0
220
0.0
230
1.0
 70
     8
 71
     3
 72
    10
 73
     6
 74
     0
 42
0.00000001
 43
0.00000001
 40
0.0
 40
0.0
 40
0.0
 40
0.0
 40
0.0771276747866174
 40
0.5385638373933727
 40
1.0
 40
1.0
 40
1.0
 40
1.0
 10
1581.610686634909
 20
1210.290635490567
 30
0.0
 10
1581.599024905863
 20
1210.309034831906
 30
0.0
 10
1581.517593881744
 20
1210.437512967727
 30
0.0
 10
1581.253430269159
 20
1210.588103211613
 30
0.0
 10
1580.996041380744
 20
1210.621204471898
 30
0.0
 10
1580.867346936536
 20
1210.637755102041
 30
0.0
  0
SPLINE
  5
4AC
330
1F
100
AcDbEntity
  8
0
  6
Continuous
 62
     7
370
    25
100
AcDbSpline
210
0.0
220
0.0
230
1.0
 70
     8
 71
     3
 72
    11
 73
     7
 74
     0
 42
0.00000001
 43
0.00000001
 40
0.0
 40
0.0
 40
0.0
 40
0.0
 40
0.2499999999999759
 40
0.4999999999999967
 40
0.7500000000000174
 40
1.0
 40
1.0
 40
1.0
 40
1.0
 10
1582.667346936536
 20
1209.637755102041
 30
0.0
 10
1582.640290105519
 20
1209.873621780892
 30
0.0
 10
1582.586176443484
 20
1210.345355138594
 30
0.0
 10
1582.169927859864
 20
1210.940336025369
 30
0.0
 10
1581.57494697309
 20
1211.356584608989
 30
0.0
 10
1581.103213615387
 20
1211.410698271023
 30
0.0
 10
1580.867346936536
 20
1211.43775510204
 30
0.0
  0
LINE
  5
4AD
330
1F
100
AcDbEntity
  8
0
  6
Continuous
 62
     7
370
    25
100
AcDbLine
 10
1582.6673469365
 20
1209.637755102
 30
0.0
 11
1582.6673469365
 21
1179.837755102
 31
0.0
  0
SPLINE
  5
4AE
330
1F
100
AcDbEntity
  8
0
  6
Continuous
 62
     7
370
    25
100
AcDbSpline
210
0.0
220
0.0
230
1.0
 70
     8
 71
     3
 72
    12
 73
     8
 74
     0
 42
0.00000001
 43
0.00000001
 40
0.0
 40
0.0
 40
0.0
 40
0.0
 40
0.225334301687443
 40
0.450715694699535
 40
0.676097280297002
 40
0.9014786520556319
 40
1.0
 40
1.0
 40
1.0
 40
1.0
 10
1580.867346936536
 20
1210.537755102041
 30
0.0
 10
1581.079743723873
 20
1210.470131271331
 30
0.0
 10
1581.504581686135
 20
1210.334869477593
 30
0.0
 10
1582.063436802932
 20
1210.131937591147
 30
0.0
 10
1582.4712565952
 20
1209.929118863745
 30
0.0
 10
1582.648772525122
 20
1209.76396345126
 30
0.0
 10
1582.663014853707
 20
1209.667190490881
 30
0.0
 10
1582.667346936536
 20
1209.637755102041
 30
0.0
  0
SPLINE
  5
4AF
330
1F
100
AcDbEntity
  8
0
  6
Continuous
 62
     7
370
    25
100
AcDbSpline
210
0.0
220
0.0
230
1.0
 70
     8
 71
     3
 72
    12
 73
     8
 74
     0
 42
0.00000001
 43
0.00000001
 40
0.0
 40
0.0
 40
0.0
 40
0.0
 40
0.2253337478803797
 40
0.4507151390691128
 40
0.6760967232121969
 40
0.901478093511571
 40
1.0
 40
1.0
 40
1.0
 40
1.0
 10
1582.667346936536
 20
1179.837755102041
 30
0.0
 10
1582.645408808303
 20
1179.770131439108
 30
0.0
 10
1582.601527913361
 20
1179.634869815273
 30
0.0
 10
1582.260528048678
 20
1179.431938093215
 30
0.0
 10
1581.763035593383
 20
1179.229119365894
 30
0.0
 10
1581.263790674287
 20
1179.063963786547
 30
0.0
 10
1580.959809210105
 20
1178.967190658218
 30
0.0
 10
1580.867346936536
 20
1178.937755102041
 30
0.0
  0
LINE
  5
4B0
330
1F
100
AcDbEntity
  8
0
  6
Continuous
 62
     7
370
    25
100
AcDbLine
 10
1580.8673469365
 20
1178.037755102
 30
0.0
 11
1580.8673469365
 21
1178.837755102
 31
0.0
  0
LINE
  5
4B1
330
1F
100
AcDbEntity
  8
0
  6
Continuous
 62
     7
370
    25
100
AcDbLine
 10
1534.6673469365
 20
1178.037755102
 30
0.0
 11
1534.6673469365
 21
1178.837755102
 31
0.0
  0
LINE
  5
4B2
330
1F
100
AcDbEntity
  8
0
  6
Continuous
 62
     7
370
    25
100
AcDbLine
 10
1580.8673469365
 20
1178.037755102
 30
0.0
 11
1534.6673469365
 21
1178.037755102
 31
0.0
  0
LINE
  5
4B3
330
1F
100
AcDbEntity
  8
0
  6
Continuous
 62
     7
370
    25
100
AcDbLine
 10
1580.8673469365
 20
1178.837755102
 30
0.0
 11
1534.6673469365
 21
1178.837755102
 31
0.0
  0
SPLINE
  5
4B4
330
1F
100
AcDbEntity
  8
0
  6
Continuous
 62
     7
370
    25
100
AcDbSpline
210
0.0
220
0.0
230
1.0
 70
     8
 71
     3
 72
    11
 73
     7
 74
     0
 42
0.00000001
 43
0.00000001
 40
0.0
 40
0.0
 40
0.0
 40
0.0
 40
0.2500000000000015
 40
0.5000000000000036
 40
0.7500000000000007
 40
1.0
 40
1.0
 40
1.0
 40
1.0
 10
1580.867346936536
 20
1178.037755102041
 30
0.0
 10
1581.103213615387
 20
1178.064811933058
 30
0.0
 10
1581.574946973089
 20
1178.118925595092
 30
0.0
 10
1582.169927859864
 20
1178.535174178712
 30
0.0
 10
1582.586176443484
 20
1179.130155065487
 30
0.0
 10
1582.640290105519
 20
1179.601888423189
 30
0.0
 10
1582.667346936536
 20
1179.837755102041
 30
0.0
  0
SPLINE
  5
4B5
330
1F
100
AcDbEntity
  8
0
  6
Continuous
 62
     7
370
    25
100
AcDbSpline
210
0.0
220
0.0
230
1.0
 70
     8
 71
     3
 72
    10
 73
     6
 74
     0
 42
0.00000001
 43
0.00000001
 40
0.0
 40
0.0
 40
0.0
 40
0.0
 40
0.4621036406115822
 40
0.9242072812231553
 40
1.0
 40
1.0
 40
1.0
 40
1.0
 10
1580.867346936536
 20
1178.837755102041
 30
0.0
 10
1580.996030168163
 20
1178.854314463635
 30
0.0
 10
1581.253396631417
 20
1178.887433186824
 30
0.0
 10
1581.517299998275
 20
1179.03771143807
 30
0.0
 10
1581.598558304288
 20
1179.165809421811
 30
0.0
 10
1581.610008071196
 20
1179.18385917115
 30
0.0
  0
LINE
  5
4B6
330
1F
100
AcDbEntity
  8
0
  6
Continuous
 62
     7
370
    25
100
AcDbLine
 10
1545.4068479142
 20
1177.6488405231
 30
0.0
 11
1545.4552319672
 21
1177.5647809271
 31
0.0
  0
SPLINE
  5
4B7
330
1F
100
AcDbEntity
  8
0
  6
Continuous
 62
     7
370
    25
100
AcDbSpline
210
0.0
220
0.0
230
1.0
 70
     8
 71
     3
 72
    12
 73
     8
 74
     0
 42
0.00000001
 43
0.00000001
 40
0.0
 40
0.0
 40
0.0
 40
0.0
 40
0.1591001189661675
 40
0.3202041399014424
 40
0.6168538849304989
 40
0.9140545764657849
 40
0.9999999999999999
 40
0.9999999999999999
 40
0.9999999999999999
 40
0.9999999999999999
 10
1545.455231967209
 20
1177.564780927142
 30
0.0
 10
1545.393319744949
 20
1177.559001586686
 30
0.0
 10
1545.268715501991
 20
1177.547370113675
 30
0.0
 10
1545.042543892273
 20
1177.65112691068
 30
0.0
 10
1544.823539107082
 20
1177.840386736331
 30
0.0
 10
1544.60646366648
 20
1178.022821819231
 30
0.0
 10
1544.457423693338
 20
1178.035019074613
 30
0.0
 10
1544.4239917907
 20
1178.03775510204
 30
0.0
  0
LINE
  5
4B8
330
1F
100
AcDbEntity
  8
0
  6
Continuous
 62
     7
370
    25
100
AcDbLine
 10
1544.8693576379
 20
1177.8013893411
 30
0.0
 11
1545.319041995
 21
1177.8013893411
 31
0.0
  0
LINE
  5
4B9
330
1F
100
AcDbEntity
  8
0
  6
Continuous
 62
     7
370
    25
100
AcDbLine
 10
1545.319041995
 20
1177.8013893411
 30
0.0
 11
1545.3850146595
 21
1177.6867723302
 31
0.0
  0
LINE
  5
4BA
330
1F
100
AcDbEntity
  8
0
  6
Continuous
 62
     7
370
    25
100
AcDbLine
 10
1545.4068256887
 20
1177.6488384219
 30
0.0
 11
1545.3850146595
 21
1177.6867723302
 31
0.0
  0
LINE
  5
4BB
330
1F
100
AcDbEntity
  8
0
  6
Continuous
 62
     7
370
    25
100
AcDbLine
 10
1543.3397088806
 20
1177.6488384768
 30
0.0
 11
1543.2027159203
 21
1177.7328982484
 31
0.0
  0
SPLINE
  5
4BC
330
1F
100
AcDbEntity
  8
0
  6
Continuous
 62
     7
370
    25
100
AcDbSpline
210
0.0
220
0.0
230
1.0
 70
     8
 71
     3
 72
    13
 73
     9
 74
     0
 42
0.00000001
 43
0.00000001
 40
0.0
 40
0.0
 40
0.0
 40
0.0
 40
0.1421166978323456
 40
0.2860202338336956
 40
0.5510761480916263
 40
0.8166554578072645
 40
0.9604895185157158
 40
1.0
 40
1.0
 40
1.0
 40
1.0
 10
1543.202715920274
 20
1177.73289824845
 30
0.0
 10
1543.255772030339
 20
1177.738624808219
 30
0.0
 10
1543.362551326781
 20
1177.750149927991
 30
0.0
 10
1543.563546858722
 20
1177.646670866498
 30
0.0
 10
1543.763838654688
 20
1177.453121126511
 30
0.0
 10
1543.993286450305
 20
1177.263538496954
 30
0.0
 10
1544.189861434715
 20
1177.247917641831
 30
0.0
 10
1544.267944132607
 20
1177.257398218421
 30
0.0
 10
1544.28477084014
 20
1177.259441268852
 30
0.0
  0
LINE
  5
4BD
330
1F
100
AcDbEntity
  8
0
  6
Continuous
 62
     7
370
    25
100
AcDbLine
 10
1544.2847708401
 20
1177.2594412689
 30
0.0
 11
1544.4195979168
 21
1177.4962893411
 31
0.0
  0
SPLINE
  5
4BE
330
1F
100
AcDbEntity
  8
0
  6
Continuous
 62
     7
370
    25
100
AcDbSpline
210
0.0
220
0.0
230
1.0
 70
     8
 71
     3
 72
    10
 73
     6
 74
     0
 42
0.00000001
 43
0.00000001
 40
0.0
 40
0.0
 40
0.0
 40
0.0
 40
0.322302354335107
 40
0.6611511742599959
 40
1.0
 40
1.0
 40
1.0
 40
1.0
 10
1543.588319569096
 20
1177.496289341106
 30
0.0
 10
1543.561619011386
 20
1177.512679037445
 30
0.0
 10
1543.506847133842
 20
1177.546299849812
 30
0.0
 10
1543.423983774931
 20
1177.597150722957
 30
0.0
 10
1543.367813221426
 20
1177.631610623129
 30
0.0
 10
1543.339727944433
 20
1177.648840573363
 30
0.0
  0
SPLINE
  5
4BF
330
1F
100
AcDbEntity
  8
0
  6
Continuous
 62
     7
370
    25
100
AcDbSpline
210
0.0
220
0.0
230
1.0
 70
     8
 71
     3
 72
    13
 73
     9
 74
     0
 42
0.00000001
 43
0.00000001
 40
0.0
 40
0.0
 40
0.0
 40
0.0
 40
0.1421166978324387
 40
0.2860202338338307
 40
0.5510761480913209
 40
0.8166554578064104
 40
0.9604895185146743
 40
1.0
 40
1.0
 40
1.0
 40
1.0
 10
1544.284597641028
 20
1177.73289824845
 30
0.0
 10
1544.346620494815
 20
1177.738624808219
 30
0.0
 10
1544.471446017881
 20
1177.750149927991
 30
0.0
 10
1544.698027558735
 20
1177.646670866498
 30
0.0
 10
1544.916940273784
 20
1177.453121126511
 30
0.0
 10
1545.159669137301
 20
1177.263538496955
 30
0.0
 10
1545.360303702208
 20
1177.24791764183
 30
0.0
 10
1545.438516132995
 20
1177.257398218421
 30
0.0
 10
1545.455370797778
 20
1177.259441268852
 30
0.0
  0
LINE
  5
4C0
330
1F
100
AcDbEntity
  8
0
  6
Continuous
 62
     7
370
    25
100
AcDbLine
 10
1544.2847354979
 20
1178.037755102
 30
0.0
 11
1544.284597641
 21
1177.7328982484
 31
0.0
  0
LINE
  5
4C1
330
1F
100
AcDbEntity
  8
0
  6
Continuous
 62
     7
370
    25
100
AcDbLine
 10
1545.4553707978
 20
1177.2594412689
 30
0.0
 11
1545.4552319672
 21
1177.5647809271
 31
0.0
  0
LINE
  5
4C2
330
1F
100
AcDbEntity
  8
0
  6
Continuous
 62
     7
370
    25
100
AcDbLine
 10
1546.536331809
 20
1177.5647809271
 30
0.0
 11
1546.3989806237
 21
1177.6488404706
 31
0.0
  0
SPLINE
  5
4C3
330
1F
100
AcDbEntity
  8
0
  6
Continuous
 62
     7
370
    25
100
AcDbSpline
210
0.0
220
0.0
230
1.0
 70
     8
 71
     3
 72
    12
 73
     8
 74
     0
 42
0.00000001
 43
0.00000001
 40
0.0
 40
0.0
 40
0.0
 40
0.0
 40
0.1591001189662001
 40
0.3202041399012905
 40
0.616853884930442
 40
0.9140545764659052
 40
1.0
 40
1.0
 40
1.0
 40
1.0
 10
1546.536331808972
 20
1177.564780927142
 30
0.0
 10
1546.483411432396
 20
1177.559001586686
 30
0.0
 10
1546.376904135137
 20
1177.547370113675
 30
0.0
 10
1546.176481348297
 20
1177.65112691068
 30
0.0
 10
1545.975971601336
 20
1177.840386736332
 30
0.0
 10
1545.771853158839
 20
1178.022821819231
 30
0.0
 10
1545.625658226493
 20
1178.035019074613
 30
0.0
 10
1545.592864509201
 20
1178.037755102041
 30
0.0
  0
LINE
  5
4C4
330
1F
100
AcDbEntity
  8
0
  6
Continuous
 62
     7
370
    25
100
AcDbLine
 10
1545.319041995
 20
1177.8013893411
 30
0.0
 11
1545.4553354685
 21
1178.037755102
 31
0.0
  0
LINE
  5
4C5
330
1F
100
AcDbEntity
  8
0
  6
Continuous
 62
     7
370
    25
100
AcDbLine
 10
1546.1497195961
 20
1177.8013893411
 30
0.0
 11
1546.3370009166
 21
1177.6867723302
 31
0.0
  0
LINE
  5
4C6
330
1F
100
AcDbEntity
  8
0
  6
Continuous
 62
     7
370
    25
100
AcDbLine
 10
1546.3989614908
 20
1177.6488384219
 30
0.0
 11
1546.3370009166
 21
1177.6867723302
 31
0.0
  0
SPLINE
  5
4C7
330
1F
100
AcDbEntity
  8
0
  6
Continuous
 62
     7
370
    25
100
AcDbSpline
210
0.0
220
0.0
230
1.0
 70
     8
 71
     3
 72
    13
 73
     9
 74
     0
 42
0.00000001
 43
0.00000001
 40
0.0
 40
0.0
 40
0.0
 40
0.0
 40
0.1421166978323347
 40
0.2860202338336913
 40
0.5510761480911862
 40
0.8166554578063973
 40
0.9604895185145715
 40
1.0
 40
1.0
 40
1.0
 40
1.0
 10
1545.45519766041
 20
1177.73289824845
 30
0.0
 10
1545.516744840669
 20
1177.738624808219
 30
0.0
 10
1545.640613036017
 20
1177.750149927991
 30
0.0
 10
1545.858285600157
 20
1177.646670866498
 30
0.0
 10
1546.062491757871
 20
1177.453121126511
 30
0.0
 10
1546.281548420161
 20
1177.263538496955
 30
0.0
 10
1546.455697771814
 20
1177.24791764183
 30
0.0
 10
1546.522132801905
 20
1177.257398218421
 30
0.0
 10
1546.536449454013
 20
1177.259441268852
 30
0.0
  0
LINE
  5
4C8
330
1F
100
AcDbEntity
  8
0
  6
Continuous
 62
     7
370
    25
100
AcDbLine
 10
1545.4553354685
 20
1178.037755102
 30
0.0
 11
1545.4551976604
 21
1177.7328982484
 31
0.0
  0
LINE
  5
4C9
330
1F
100
AcDbEntity
  8
0
  6
Continuous
 62
     7
370
    25
100
AcDbLine
 10
1546.536449454
 20
1177.2594412689
 30
0.0
 11
1546.536331809
 21
1177.5647809271
 31
0.0
  0
LINE
  5
4CA
330
1F
100
AcDbEntity
  8
0
  6
Continuous
 62
     7
370
    25
100
AcDbLine
 10
1545.4068257953
 20
1177.6488384768
 30
0.0
 11
1545.4551976604
 21
1177.7328982484
 31
0.0
  0
LINE
  5
4CB
330
1F
100
AcDbEntity
  8
0
  6
Continuous
 62
     7
370
    25
100
AcDbLine
 10
1545.319041995
 20
1177.4962893411
 30
0.0
 11
1545.7513681118
 21
1177.4962893411
 31
0.0
  0
LINE
  5
4CC
330
1F
100
AcDbEntity
  8
0
  6
Continuous
 62
     7
370
    25
100
AcDbLine
 10
1544.2846319597
 20
1177.5647809271
 30
0.0
 11
1544.3325811283
 21
1177.6488404706
 31
0.0
  0
SPLINE
  5
4CD
330
1F
100
AcDbEntity
  8
0
  6
Continuous
 62
     7
370
    25
100
AcDbSpline
210
0.0
220
0.0
230
1.0
 70
     8
 71
     3
 72
    12
 73
     8
 74
     0
 42
0.00000001
 43
0.00000001
 40
0.0
 40
0.0
 40
0.0
 40
0.0
 40
0.1591001189662758
 40
0.320204139901327
 40
0.6168538849306435
 40
0.9140545764661384
 40
1.0
 40
1.0
 40
1.0
 40
1.0
 10
1544.284631959739
 20
1177.564780927142
 30
0.0
 10
1544.223153466398
 20
1177.559001586686
 30
0.0
 10
1544.099422144192
 20
1177.547370113675
 30
0.0
 10
1543.881934288925
 20
1177.651126910681
 30
0.0
 10
1543.677775958763
 20
1177.840386736332
 30
0.0
 10
1543.480791288094
 20
1178.022821819231
 30
0.0
 10
1543.351596259016
 20
1178.035019074613
 30
0.0
 10
1543.322615875147
 20
1178.03775510204
 30
0.0
  0
LINE
  5
4CE
330
1F
100
AcDbEntity
  8
0
  6
Continuous
 62
     7
370
    25
100
AcDbLine
 10
1543.9870430701
 20
1177.8013893411
 30
0.0
 11
1544.4195979168
 21
1177.8013893411
 31
0.0
  0
LINE
  5
4CF
330
1F
100
AcDbEntity
  8
0
  6
Continuous
 62
     7
370
    25
100
AcDbLine
 10
1544.332559138
 20
1177.6488384219
 30
0.0
 11
1544.3325841031
 21
1177.6488821462
 31
0.0
  0
LINE
  5
4D0
330
1F
100
AcDbEntity
  8
0
  6
Continuous
 62
     7
370
    25
100
AcDbLine
 10
1544.284597641
 20
1177.7328982484
 30
0.0
 11
1544.3325590019
 21
1177.6488385299
 31
0.0
  0
LINE
  5
4D1
330
1F
100
AcDbEntity
  8
0
  6
Continuous
 62
     7
370
    25
100
AcDbLine
 10
1544.4195979168
 20
1177.4962893411
 30
0.0
 11
1544.869359821
 21
1177.4962893411
 31
0.0
  0
SPLINE
  5
4D2
330
1F
100
AcDbEntity
  8
0
  6
Continuous
 62
     7
370
    25
100
AcDbSpline
210
0.0
220
0.0
230
1.0
 70
     8
 71
     3
 72
    10
 73
     6
 74
     0
 42
0.00000001
 43
0.00000001
 40
0.0
 40
0.0
 40
0.0
 40
0.0
 40
0.3223023543379612
 40
0.6611511742649953
 40
1.0
 40
1.0
 40
1.0
 40
1.0
 10
1544.332581262968
 20
1177.648840573363
 30
0.0
 10
1544.341937603688
 20
1177.63245199577
 30
0.0
 10
1544.361130624065
 20
1177.598833478329
 30
0.0
 10
1544.390136698315
 20
1177.547982685037
 30
0.0
 10
1544.409777510594
 20
1177.513520455848
 30
0.0
 10
1544.419597916817
 20
1177.496289341106
 30
0.0
  0
LINE
  5
4D3
330
1F
100
AcDbEntity
  8
0
  6
Continuous
 62
     7
370
    25
100
AcDbLine
 10
1543.2028328385
 20
1178.037755102
 30
0.0
 11
1543.2027159203
 21
1177.7328982484
 31
0.0
  0
LINE
  5
4D4
330
1F
100
AcDbEntity
  8
0
  6
Continuous
 62
     7
370
    25
100
AcDbLine
 10
1544.2847708401
 20
1177.2594412689
 30
0.0
 11
1544.2846319597
 21
1177.5647809271
 31
0.0
  0
SPLINE
  5
4D5
330
1F
100
AcDbEntity
  8
0
  6
Continuous
 62
     7
370
    25
100
AcDbSpline
210
0.0
220
0.0
230
1.0
 70
     8
 71
     3
 72
    13
 73
     9
 74
     0
 42
0.00000001
 43
0.00000001
 40
0.0
 40
0.0
 40
0.0
 40
0.0
 40
0.1421166978324171
 40
0.2860202338335907
 40
0.5510761480910046
 40
0.8166554578058267
 40
0.9604895185139829
 40
1.0
 40
1.0
 40
1.0
 40
1.0
 10
1542.374259182849
 20
1177.73289824845
 30
0.0
 10
1542.41027123739
 20
1177.738624808219
 30
0.0
 10
1542.482748127282
 20
1177.750149927991
 30
0.0
 10
1542.6275579026
 20
1177.646670866498
 30
0.0
 10
1542.778736169197
 20
1177.453121126512
 30
0.0
 10
1542.95997154998
 20
1177.263538496955
 30
0.0
 10
1543.122560194473
 20
1177.24791764183
 30
0.0
 10
1543.188625776539
 20
1177.257398218421
 30
0.0
 10
1543.202862813136
 20
1177.259441268852
 30
0.0
  0
LINE
  5
4D6
330
1F
100
AcDbEntity
  8
0
  6
Continuous
 62
     7
370
    25
100
AcDbLine
 10
1542.3743373627
 20
1178.037755102
 30
0.0
 11
1542.3742591828
 21
1177.7328982484
 31
0.0
  0
SPLINE
  5
4D7
330
1F
100
AcDbEntity
  8
0
  6
Continuous
 62
     7
370
    25
100
AcDbSpline
210
0.0
220
0.0
230
1.0
 70
     8
 71
     3
 72
    13
 73
     9
 74
     0
 42
0.00000001
 43
0.00000001
 40
0.0
 40
0.0
 40
0.0
 40
0.0
 40
0.1419103113865619
 40
0.2856080152291773
 40
0.5502065457856027
 40
0.8152964964034972
 40
0.9369116823970992
 40
1.0
 40
1.0
 40
1.0
 40
1.0
 10
1543.202745026185
 20
1177.564780927142
 30
0.0
 10
1543.151057416306
 20
1177.559032991811
 30
0.0
 10
1543.047031179417
 20
1177.547464724605
 30
0.0
 10
1542.871384290867
 20
1177.650608109964
 30
0.0
 10
1542.712821857667
 20
1177.844230290837
 30
0.0
 10
1542.556143770631
 20
1178.025487172813
 30
0.0
 10
1542.435035913553
 20
1178.050594908074
 30
0.0
 10
1542.389791341111
 20
1178.041024143598
 30
0.0
 10
1542.374337362705
 20
1178.037755102041
 30
0.0
  0
LINE
  5
4D8
330
1F
100
AcDbEntity
  8
0
  6
Continuous
 62
     7
370
    25
100
AcDbLine
 10
1543.2028628131
 20
1177.2594412689
 30
0.0
 11
1543.2027450262
 21
1177.5647809271
 31
0.0
  0
LINE
  5
4D9
330
1F
100
AcDbEntity
  8
0
  6
Continuous
 62
     7
370
    25
100
AcDbLine
 10
1542.3742591828
 20
1177.7328982484
 30
0.0
 11
1542.5794276466
 21
1177.6488385299
 31
0.0
  0
LINE
  5
4DA
330
1F
100
AcDbEntity
  8
0
  6
Continuous
 62
     7
370
    25
100
AcDbLine
 10
1543.2028628131
 20
1177.2594412689
 30
0.0
 11
1543.5883195691
 21
1177.4962893411
 31
0.0
  0
LINE
  5
4DB
330
1F
100
AcDbEntity
  8
0
  6
Continuous
 62
     7
370
    25
100
AcDbLine
 10
1542.6246815815
 20
1177.6303063167
 30
0.0
 11
1542.5794407706
 21
1177.6488405734
 31
0.0
  0
LINE
  5
4DC
330
1F
100
AcDbEntity
  8
0
  6
Continuous
 62
     7
370
    25
100
AcDbLine
 10
1543.3397276454
 20
1177.6488405231
 30
0.0
 11
1543.2027450262
 21
1177.5647809271
 31
0.0
  0
SPLINE
  5
4DD
330
1F
100
AcDbEntity
  8
0
  6
Continuous
 62
     7
370
    25
100
AcDbSpline
210
0.0
220
0.0
230
1.0
 70
     8
 71
     3
 72
    13
 73
     9
 74
     0
 42
0.00000001
 43
0.00000001
 40
0.0
 40
0.0
 40
0.0
 40
0.0
 40
0.1421166978324312
 40
0.2860202338337854
 40
0.5510761480916325
 40
0.8166554578070591
 40
0.9604895185156032
 40
1.0
 40
1.0
 40
1.0
 40
1.0
 10
1546.536302736985
 20
1177.73289824845
 30
0.0
 10
1546.588004243447
 20
1177.738624808219
 30
0.0
 10
1546.692057301204
 20
1177.750149927991
 30
0.0
 10
1546.867682213946
 20
1177.646670866498
 30
0.0
 10
1547.026093277947
 20
1177.453121126511
 30
0.0
 10
1547.18812834793
 20
1177.263538496954
 30
0.0
 10
1547.309279826208
 20
1177.247917641831
 30
0.0
 10
1547.353823324507
 20
1177.257398218421
 30
0.0
 10
1547.363422383436
 20
1177.259441268852
 30
0.0
  0
LINE
  5
4DE
330
1F
100
AcDbEntity
  8
0
  6
Continuous
 62
     7
370
    25
100
AcDbLine
 10
1546.5364195162
 20
1178.037755102
 30
0.0
 11
1546.536302737
 21
1177.7328982484
 31
0.0
  0
SPLINE
  5
4DF
330
1F
100
AcDbEntity
  8
0
  6
Continuous
 62
     7
370
    25
100
AcDbSpline
210
0.0
220
0.0
230
1.0
 70
     8
 71
     3
 72
    12
 73
     8
 74
     0
 42
0.00000001
 43
0.00000001
 40
0.0
 40
0.0
 40
0.0
 40
0.0
 40
0.1591001189663105
 40
0.3202041399016023
 40
0.6168538849310626
 40
0.9140545764666417
 40
1.0
 40
1.0
 40
1.0
 40
1.0
 10
1547.363343834314
 20
1177.564780927142
 30
0.0
 10
1547.327471951032
 20
1177.559001586686
 30
0.0
 10
1547.255276369988
 20
1177.547370113675
 30
0.0
 10
1547.111114958485
 20
1177.65112691068
 30
0.0
 10
1546.959626041106
 20
1177.840386736331
 30
0.0
 10
1546.799539779245
 20
1178.022821819231
 30
0.0
 10
1546.678446740885
 20
1178.035019074613
 30
0.0
 10
1546.651283755121
 20
1178.03775510204
 30
0.0
  0
LINE
  5
4E0
330
1F
100
AcDbEntity
  8
0
  6
Continuous
 62
     7
370
    25
100
AcDbLine
 10
1547.3634223834
 20
1177.2594412689
 30
0.0
 11
1547.3633438343
 21
1177.5647809271
 31
0.0
  0
LINE
  5
4E1
330
1F
100
AcDbEntity
  8
0
  6
Continuous
 62
     7
370
    25
100
AcDbLine
 10
1546.536302737
 20
1177.7328982484
 30
0.0
 11
1546.3989618803
 21
1177.6488385299
 31
0.0
  0
LINE
  5
4E2
330
1F
100
AcDbEntity
  8
0
  6
Continuous
 62
     7
370
    25
100
AcDbLine
 10
1546.5364195162
 20
1178.037755102
 30
0.0
 11
1546.1497195961
 21
1177.8013893411
 31
0.0
  0
LINE
  5
4E3
330
1F
100
AcDbEntity
  8
0
  6
Continuous
 62
     7
370
    25
100
AcDbLine
 10
1547.1579358311
 20
1177.6488405231
 30
0.0
 11
1547.3633438343
 21
1177.5647809271
 31
0.0
  0
LINE
  5
4E4
330
1F
100
AcDbEntity
  8
0
  6
Continuous
 62
     7
370
    25
100
AcDbLine
 10
1542.3743574064
 20
1177.2594412689
 30
0.0
 11
1542.8060724741
 21
1177.4365284679
 31
0.0
  0
LINE
  5
4E5
330
1F
100
AcDbEntity
  8
0
  6
Continuous
 62
     7
370
    25
100
AcDbLine
 10
1542.3743574064
 20
1177.2594412689
 30
0.0
 11
1542.3742786448
 21
1177.5647809271
 31
0.0
  0
LINE
  5
4E6
330
1F
100
AcDbEntity
  8
0
  6
Continuous
 62
     7
370
    25
100
AcDbLine
 10
1542.5794403228
 20
1177.6488405231
 30
0.0
 11
1542.3742786448
 21
1177.5647809271
 31
0.0
  0
SPLINE
  5
4E7
330
1F
100
AcDbEntity
  8
0
  6
Continuous
 62
     7
370
    25
100
AcDbSpline
210
0.0
220
0.0
230
1.0
 70
     8
 71
     3
 72
    13
 73
     9
 74
     0
 42
0.00000001
 43
0.00000001
 40
0.0
 40
0.0
 40
0.0
 40
0.0
 40
0.1421166978324898
 40
0.28602023383382
 40
0.5510761480912469
 40
0.816655457806358
 40
0.9604895185144838
 40
1.0
 40
1.0
 40
1.0
 40
1.0
 10
1541.925352457049
 20
1177.73289824845
 30
0.0
 10
1541.938837947212
 20
1177.738624808219
 30
0.0
 10
1541.965978481072
 20
1177.750149927991
 30
0.0
 10
1542.03255652418
 20
1177.646670866498
 30
0.0
 10
1542.111605740753
 20
1177.453121126511
 30
0.0
 10
1542.21703726288
 20
1177.263538496955
 30
0.0
 10
1542.320886920204
 20
1177.24791764183
 30
0.0
 10
1542.364877500458
 20
1177.257398218421
 30
0.0
 10
1542.374357406355
 20
1177.259441268852
 30
0.0
  0
LINE
  5
4E8
330
1F
100
AcDbEntity
  8
0
  6
Continuous
 62
     7
370
    25
100
AcDbLine
 10
1541.9253799963
 20
1178.037755102
 30
0.0
 11
1541.925352457
 21
1177.7328982484
 31
0.0
  0
SPLINE
  5
4E9
330
1F
100
AcDbEntity
  8
0
  6
Continuous
 62
     7
370
    25
100
AcDbSpline
210
0.0
220
0.0
230
1.0
 70
     8
 71
     3
 72
    11
 73
     7
 74
     0
 42
0.00000001
 43
0.00000001
 40
0.0
 40
0.0
 40
0.0
 40
0.0
 40
0.1965526436524707
 40
0.3955809122898369
 40
0.7620626723491217
 40
0.9999999999999999
 40
0.9999999999999999
 40
0.9999999999999999
 40
0.9999999999999999
 10
1542.374278644849
 20
1177.564780927142
 30
0.0
 10
1542.340244141687
 20
1177.559146878056
 30
0.0
 10
1542.2717464631
 20
1177.547807817761
 30
0.0
 10
1542.164812967783
 20
1177.648726752559
 30
0.0
 10
1542.087486076894
 20
1177.829149514783
 30
0.0
 10
1542.035974576965
 20
1177.92367710266
 30
0.0
 10
1542.015696414204
 20
1177.960889100272
 30
0.0
  0
LINE
  5
4EA
330
1F
100
AcDbEntity
  8
0
  6
Continuous
 62
     7
370
    25
100
AcDbLine
 10
1541.925352457
 20
1177.7328982484
 30
0.0
 11
1541.9827669206
 21
1177.7129640727
 31
0.0
  0
LINE
  5
4EB
330
1F
100
AcDbEntity
  8
0
  6
Continuous
 62
     7
370
    25
100
AcDbLine
 10
1541.9865197639
 20
1178.0165484661
 30
0.0
 11
1542.3742974314
 21
1177.8820458311
 31
0.0
  0
LINE
  5
4EC
330
1F
100
AcDbEntity
  8
0
  6
Continuous
 62
     7
370
    25
100
AcDbLine
 10
1547.1579233152
 20
1177.6488384768
 30
0.0
 11
1547.3633244231
 21
1177.7328982484
 31
0.0
  0
SPLINE
  5
4ED
330
1F
100
AcDbEntity
  8
0
  6
Continuous
 62
     7
370
    25
100
AcDbSpline
210
0.0
220
0.0
230
1.0
 70
     8
 71
     3
 72
    13
 73
     9
 74
     0
 42
0.00000001
 43
0.00000001
 40
0.0
 40
0.0
 40
0.0
 40
0.0
 40
0.142116697832237
 40
0.2860202338336613
 40
0.5510761480912377
 40
0.8166554578065942
 40
0.9604895185151445
 40
1.0
 40
1.0
 40
1.0
 40
1.0
 10
1547.363324423085
 20
1177.73289824845
 30
0.0
 10
1547.397309170067
 20
1177.738624808219
 30
0.0
 10
1547.465705955433
 20
1177.750149927991
 30
0.0
 10
1547.572545915855
 20
1177.646670866498
 30
0.0
 10
1547.66104523765
 20
1177.453121126511
 30
0.0
 10
1547.741390344771
 20
1177.263538496955
 30
0.0
 10
1547.791099735348
 20
1177.24791764183
 30
0.0
 10
1547.806970358026
 20
1177.257398218421
 30
0.0
 10
1547.810390454071
 20
1177.259441268852
 30
0.0
  0
LINE
  5
4EE
330
1F
100
AcDbEntity
  8
0
  6
Continuous
 62
     7
370
    25
100
AcDbLine
 10
1547.7499064795
 20
1177.2804542551
 30
0.0
 11
1547.3633824331
 21
1177.4147381635
 31
0.0
  0
LINE
  5
4EF
330
1F
100
AcDbEntity
  8
0
  6
Continuous
 62
     7
370
    25
100
AcDbLine
 10
1546.9318897304
 20
1177.8613651344
 30
0.0
 11
1547.3634023949
 21
1178.037755102
 31
0.0
  0
LINE
  5
4F0
330
1F
100
AcDbEntity
  8
0
  6
Continuous
 62
     7
370
    25
100
AcDbLine
 10
1547.3634023949
 20
1178.037755102
 30
0.0
 11
1547.3633244231
 21
1177.7328982484
 31
0.0
  0
SPLINE
  5
4F1
330
1F
100
AcDbEntity
  8
0
  6
Continuous
 62
     7
370
    25
100
AcDbSpline
210
0.0
220
0.0
230
1.0
 70
     8
 71
     3
 72
    13
 73
     9
 74
     0
 42
0.00000001
 43
0.00000001
 40
0.0
 40
0.0
 40
0.0
 40
0.0
 40
0.1419103113864005
 40
0.2856080152291018
 40
0.550206545785362
 40
0.8152964964033365
 40
0.9369116823965324
 40
1.0
 40
1.0
 40
1.0
 40
1.0
 10
1547.81036295926
 20
1177.564780927141
 30
0.0
 10
1547.797007051193
 20
1177.559032991811
 30
0.0
 10
1547.770127014378
 20
1177.547464724606
 30
0.0
 10
1547.704050941931
 20
1177.650608109964
 30
0.0
 10
1547.625522563216
 20
1177.844230290837
 30
0.0
 10
1547.524086920448
 20
1178.025487172812
 30
0.0
 10
1547.422504892867
 20
1178.050594908074
 30
0.0
 10
1547.378450014884
 20
1178.041024143598
 30
0.0
 10
1547.363402394887
 20
1178.037755102041
 30
0.0
  0
LINE
  5
4F2
330
1F
100
AcDbEntity
  8
0
  6
Continuous
 62
     7
370
    25
100
AcDbLine
 10
1547.8103904541
 20
1177.2594412689
 30
0.0
 11
1547.8103629593
 21
1177.5647809271
 31
0.0
  0
LINE
  5
4F3
330
1F
100
AcDbEntity
  8
0
  6
Continuous
 62
     7
370
    25
100
AcDbLine
 10
1547.8103629593
 20
1177.5647809271
 30
0.0
 11
1547.7534809187
 21
1177.5845233509
 31
0.0
  0
LINE
  5
4F4
330
1F
100
AcDbEntity
  8
0
  6
Continuous
 62
     7
370
    25
100
AcDbLine
 10
1541.9253870576
 20
1177.2594412689
 30
0.0
 11
1542.1909510268
 21
1177.3517423818
 31
0.0
  0
LINE
  5
4F5
330
1F
100
AcDbEntity
  8
0
  6
Continuous
 62
     7
370
    25
100
AcDbLine
 10
1541.9253870576
 20
1177.2594412689
 30
0.0
 11
1541.9253593122
 21
1177.5647809271
 31
0.0
  0
LINE
  5
4F6
330
1F
100
AcDbEntity
  8
0
  6
Continuous
 62
     7
370
    25
100
AcDbLine
 10
1542.0450576589
 20
1177.6063402618
 30
0.0
 11
1541.9253593122
 21
1177.5647809271
 31
0.0
  0
SPLINE
  5
4F7
330
1F
100
AcDbEntity
  8
0
  6
Continuous
 62
     7
370
    25
100
AcDbSpline
210
0.0
220
0.0
230
1.0
 70
     8
 71
     3
 72
    10
 73
     6
 74
     0
 42
0.00000001
 43
0.00000001
 40
0.0
 40
0.0
 40
0.0
 40
0.0
 40
0.4156288886457901
 40
0.8364834937195539
 40
1.0
 40
1.0
 40
1.0
 40
1.0
 10
1541.924337722527
 20
1177.73289824845
 30
0.0
 10
1541.913460434391
 20
1177.738165795039
 30
0.0
 10
1541.8915690976
 20
1177.748767117263
 30
0.0
 10
1541.875420960743
 20
1177.690123999801
 30
0.0
 10
1541.874216122455
 20
1177.635352811464
 30
0.0
 10
1541.873878989179
 20
1177.620026945438
 30
0.0
  0
SPLINE
  5
4F8
330
1F
100
AcDbEntity
  8
0
  6
Continuous
 62
     7
370
    25
100
AcDbSpline
210
0.0
220
0.0
230
1.0
 70
     8
 71
     3
 72
    11
 73
     7
 74
     0
 42
0.00000001
 43
0.00000001
 40
0.0
 40
0.0
 40
0.0
 40
0.0
 40
0.1030913913741215
 40
0.6336944505430817
 40
0.9210616882486885
 40
1.0
 40
1.0
 40
1.0
 40
1.0
 10
1541.869213027371
 20
1177.49499656176
 30
0.0
 10
1541.868586830864
 20
1177.481434185167
 30
0.0
 10
1541.864737651551
 20
1177.398067352419
 30
0.0
 10
1541.878385293939
 20
1177.262435181503
 30
0.0
 10
1541.906857269556
 20
1177.247961723749
 30
0.0
 10
1541.922101868679
 20
1177.257406033806
 30
0.0
 10
1541.92538705756
 20
1177.259441268852
 30
0.0
  0
SPLINE
  5
4F9
330
1F
100
AcDbEntity
  8
0
  6
Continuous
 62
     7
370
    25
100
AcDbSpline
210
0.0
220
0.0
230
1.0
 70
     8
 71
     3
 72
    10
 73
     6
 74
     0
 42
0.00000001
 43
0.00000001
 40
0.0
 40
0.0
 40
0.0
 40
0.0
 40
0.2813095273741991
 40
0.5661622118459796
 40
1.0
 40
1.0
 40
1.0
 40
1.0
 10
1541.925359312225
 20
1177.564780927142
 30
0.0
 10
1541.91422345208
 20
1177.559076643998
 30
0.0
 10
1541.891811473114
 20
1177.547596230975
 30
0.0
 10
1541.870547345071
 20
1177.641382696824
 30
0.0
 10
1541.869601503641
 20
1177.744400549652
 30
0.0
 10
1541.869030546088
 20
1177.806587317272
 30
0.0
  0
LINE
  5
4FA
330
1F
100
AcDbEntity
  8
0
  6
Continuous
 62
     7
370
    25
100
AcDbLine
 10
1541.9243104286
 20
1178.037755102
 30
0.0
 11
1541.9253799628
 21
1178.0373842836
 31
0.0
  0
LINE
  5
4FB
330
1F
100
AcDbEntity
  8
0
  6
Continuous
 62
     7
370
    25
100
AcDbLine
 10
1547.810356164
 20
1177.7328982484
 30
0.0
 11
1547.6913006277
 21
1177.6915763628
 31
0.0
  0
SPLINE
  5
4FC
330
1F
100
AcDbEntity
  8
0
  6
Continuous
 62
     7
370
    25
100
AcDbSpline
210
0.0
220
0.0
230
1.0
 70
     8
 71
     3
 72
    13
 73
     9
 74
     0
 42
0.00000001
 43
0.00000001
 40
0.0
 40
0.0
 40
0.0
 40
0.0
 40
0.142116697832346
 40
0.2860202338337419
 40
0.551076148091574
 40
0.8166554578071743
 40
0.9604895185153626
 40
1.0
 40
1.0
 40
1.0
 40
1.0
 10
1547.810356163973
 20
1177.73289824845
 30
0.0
 10
1547.821450281819
 20
1177.738624808219
 30
0.0
 10
1547.84377800424
 20
1177.750149927991
 30
0.0
 10
1547.865567596876
 20
1177.646670866498
 30
0.0
 10
1547.870681956968
 20
1177.453121126511
 30
0.0
 10
1547.857105286999
 20
1177.263538496955
 30
0.0
 10
1547.827804785775
 20
1177.24791764183
 30
0.0
 10
1547.812586374399
 20
1177.257398218421
 30
0.0
 10
1547.809306828939
 20
1177.259441268852
 30
0.0
  0
LINE
  5
4FD
330
1F
100
AcDbEntity
  8
0
  6
Continuous
 62
     7
370
    25
100
AcDbLine
 10
1547.8093068289
 20
1177.2594412689
 30
0.0
 11
1547.3633825124
 21
1177.4144295785
 31
0.0
  0
LINE
  5
4FE
330
1F
100
AcDbEntity
  8
0
  6
Continuous
 62
     7
370
    25
100
AcDbLine
 10
1547.8103834578
 20
1178.037755102
 30
0.0
 11
1547.545943798
 21
1177.9460711735
 31
0.0
  0
LINE
  5
4FF
330
1F
100
AcDbEntity
  8
0
  6
Continuous
 62
     7
370
    25
100
AcDbLine
 10
1547.8103834578
 20
1178.037755102
 30
0.0
 11
1547.810356164
 21
1177.7328982484
 31
0.0
  0
SPLINE
  5
500
330
1F
100
AcDbEntity
  8
0
  6
Continuous
 62
     7
370
    25
100
AcDbSpline
210
0.0
220
0.0
230
1.0
 70
     8
 71
     3
 72
    11
 73
     7
 74
     0
 42
0.00000001
 43
0.00000001
 40
0.0
 40
0.0
 40
0.0
 40
0.0
 40
0.0923106480585216
 40
0.6272657996468972
 40
0.872686910884156
 40
1.0
 40
1.0
 40
1.0
 40
1.0
 10
1547.865663340411
 20
1177.806587317271
 30
0.0
 10
1547.866241350105
 20
1177.818617189396
 30
0.0
 10
1547.870169019559
 20
1177.900362118251
 30
0.0
 10
1547.857381856961
 20
1178.02637299957
 30
0.0
 10
1547.830527998479
 20
1178.050527431543
 30
0.0
 10
1547.815512300162
 20
1178.041006963931
 30
0.0
 10
1547.810383457849
 20
1178.037755102041
 30
0.0
  0
LINE
  5
501
330
1F
100
AcDbEntity
  8
0
  6
Continuous
 62
     7
370
    25
100
AcDbLine
 10
1541.9243309272
 20
1177.5647809271
 30
0.0
 11
1542.0449192802
 21
1177.6066343195
 31
0.0
  0
SPLINE
  5
502
330
1F
100
AcDbEntity
  8
0
  6
Continuous
 62
     7
370
    25
100
AcDbSpline
210
0.0
220
0.0
230
1.0
 70
     8
 71
     3
 72
    10
 73
     6
 74
     0
 42
0.00000001
 43
0.00000001
 40
0.0
 40
0.0
 40
0.0
 40
0.0
 40
0.3834427420091501
 40
0.7894054018703884
 40
1.0
 40
1.0
 40
1.0
 40
1.0
 10
1542.188750088453
 20
1177.946071173458
 30
0.0
 10
1542.206180742133
 20
1177.976709832463
 30
0.0
 10
1542.242065766585
 20
1178.039786584934
 30
0.0
 10
1542.312482394836
 20
1178.049891658699
 30
0.0
 10
1542.356318572177
 20
1178.040845094831
 30
0.0
 10
1542.371291491612
 20
1178.037755102041
 30
0.0
  0
LINE
  5
503
330
1F
100
AcDbEntity
  8
0
  6
Continuous
 62
     7
370
    25
100
AcDbLine
 10
1542.3712914916
 20
1178.037755102
 30
0.0
 11
1542.3743370434
 21
1178.036510168
 31
0.0
  0
SPLINE
  5
504
330
1F
100
AcDbEntity
  8
0
  6
Continuous
 62
     7
370
    25
100
AcDbSpline
210
0.0
220
0.0
230
1.0
 70
     8
 71
     3
 72
    10
 73
     6
 74
     0
 42
0.00000001
 43
0.00000001
 40
0.0
 40
0.0
 40
0.0
 40
0.0
 40
0.3886151440721846
 40
0.8682474550845971
 40
1.0
 40
1.0
 40
1.0
 40
1.0
 10
1547.543742859721
 20
1177.35174238177
 30
0.0
 10
1547.525949042602
 20
1177.320577208409
 30
0.0
 10
1547.486193936129
 20
1177.250947697385
 30
0.0
 10
1547.413622999466
 20
1177.248369500425
 30
0.0
 10
1547.369783770137
 20
1177.257478329474
 30
0.0
 10
1547.360336480144
 20
1177.259441268852
 30
0.0
  0
LINE
  5
505
330
1F
100
AcDbEntity
  8
0
  6
Continuous
 62
     7
370
    25
100
AcDbLine
 10
1547.5457518029
 20
1177.946337266
 30
0.0
 11
1547.8093138902
 21
1178.037755102
 31
0.0
  0
LINE
  5
506
330
1F
100
AcDbEntity
  8
0
  6
Continuous
 62
     7
370
    25
100
AcDbLine
 10
1543.1982743703
 20
1178.037755102
 30
0.0
 11
1543.2028317702
 21
1178.0349694452
 31
0.0
  0
LINE
  5
507
330
1F
100
AcDbEntity
  8
0
  6
Continuous
 62
     7
370
    25
100
AcDbLine
 10
1547.3603565238
 20
1178.037755102
 30
0.0
 11
1547.0144516963
 21
1177.896160655
 31
0.0
  0
LINE
  5
508
330
1F
100
AcDbEntity
  8
0
  6
Continuous
 62
     7
370
    25
100
AcDbLine
 10
1547.3603565238
 20
1178.037755102
 30
0.0
 11
1547.3603568431
 21
1178.036510168
 31
0.0
  0
LINE
  5
509
330
1F
100
AcDbEntity
  8
0
  6
Continuous
 62
     7
370
    25
100
AcDbLine
 10
1546.3673469365
 20
1177.9368813234
 30
0.0
 11
1546.531861048
 21
1178.037755102
 31
0.0
  0
LINE
  5
50A
330
1F
100
AcDbEntity
  8
0
  6
Continuous
 62
     7
370
    25
100
AcDbLine
 10
1546.531861048
 20
1178.037755102
 30
0.0
 11
1546.5318621163
 21
1178.0349694452
 31
0.0
  0
LINE
  5
50B
330
1F
100
AcDbEntity
  8
0
  6
Continuous
 62
     7
370
    25
100
AcDbLine
 10
1547.6673469365
 20
1177.2594412689
 30
0.0
 11
1542.0673469365
 21
1177.2594412689
 31
0.0
  0
LINE
  5
50C
330
1F
100
AcDbEntity
  8
0
  6
Continuous
 62
     7
370
    25
100
AcDbLine
 10
1546.173678558
 20
1175.0473110031
 30
0.0
 11
1546.1799162338
 21
1175.0348001589
 31
0.0
  0
ARC
  5
50D
330
1F
100
AcDbEntity
  8
0
  6
Continuous
 62
     7
370
    25
100
AcDbCircle
 10
1544.8673469365
 20
1179.8594412689
 30
0.0
 40
4.986291206899224
100
AcDbArc
 50
276.5034226004
 51
285.1878552918
  0
LINE
  5
50E
330
1F
100
AcDbEntity
  8
0
  6
Continuous
 62
     7
370
    25
100
AcDbLine
 10
1545.4321070696
 20
1174.9052363889
 30
0.0
 11
1545.2373469365
 21
1174.9052363889
 31
0.0
  0
LINE
  5
50F
330
1F
100
AcDbEntity
  8
0
  6
Continuous
 62
     7
370
    25
100
AcDbLine
 10
1545.2373469365
 20
1174.9052363889
 30
0.0
 11
1545.2373469365
 21
1175.0473110031
 31
0.0
  0
ARC
  5
510
330
1F
100
AcDbEntity
  8
0
  6
Continuous
 62
     7
370
    25
100
AcDbCircle
 10
1544.8673469365
 20
1180.5120498171
 30
0.0
 40
5.477250250415786
100
AcDbArc
 50
266.126597498
 51
273.873402502
  0
LINE
  5
511
330
1F
100
AcDbEntity
  8
0
  6
Continuous
 62
     7
370
    25
100
AcDbLine
 10
1544.4973469365
 20
1175.0473110031
 30
0.0
 11
1544.4973469365
 21
1174.9052363889
 31
0.0
  0
LINE
  5
512
330
1F
100
AcDbEntity
  8
0
  6
Continuous
 62
     7
370
    25
100
AcDbLine
 10
1544.4973469365
 20
1174.9052363889
 30
0.0
 11
1544.3025868035
 21
1174.9052363889
 31
0.0
  0
ARC
  5
513
330
1F
100
AcDbEntity
  8
0
  6
Continuous
 62
     7
370
    25
100
AcDbCircle
 10
1544.8673469365
 20
1179.8594412689
 30
0.0
 40
4.986291206899284
100
AcDbArc
 50
254.8121447082
 51
263.4965773996
  0
LINE
  5
514
330
1F
100
AcDbEntity
  8
0
  6
Continuous
 62
     7
370
    25
100
AcDbLine
 10
1543.5547776393
 20
1175.0348001589
 30
0.0
 11
1543.5610153151
 21
1175.0473110031
 31
0.0
  0
CIRCLE
  5
515
330
1F
100
AcDbEntity
  8
0
  6
Continuous
 62
     7
370
    25
100
AcDbCircle
 10
1546.6673469365
 20
1200.487755102
 30
0.0
 40
3.0
  0
CIRCLE
  5
516
330
1F
100
AcDbEntity
  8
0
  6
Continuous
 62
     7
370
    25
100
AcDbCircle
 10
1546.6673469365
 20
1200.487755102
 30
0.0
 40
4.0
  0
CIRCLE
  5
517
330
1F
100
AcDbEntity
  8
0
  6
Continuous
 62
     7
370
    25
100
AcDbCircle
 10
1546.6673469365
 20
1200.487755102
 30
0.0
 40
5.0
  0
CIRCLE
  5
518
330
1F
100
AcDbEntity
  8
0
  6
Continuous
 62
     7
370
    25
100
AcDbCircle
 10
1546.6673469365
 20
1188.987755102
 30
0.0
 40
3.0
  0
CIRCLE
  5
519
330
1F
100
AcDbEntity
  8
0
  6
Continuous
 62
     7
370
    25
100
AcDbCircle
 10
1546.6673469365
 20
1188.987755102
 30
0.0
 40
4.0
  0
CIRCLE
  5
51A
330
1F
100
AcDbEntity
  8
0
  6
Continuous
 62
     7
370
    25
100
AcDbCircle
 10
1546.6673469365
 20
1188.987755102
 30
0.0
 40
5.0
  0
LINE
  5
51B
330
1F
100
AcDbEntity
  8
0
  6
Continuous
 62
     7
370
    25
100
AcDbLine
 10
1534.8673469365
 20
1210.537755102
 30
0.0
 11
1534.8673469365
 21
1210.637755102
 31
0.0
  0
LINE
  5
51C
330
1F
100
AcDbEntity
  8
0
  6
Continuous
 62
     7
370
    25
100
AcDbLine
 10
1534.8673469365
 20
1211.437755102
 30
0.0
 11
1534.8673469365
 21
1213.8496946343
 31
0.0
  0
LINE
  5
51D
330
1F
100
AcDbEntity
  8
0
  6
Continuous
 62
     7
370
    25
100
AcDbLine
 10
1534.8673469365
 20
1213.8496946343
 30
0.0
 11
1554.5371565623
 21
1213.5063568302
 31
0.0
  0
LINE
  5
51E
330
1F
100
AcDbEntity
  8
0
  6
Continuous
 62
     7
370
    25
100
AcDbLine
 10
1557.946296486
 20
1210.637755102
 30
0.0
 11
1557.946296486
 21
1210.537755102
 31
0.0
  0
LINE
  5
51F
330
1F
100
AcDbEntity
  8
0
  6
Continuous
 62
     7
370
    25
100
AcDbLine
 10
1558.4673469365
 20
1213.437755102
 30
0.0
 11
1558.4673469365
 21
1211.437755102
 31
0.0
  0
LINE
  5
520
330
1F
100
AcDbEntity
  8
0
  6
Continuous
 62
     7
370
    25
100
AcDbLine
 10
1554.5371565623
 20
1213.5063568302
 30
0.0
 11
1558.4673469365
 21
1213.437755102
 31
0.0
  0
LINE
  5
521
330
1F
100
AcDbEntity
  8
0
  6
Continuous
 62
     7
370
    25
100
AcDbLine
 10
1535.1036416231
 20
1213.8455700953
 30
0.0
 11
1535.1036757354
 21
1213.8466866007
 31
0.0
  0
LINE
  5
522
330
1F
100
AcDbEntity
  8
0
  6
Continuous
 62
     7
370
    25
100
AcDbLine
 10
1535.1036757354
 20
1213.8466866007
 30
0.0
 11
1535.3071177932
 21
1213.8440233982
 31
0.0
  0
LINE
  5
523
330
1F
100
AcDbEntity
  8
0
  6
Continuous
 62
     7
370
    25
100
AcDbLine
 10
1535.3071177932
 20
1213.8440233982
 30
0.0
 11
1554.5191573365
 21
1213.592524024
 31
0.0
  0
LINE
  5
524
330
1F
100
AcDbEntity
  8
0
  6
Continuous
 62
     7
370
    25
100
AcDbLine
 10
1556.4669352065
 20
1213.5670262149
 30
0.0
 11
1556.4673469365
 21
1213.4726652319
 31
0.0
  0
LINE
  5
525
330
1F
100
AcDbEntity
  8
0
  6
Continuous
 62
     7
370
    25
100
AcDbLine
 10
1554.5191573365
 20
1213.592524024
 30
0.0
 11
1556.4669352065
 21
1213.5670262149
 31
0.0
  0
LINE
  5
526
330
1F
100
AcDbEntity
  8
0
  6
Continuous
 62
     7
370
    25
100
AcDbLine
 10
1548.7173469365
 20
1167.937755102
 30
0.0
 11
1550.7673469365
 21
1167.937755102
 31
0.0
  0
LINE
  5
527
330
1F
100
AcDbEntity
  8
0
  6
HIDDEN
 62
     7
370
    25
100
AcDbLine
 10
1577.2673469365
 20
1161.237755102
 30
0.0
 11
1545.2673469365
 21
1161.237755102
 31
0.0
  0
LINE
  5
528
330
1F
100
AcDbEntity
  8
0
  6
HIDDEN
 62
     7
370
    25
100
AcDbLine
 10
1545.1173469365
 20
1094.837755102
 30
0.0
 11
1577.4173469365
 21
1094.837755102
 31
0.0
  0
LINE
  5
529
330
1F
100
AcDbEntity
  8
0
  6
Continuous
 62
     7
370
    25
100
AcDbLine
 10
1547.5417655412
 20
1175.6348128678
 30
0.0
 11
1542.1929283319
 21
1175.6348128678
 31
0.0
  0
LINE
  5
52A
330
1F
100
AcDbEntity
  8
0
  6
Continuous
 62
     7
370
    25
100
AcDbLine
 10
1547.6673469365
 20
1175.8629428014
 30
0.0
 11
1542.0673469365
 21
1175.8629428014
 31
0.0
  0
LINE
  5
52B
330
1F
100
AcDbEntity
  8
0
  6
Continuous
 62
     7
370
    25
100
AcDbLine
 10
1543.3673469365
 20
1177.3594412689
 30
0.0
 11
1543.9133002357
 21
1177.3594412689
 31
0.0
  0
LINE
  5
52C
330
1F
100
AcDbEntity
  8
0
  6
Continuous
 62
     7
370
    25
100
AcDbLine
 10
1544.3416963939
 20
1177.3594412689
 30
0.0
 11
1545.0225339705
 21
1177.3594412689
 31
0.0
  0
LINE
  5
52D
330
1F
100
AcDbEntity
  8
0
  6
Continuous
 62
     7
370
    25
100
AcDbLine
 10
1545.4620853935
 20
1177.3594412689
 30
0.0
 11
1546.0039656756
 21
1177.3594412689
 31
0.0
  0
LINE
  5
52E
330
1F
100
AcDbEntity
  8
0
  6
Continuous
 62
     7
370
    25
100
AcDbLine
 10
1554.5371565623
 20
1210.537755102
 30
0.0
 11
1554.5371565623
 21
1210.637755102
 31
0.0
  0
LINE
  5
52F
330
1F
100
AcDbEntity
  8
0
  6
Continuous
 62
     7
370
    25
100
AcDbLine
 10
1554.5371565623
 20
1211.437755102
 30
0.0
 11
1554.5371565623
 21
1213.5063568302
 31
0.0
  0
LINE
  5
530
330
1F
100
AcDbEntity
  8
0
  6
Continuous
 62
     7
370
    25
100
AcDbLine
 10
1535.3071177932
 20
1213.8440233982
 30
0.0
 11
1535.3070565678
 21
1213.8420194742
 31
0.0
  0
LINE
  5
531
330
1F
100
AcDbEntity
  8
0
  6
Continuous
 62
     7
370
    25
100
AcDbLine
 10
1554.518059862
 20
1213.5066901643
 30
0.0
 11
1554.5191573365
 21
1213.592524024
 31
0.0
  0
LINE
  5
532
330
1F
100
AcDbEntity
  8
0
  6
Continuous
 62
     7
370
    25
100
AcDbLine
 10
1582.8673469365
 20
1199.3143609592
 30
0.0
 11
1582.8673469365
 21
1190.3611492449
 31
0.0
  0
LINE
  5
533
330
1F
100
AcDbEntity
  8
0
  6
Continuous
 62
     7
370
    25
100
AcDbLine
 10
1583.0139047979
 20
1190.3611492449
 30
0.0
 11
1583.0139047979
 21
1199.3143609592
 31
0.0
  0
LINE
  5
534
330
1F
100
AcDbEntity
  8
0
  6
Continuous
 62
     7
370
    25
100
AcDbLine
 10
1583.207316201
 20
1199.1652729337
 30
0.0
 11
1583.207316201
 21
1190.5102372704
 31
0.0
  0
INSERT
  5
548
330
1F
100
AcDbEntity
  8
0
  6
Continuous
 62
     7
370
    18
100
AcDbBlockReference
  2
SW_HATCH_0
 10
1527.6115842125
 20
1177.537755102
 30
0.0
  0
DIMENSION
  5
549
330
1F
100
AcDbEntity
  8
FORMAT
100
AcDbDimension
  2
_D_14
 10
1582.6673469365
 20
1274.6384251658
 30
0.0
 11
1497.4422922626
 21
1274.6384251658
 31
0.0
 70
   160
  1
<>
 71
     2
 42
-1.0
  3
SLDDIMSTYLE5
100
AcDbAlignedDimension
 13
1534.6673469365
 23
1242.537755102
 33
0.0
 14
1582.6673469365
 24
1209.637755102
 34
0.0
 50
0.0
100
AcDbRotatedDimension
  0
DIMENSION
  5
555
330
1F
100
AcDbEntity
  8
FORMAT
100
AcDbDimension
  2
_D_15
 10
1626.8117120468
 20
1211.437755102
 30
0.0
 11
1626.8117120468
 21
1131.609692219
 31
0.0
 70
   160
  1
<>
 71
     2
 42
-1.0
  3
SLDDIMSTYLE5
100
AcDbAlignedDimension
 13
1580.8673469365
 23
1178.037755102
 33
0.0
 14
1580.8673469365
 24
1211.437755102
 34
0.0
 50
90.0
100
AcDbRotatedDimension
  0
MTEXT
  5
561
330
1F
100
AcDbEntity
  8
FORMAT
100
AcDbMText
 10
1531.363877494
 20
1349.7227824574
 30
0.0
 40
25.0
 41
0.0
 71
     2
 72
     1
  1
A-A
  7
SLDTEXTSTYLE0
 73
     1
 44
1.0
  0
ENDSEC
  0
SECTION
  2
OBJECTS
  0
DICTIONARY
  5
C
330
0
100
AcDbDictionary
281
     1
  3
ACAD_GROUP
350
D
  3
ACAD_LAYOUT
350
1A
  3
ACAD_MLINESTYLE
350
17
  3
ACAD_PLOTSETTINGS
350
19
  3
ACAD_PLOTSTYLENAME
350
E
  3
ACAD_SCALELIST
350
47
  3
DWGPROPS
350
562
  0
DICTIONARY
  5
D
102
{ACAD_REACTORS
330
C
102
}
330
C
100
AcDbDictionary
281
     1
  0
DICTIONARY
  5
1A
102
{ACAD_REACTORS
330
C
102
}
330
C
100
AcDbDictionary
281
     1
  3
Layout1
350
1E
  3
Layout2
350
26
  3
Model
350
22
  0
DICTIONARY
  5
17
102
{ACAD_REACTORS
330
C
102
}
330
C
100
AcDbDictionary
281
     1
  3
Standard
350
18
  0
DICTIONARY
  5
19
102
{ACAD_REACTORS
330
C
102
}
330
C
100
AcDbDictionary
281
     1
  0
ACDBDICTIONARYWDFLT
  5
E
102
{ACAD_REACTORS
330
C
102
}
330
C
100
AcDbDictionary
281
     1
  3
Normal
350
F
100
AcDbDictionaryWithDefault
340
F
  0
DICTIONARY
  5
47
102
{ACAD_REACTORS
330
C
102
}
330
C
100
AcDbDictionary
281
     1
  3
A0
350
48
  3
A1
350
49
  3
A2
350
4A
  3
A3
350
4B
  3
A4
350
4C
  3
A5
350
4D
  3
A6
350
4E
  3
A7
350
4F
  3
A8
350
50
  3
A9
350
51
  3
B0
350
52
  3
B1
350
53
  3
B2
350
54
  3
B3
350
55
  3
B4
350
56
  3
B5
350
57
  3
B6
350
58
  3
B7
350
59
  3
B8
350
5A
  3
B9
350
5B
  3
C0
350
5C
  3
C1
350
5D
  3
C2
350
5E
  3
C3
350
5F
  3
C4
350
60
  3
C5
350
61
  3
C6
350
62
  3
C7
350
63
  3
C8
350
64
  3
C9
350
65
  3
D0
350
66
  3
D1
350
67
  3
D2
350
68
  0
XRECORD
  5
562
102
{ACAD_REACTORS
330
C
102
}
330
C
100
AcDbXrecord
280
     1
  1
DWGPROPS COOKIE
  2

  3

  4

  6

  7

  8
l.eckardt
  9

300
=
301
=
302
=
303
=
304
=
305
=
306
=
307
=
308
=
309
=
 40
0.0
 41
2460329.237356678
 42
2460329.237360497
  1

 90
        0
  0
LAYOUT
  5
1E
102
{ACAD_REACTORS
330
1A
102
}
330
1A
100
AcDbPlotSettings
  1

  2
none_device
  4

  6

 40
0.0
 41
0.0
 42
0.0
 43
0.0
 44
0.0
 45
0.0
 46
0.0
 47
0.0
 48
0.0
 49
0.0
140
0.0
141
0.0
142
1.0
143
1.0
 70
   688
 72
     1
 73
     0
 74
     5
  7

 75
    16
147
1.0
148
0.0
149
0.0
100
AcDbLayout
  1
Layout1
 70
     1
 71
     1
 10
0.0
 20
0.0
 11
420.0
 21
297.0
 12
0.0
 22
0.0
 32
0.0
 14
1.0000000000E+20
 24
1.0000000000E+20
 34
1.0000000000E+20
 15
-1.0000000000E+20
 25
-1.0000000000E+20
 35
-1.0000000000E+20
146
0.0
 13
0.0
 23
0.0
 33
0.0
 16
1.0
 26
0.0
 36
0.0
 17
0.0
 27
1.0
 37
0.0
 76
     0
330
1B
  0
LAYOUT
  5
26
102
{ACAD_REACTORS
330
1A
102
}
330
1A
100
AcDbPlotSettings
  1

  2
none_device
  4

  6

 40
0.0
 41
0.0
 42
0.0
 43
0.0
 44
0.0
 45
0.0
 46
0.0
 47
0.0
 48
0.0
 49
0.0
140
0.0
141
0.0
142
1.0
143
1.0
 70
   688
 72
     1
 73
     0
 74
     5
  7

 75
    16
147
1.0
148
0.0
149
0.0
100
AcDbLayout
  1
Layout2
 70
     1
 71
     2
 10
0.0
 20
0.0
 11
0.0
 21
0.0
 12
0.0
 22
0.0
 32
0.0
 14
0.0
 24
0.0
 34
0.0
 15
0.0
 25
0.0
 35
0.0
146
0.0
 13
0.0
 23
0.0
 33
0.0
 16
1.0
 26
0.0
 36
0.0
 17
0.0
 27
1.0
 37
0.0
 76
     0
330
23
  0
LAYOUT
  5
22
102
{ACAD_REACTORS
330
1A
102
}
330
1A
100
AcDbPlotSettings
  1

  2
none_device
  4
Letter_(8.50_x_11.00_Inches)
  6

 40
6.35
 41
6.35
 42
6.35000508
 43
6.35000508
 44
215.9
 45
279.4
 46
0.0
 47
0.0
 48
0.0
 49
0.0
140
0.0
141
0.0
142
1.0
143
1.0
 70
  1712
 72
     1
 73
     0
 74
     0
  7

 75
     0
147
1.0
148
0.0
149
0.0
100
AcDbLayout
  1
Model
 70
     1
 71
     0
 10
0.0
 20
0.0
 11
2100.0
 21
1485.0
 12
0.0
 22
0.0
 32
0.0
 14
0.0
 24
0.0
 34
0.0
 15
2100.0
 25
1485.0
 35
0.0
146
0.0
 13
0.0
 23
0.0
 33
0.0
 16
1.0
 26
0.0
 36
0.0
 17
0.0
 27
1.0
 37
0.0
 76
     0
330
1F
331
29
  0
MLINESTYLE
  5
18
102
{ACAD_REACTORS
330
17
102
}
330
17
100
AcDbMlineStyle
  2
Standard
 70
     0
  3

 62
   256
 51
90.0
 52
90.0
 71
     2
 49
0.5
 62
   256
  6
BYLAYER
 49
-0.5
 62
   256
  6
BYLAYER
  0
ACDBPLACEHOLDER
  5
F
102
{ACAD_REACTORS
330
E
102
}
330
E
  0
SCALE
  5
48
102
{ACAD_REACTORS
330
47
102
}
330
47
100
AcDbScale
 70
     0
300
1:1
140
1.0
141
1.0
290
     1
  0
SCALE
  5
49
102
{ACAD_REACTORS
330
47
102
}
330
47
100
AcDbScale
 70
     0
300
1:2
140
1.0
141
2.0
290
     0
  0
SCALE
  5
4A
102
{ACAD_REACTORS
330
47
102
}
330
47
100
AcDbScale
 70
     0
300
1:4
140
1.0
141
4.0
290
     0
  0
SCALE
  5
4B
102
{ACAD_REACTORS
330
47
102
}
330
47
100
AcDbScale
 70
     0
300
1:5
140
1.0
141
5.0
290
     0
  0
SCALE
  5
4C
102
{ACAD_REACTORS
330
47
102
}
330
47
100
AcDbScale
 70
     0
300
1:8
140
1.0
141
8.0
290
     0
  0
SCALE
  5
4D
102
{ACAD_REACTORS
330
47
102
}
330
47
100
AcDbScale
 70
     0
300
1:10
140
1.0
141
10.0
290
     0
  0
SCALE
  5
4E
102
{ACAD_REACTORS
330
47
102
}
330
47
100
AcDbScale
 70
     0
300
1:16
140
1.0
141
16.0
290
     0
  0
SCALE
  5
4F
102
{ACAD_REACTORS
330
47
102
}
330
47
100
AcDbScale
 70
     0
300
1:20
140
1.0
141
20.0
290
     0
  0
SCALE
  5
50
102
{ACAD_REACTORS
330
47
102
}
330
47
100
AcDbScale
 70
     0
300
1:30
140
1.0
141
30.0
290
     0
  0
SCALE
  5
51
102
{ACAD_REACTORS
330
47
102
}
330
47
100
AcDbScale
 70
     0
300
1:40
140
1.0
141
40.0
290
     0
  0
SCALE
  5
52
102
{ACAD_REACTORS
330
47
102
}
330
47
100
AcDbScale
 70
     0
300
1:50
140
1.0
141
50.0
290
     0
  0
SCALE
  5
53
102
{ACAD_REACTORS
330
47
102
}
330
47
100
AcDbScale
 70
     0
300
1:100
140
1.0
141
100.0
290
     0
  0
SCALE
  5
54
102
{ACAD_REACTORS
330
47
102
}
330
47
100
AcDbScale
 70
     0
300
2:1
140
2.0
141
1.0
290
     0
  0
SCALE
  5
55
102
{ACAD_REACTORS
330
47
102
}
330
47
100
AcDbScale
 70
     0
300
4:1
140
4.0
141
1.0
290
     0
  0
SCALE
  5
56
102
{ACAD_REACTORS
330
47
102
}
330
47
100
AcDbScale
 70
     0
300
8:1
140
8.0
141
1.0
290
     0
  0
SCALE
  5
57
102
{ACAD_REACTORS
330
47
102
}
330
47
100
AcDbScale
 70
     0
300
10:1
140
10.0
141
1.0
290
     0
  0
SCALE
  5
58
102
{ACAD_REACTORS
330
47
102
}
330
47
100
AcDbScale
 70
     0
300
100:1
140
100.0
141
1.0
290
     0
  0
SCALE
  5
59
102
{ACAD_REACTORS
330
47
102
}
330
47
100
AcDbScale
 70
     0
300
1/128" = 1'-0"
140
0.0078125
141
12.0
290
     0
  0
SCALE
  5
5A
102
{ACAD_REACTORS
330
47
102
}
330
47
100
AcDbScale
 70
     0
300
1/64" = 1'-0"
140
0.015625
141
12.0
290
     0
  0
SCALE
  5
5B
102
{ACAD_REACTORS
330
47
102
}
330
47
100
AcDbScale
 70
     0
300
1/32" = 1'-0"
140
0.03125
141
12.0
290
     0
  0
SCALE
  5
5C
102
{ACAD_REACTORS
330
47
102
}
330
47
100
AcDbScale
 70
     0
300
1/16" = 1'-0"
140
0.0625
141
12.0
290
     0
  0
SCALE
  5
5D
102
{ACAD_REACTORS
330
47
102
}
330
47
100
AcDbScale
 70
     0
300
3/32" = 1'-0"
140
0.09375
141
12.0
290
     0
  0
SCALE
  5
5E
102
{ACAD_REACTORS
330
47
102
}
330
47
100
AcDbScale
 70
     0
300
1/8" = 1'-0"
140
0.125
141
12.0
290
     0
  0
SCALE
  5
5F
102
{ACAD_REACTORS
330
47
102
}
330
47
100
AcDbScale
 70
     0
300
3/16" = 1'-0"
140
0.1875
141
12.0
290
     0
  0
SCALE
  5
60
102
{ACAD_REACTORS
330
47
102
}
330
47
100
AcDbScale
 70
     0
300
1/4" = 1'-0"
140
0.25
141
12.0
290
     0
  0
SCALE
  5
61
102
{ACAD_REACTORS
330
47
102
}
330
47
100
AcDbScale
 70
     0
300
3/8" = 1'-0"
140
0.375
141
12.0
290
     0
  0
SCALE
  5
62
102
{ACAD_REACTORS
330
47
102
}
330
47
100
AcDbScale
 70
     0
300
1/2" = 1'-0"
140
0.5
141
12.0
290
     0
  0
SCALE
  5
63
102
{ACAD_REACTORS
330
47
102
}
330
47
100
AcDbScale
 70
     0
300
3/4" = 1'-0"
140
0.75
141
12.0
290
     0
  0
SCALE
  5
64
102
{ACAD_REACTORS
330
47
102
}
330
47
100
AcDbScale
 70
     0
300
1" = 1'-0"
140
1.0
141
12.0
290
     0
  0
SCALE
  5
65
102
{ACAD_REACTORS
330
47
102
}
330
47
100
AcDbScale
 70
     0
300
1-1/2" = 1'-0"
140
1.5
141
12.0
290
     0
  0
SCALE
  5
66
102
{ACAD_REACTORS
330
47
102
}
330
47
100
AcDbScale
 70
     0
300
3" = 1'-0"
140
3.0
141
12.0
290
     0
  0
SCALE
  5
67
102
{ACAD_REACTORS
330
47
102
}
330
47
100
AcDbScale
 70
     0
300
6" = 1'-0"
140
6.0
141
12.0
290
     0
  0
SCALE
  5
68
102
{ACAD_REACTORS
330
47
102
}
330
47
100
AcDbScale
 70
     0
300
1'-0" = 1'-0"
140
12.0
141
12.0
290
     0
  0
ENDSEC
  0
EOF
