  0
SECTION
  2
HEADER
  9
$ACADVER
  1
AC1015
  9
$ACADMAINTVER
 70
     6
  9
$DWGCODEPAGE
  3
ANSI_1252
  9
$INSBASE
 10
0.0
 20
0.0
 30
0.0
  9
$EXTMIN
 10
0.0
 20
0.0
 30
0.0
  9
$EXTMAX
 10
2100.0
 20
1485.0
 30
0.0
  9
$LIMMIN
 10
0.0
 20
0.0
  9
$LIMMAX
 10
2100.0
 20
1485.0
  9
$ORTHOMODE
 70
     0
  9
$REGENMODE
 70
     1
  9
$FILLMODE
 70
     1
  9
$QTEXTMODE
 70
     0
  9
$MIRRTEXT
 70
     1
  9
$LTSCALE
 40
5.0
  9
$ATTMODE
 70
     1
  9
$TEXTSIZE
 40
17.5
  9
$TRACEWID
 40
1.0
  9
$TEXTSTYLE
  7
STANDARD
  9
$CLAYER
  8
0
  9
$CELTYPE
  6
ByLayer
  9
$CECOLOR
 62
   256
  9
$CELTSCALE
 40
1.0
  9
$DISPSILH
 70
     0
  9
$DIMSCALE
 40
1.0
  9
$DIMASZ
 40
16.51
  9
$DIMEXO
 40
5.0
  9
$DIMDLI
 40
3.75
  9
$DIMRND
 40
0.0
  9
$DIMDLE
 40
0.0
  9
$DIMEXE
 40
5.0
  9
$DIMTP
 40
0.0
  9
$DIMTM
 40
0.0
  9
$DIMTXT
 40
17.5
  9
$DIMCEN
 40
2.5
  9
$DIMTSZ
 40
0.0
  9
$DIMTOL
 70
     0
  9
$DIMLIM
 70
     0
  9
$DIMTIH
 70
     1
  9
$DIMTOH
 70
     1
  9
$DIMSE1
 70
     0
  9
$DIMSE2
 70
     0
  9
$DIMTAD
 70
     1
  9
$DIMZIN
 70
     0
  9
$DIMBLK
  1

  9
$DIMASO
 70
     1
  9
$DIMSHO
 70
     1
  9
$DIMPOST
  1

  9
$DIMAPOST
  1

  9
$DIMALT
 70
     0
  9
$DIMALTD
 70
     3
  9
$DIMALTF
 40
0.0393700787
  9
$DIMLFAC
 40
1.0
  9
$DIMTOFL
 70
     1
  9
$DIMTVP
 40
0.0
  9
$DIMTIX
 70
     0
  9
$DIMSOXD
 70
     0
  9
$DIMSAH
 70
     0
  9
$DIMBLK1
  1

  9
$DIMBLK2
  1

  9
$DIMSTYLE
  2
ISO-25
  9
$DIMCLRD
 70
     0
  9
$DIMCLRE
 70
     0
  9
$DIMCLRT
 70
     0
  9
$DIMTFAC
 40
1.0
  9
$DIMGAP
 40
15.0
  9
$DIMJUST
 70
     0
  9
$DIMSD1
 70
     0
  9
$DIMSD2
 70
     0
  9
$DIMTOLJ
 70
     0
  9
$DIMTZIN
 70
     0
  9
$DIMALTZ
 70
     0
  9
$DIMALTTZ
 70
     0
  9
$DIMUPT
 70
     0
  9
$DIMDEC
 70
     2
  9
$DIMTDEC
 70
     2
  9
$DIMALTU
 70
     2
  9
$DIMALTTD
 70
     3
  9
$DIMTXSTY
  7
STANDARD
  9
$DIMAUNIT
 70
     0
  9
$DIMADEC
 70
     2
  9
$DIMALTRND
 40
0.0
  9
$DIMAZIN
 70
     0
  9
$DIMDSEP
 70
    44
  9
$DIMATFIT
 70
     3
  9
$DIMFRAC
 70
     0
  9
$DIMLDRBLK
  1

  9
$DIMLUNIT
 70
     2
  9
$DIMLWD
 70
    -2
  9
$DIMLWE
 70
    -2
  9
$DIMTMOVE
 70
     0
  9
$LUNITS
 70
     2
  9
$LUPREC
 70
     2
  9
$SKETCHINC
 40
1.0
  9
$FILLETRAD
 40
10.0
  9
$AUNITS
 70
     0
  9
$AUPREC
 70
     2
  9
$MENU
  1
.
  9
$ELEVATION
 40
0.0
  9
$PELEVATION
 40
0.0
  9
$THICKNESS
 40
0.0
  9
$LIMCHECK
 70
     0
  9
$CHAMFERA
 40
0.0
  9
$CHAMFERB
 40
0.0
  9
$CHAMFERC
 40
0.0
  9
$CHAMFERD
 40
0.0
  9
$SKPOLY
 70
     0
  9
$TDCREATE
 40
2460321.343764259
  9
$TDUCREATE
 40
2460321.302097593
  9
$TDUPDATE
 40
2460321.34376816
  9
$TDUUPDATE
 40
2460321.302101493
  9
$TDINDWG
 40
0.0000000116
  9
$TDUSRTIMER
 40
0.0000000116
  9
$USRTIMER
 70
     1
  9
$ANGBASE
 50
0.0
  9
$ANGDIR
 70
     0
  9
$PDMODE
 70
     0
  9
$PDSIZE
 40
-1.0
  9
$PLINEWID
 40
0.0
  9
$SPLFRAME
 70
     0
  9
$SPLINETYPE
 70
     6
  9
$SPLINESEGS
 70
     8
  9
$HANDSEED
  5
58B
  9
$SURFTAB1
 70
     6
  9
$SURFTAB2
 70
     6
  9
$SURFTYPE
 70
     6
  9
$SURFU
 70
     6
  9
$SURFV
 70
     6
  9
$UCSBASE
  2

  9
$UCSNAME
  2

  9
$UCSORG
 10
0.0
 20
0.0
 30
0.0
  9
$UCSXDIR
 10
1.0
 20
0.0
 30
0.0
  9
$UCSYDIR
 10
0.0
 20
1.0
 30
0.0
  9
$UCSORTHOREF
  2

  9
$UCSORTHOVIEW
 70
     0
  9
$UCSORGTOP
 10
0.0
 20
0.0
 30
0.0
  9
$UCSORGBOTTOM
 10
0.0
 20
0.0
 30
0.0
  9
$UCSORGLEFT
 10
0.0
 20
0.0
 30
0.0
  9
$UCSORGRIGHT
 10
0.0
 20
0.0
 30
0.0
  9
$UCSORGFRONT
 10
0.0
 20
0.0
 30
0.0
  9
$UCSORGBACK
 10
0.0
 20
0.0
 30
0.0
  9
$PUCSBASE
  2

  9
$PUCSNAME
  2

  9
$PUCSORG
 10
0.0
 20
0.0
 30
0.0
  9
$PUCSXDIR
 10
1.0
 20
0.0
 30
0.0
  9
$PUCSYDIR
 10
0.0
 20
1.0
 30
0.0
  9
$PUCSORTHOREF
  2

  9
$PUCSORTHOVIEW
 70
     0
  9
$PUCSORGTOP
 10
0.0
 20
0.0
 30
0.0
  9
$PUCSORGBOTTOM
 10
0.0
 20
0.0
 30
0.0
  9
$PUCSORGLEFT
 10
0.0
 20
0.0
 30
0.0
  9
$PUCSORGRIGHT
 10
0.0
 20
0.0
 30
0.0
  9
$PUCSORGFRONT
 10
0.0
 20
0.0
 30
0.0
  9
$PUCSORGBACK
 10
0.0
 20
0.0
 30
0.0
  9
$USERI1
 70
     0
  9
$USERI2
 70
     0
  9
$USERI3
 70
     0
  9
$USERI4
 70
     0
  9
$USERI5
 70
     0
  9
$USERR1
 40
0.0
  9
$USERR2
 40
0.0
  9
$USERR3
 40
0.0
  9
$USERR4
 40
0.0
  9
$USERR5
 40
0.0
  9
$WORLDVIEW
 70
     1
  9
$SHADEDGE
 70
     3
  9
$SHADEDIF
 70
    70
  9
$TILEMODE
 70
     1
  9
$MAXACTVP
 70
    64
  9
$PINSBASE
 10
0.0
 20
0.0
 30
0.0
  9
$PLIMCHECK
 70
     0
  9
$PEXTMIN
 10
1.0000000000E+20
 20
1.0000000000E+20
 30
1.0000000000E+20
  9
$PEXTMAX
 10
-1.0000000000E+20
 20
-1.0000000000E+20
 30
-1.0000000000E+20
  9
$PLIMMIN
 10
0.0
 20
0.0
  9
$PLIMMAX
 10
420.0
 20
297.0
  9
$UNITMODE
 70
     0
  9
$VISRETAIN
 70
     1
  9
$PLINEGEN
 70
     0
  9
$PSLTSCALE
 70
     1
  9
$TREEDEPTH
 70
  3020
  9
$CMLSTYLE
  2
Standard
  9
$CMLJUST
 70
     0
  9
$CMLSCALE
 40
20.0
  9
$PROXYGRAPHICS
 70
     1
  9
$MEASUREMENT
 70
     1
  9
$CELWEIGHT
370
    -1
  9
$ENDCAPS
280
     0
  9
$JOINSTYLE
280
     0
  9
$LWDISPLAY
290
     1
  9
$INSUNITS
 70
     4
  9
$HYPERLINKBASE
  1

  9
$STYLESHEET
  1

  9
$XEDIT
290
     1
  9
$CEPSNTYPE
380
     0
  9
$PSTYLEMODE
290
     1
  9
$FINGERPRINTGUID
  2
{c26526fd-bbca-4e86-ac66-3deb1ddb724b}
  9
$VERSIONGUID
  2
{FAEB1C32-E019-11D5-929B-00C0DF256EC4}
  9
$EXTNAMES
290
     1
  9
$PSVPSCALE
 40
0.0
  9
$OLESTARTUP
290
     0
  0
ENDSEC
  0
SECTION
  2
CLASSES
  0
CLASS
  1
ACDBDICTIONARYWDFLT
  2
AcDbDictionaryWithDefault
  3
ObjectDBX Classes
 90
        0
280
     0
281
     0
  0
CLASS
  1
VISUALSTYLE
  2
AcDbVisualStyle
  3
ObjectDBX Classes
 90
     4095
280
     0
281
     0
  0
CLASS
  1
MATERIAL
  2
AcDbMaterial
  3
ObjectDBX Classes
 90
     1153
280
     0
281
     0
  0
CLASS
  1
SCALE
  2
AcDbScale
  3
ObjectDBX Classes
 90
     1153
280
     0
281
     0
  0
CLASS
  1
TABLESTYLE
  2
AcDbTableStyle
  3
ObjectDBX Classes
 90
     4095
280
     0
281
     0
  0
CLASS
  1
MLEADERSTYLE
  2
AcDbMLeaderStyle
  3
ACDB_MLEADERSTYLE_CLASS
 90
     4095
280
     0
281
     0
  0
CLASS
  1
SUN
  2
AcDbSun
  3
SCENEOE
 90
     1153
280
     0
281
     0
  0
CLASS
  1
ACDBPLACEHOLDER
  2
AcDbPlaceHolder
  3
ObjectDBX Classes
 90
        0
280
     0
281
     0
  0
CLASS
  1
LAYOUT
  2
AcDbLayout
  3
ObjectDBX Classes
 90
        0
280
     0
281
     0
  0
ENDSEC
  0
SECTION
  2
TABLES
  0
TABLE
  2
VPORT
  5
8
330
0
100
AcDbSymbolTable
 70
     1
  0
VPORT
  5
29
330
8
100
AcDbSymbolTableRecord
100
AcDbViewportTableRecord
  2
*Active
 70
     0
 10
0.0
 20
0.0
 11
1.0
 21
1.0
 12
1050.0
 22
742.5
 13
0.0
 23
0.0
 14
10.0
 24
10.0
 15
10.0
 25
10.0
 16
0.0
 26
0.0
 36
1.0
 17
0.0
 27
0.0
 37
0.0
 40
1485.0
 41
1.4141414141
 42
50.0
 43
0.0
 44
0.0
 50
0.0
 51
0.0
 71
     0
 72
  2000
 73
     1
 74
     3
 75
     0
 76
     0
 77
     0
 78
     0
281
     0
 65
     1
110
0.0
120
0.0
130
0.0
111
1.0
121
0.0
131
0.0
112
0.0
122
1.0
132
0.0
 79
     0
146
0.0
  0
ENDTAB
  0
TABLE
  2
LTYPE
  5
5
330
0
100
AcDbSymbolTable
 70
     6
  0
LTYPE
  5
14
330
5
100
AcDbSymbolTableRecord
100
AcDbLinetypeTableRecord
  2
ByBlock
 70
     0
  3

 72
    65
 73
     0
 40
0.0
  0
LTYPE
  5
15
330
5
100
AcDbSymbolTableRecord
100
AcDbLinetypeTableRecord
  2
ByLayer
 70
     0
  3

 72
    65
 73
     0
 40
0.0
  0
LTYPE
  5
16
330
5
100
AcDbSymbolTableRecord
100
AcDbLinetypeTableRecord
  2
Continuous
 70
     0
  3
Solid line
 72
    65
 73
     0
 40
0.0
  0
LTYPE
  5
6E
330
5
100
AcDbSymbolTableRecord
100
AcDbLinetypeTableRecord
  2
HIDDEN
 70
     0
  3
Hidden __ __ __ __ __ __ __ __ __ __ __ __ __ __
 72
    65
 73
     2
 40
1.905
 49
1.27
 74
     0
 49
-0.635
 74
     0
  0
LTYPE
  5
6F
330
5
100
AcDbSymbolTableRecord
100
AcDbLinetypeTableRecord
  2
PHANTOM
 70
     0
  3
Phantom ______  __  __  ______  __  __  ______
 72
    65
 73
     6
 40
12.7
 49
6.35
 74
     0
 49
-1.27
 74
     0
 49
1.27
 74
     0
 49
-1.27
 74
     0
 49
1.27
 74
     0
 49
-1.27
 74
     0
  0
LTYPE
  5
70
330
5
100
AcDbSymbolTableRecord
100
AcDbLinetypeTableRecord
  2
CENTER
 70
     0
  3
Center ____ _ ____ _ ____ _ ____ _ ____ _ ____
 72
    65
 73
     4
 40
10.16
 49
6.35
 74
     0
 49
-1.27
 74
     0
 49
1.27
 74
     0
 49
-1.27
 74
     0
  0
LTYPE
  5
71
330
5
100
AcDbSymbolTableRecord
100
AcDbLinetypeTableRecord
  2
CENTERX2
 70
     0
  3
Center (2x) ________  __  ________  __  _____
 72
    65
 73
     4
 40
20.32
 49
12.7
 74
     0
 49
-2.54
 74
     0
 49
2.54
 74
     0
 49
-2.54
 74
     0
  0
LTYPE
  5
72
330
5
100
AcDbSymbolTableRecord
100
AcDbLinetypeTableRecord
  2
DOT2
 70
     0
  3
Dot (.5x) ........................................
 72
    65
 73
     2
 40
0.635
 49
0.0
 74
     0
 49
-0.635
 74
     0
  0
ENDTAB
  0
TABLE
  2
LAYER
  5
2
330
0
100
AcDbSymbolTable
 70
     9
  0
LAYER
  5
10
330
2
100
AcDbSymbolTableRecord
100
AcDbLayerTableRecord
  2
0
 70
     0
 62
     7
  6
Continuous
370
    -3
390
F
  0
LAYER
  5
73
330
2
100
AcDbSymbolTableRecord
100
AcDbLayerTableRecord
  2
FORMAT
 70
     0
 62
     7
  6
Continuous
370
    -3
390
F
  0
LAYER
  5
74
330
2
100
AcDbSymbolTableRecord
100
AcDbLayerTableRecord
  2
VORLAGE
 70
     0
 62
     7
  6
Continuous
370
    -3
390
F
  0
LAYER
  5
75
330
2
100
AcDbSymbolTableRecord
100
AcDbLayerTableRecord
  2
1
 70
     0
 62
   179
  6
Continuous
370
    -3
390
F
  0
LAYER
  5
76
330
2
100
AcDbSymbolTableRecord
100
AcDbLayerTableRecord
  2
LAYER0
 70
     0
 62
     7
  6
Continuous
370
    -3
390
F
  0
LAYER
  5
77
330
2
100
AcDbSymbolTableRecord
100
AcDbLayerTableRecord
  2
BEMASSUNG
 70
     0
 62
     1
  6
Continuous
370
    -3
390
F
  0
LAYER
  5
78
330
2
100
AcDbSymbolTableRecord
100
AcDbLayerTableRecord
  2
ÄNDERUNG
 70
     0
 62
     1
  6
Continuous
370
    -3
390
F
  0
LAYER
  5
79
330
2
100
AcDbSymbolTableRecord
100
AcDbLayerTableRecord
  2
KENNZEICHNUNG
 70
     0
 62
     7
  6
Continuous
370
    -3
390
F
  0
LAYER
  5
7A
330
2
100
AcDbSymbolTableRecord
100
AcDbLayerTableRecord
  2
NICHT_DRUCKEN
 70
     0
 62
     1
  6
Continuous
290
     0
370
    -3
390
F
  0
ENDTAB
  0
TABLE
  2
STYLE
  5
3
330
0
100
AcDbSymbolTable
 70
     5
  0
STYLE
  5
11
330
3
100
AcDbSymbolTableRecord
100
AcDbTextStyleTableRecord
  2
STANDARD
 70
     0
 40
0.0
 41
1.0
 50
0.0
 71
     0
 42
17.5
  3
ARIAL.TTF
  4

1001
ACAD
1000
ARIAL
1071
       34
  0
STYLE
  5
8C
330
3
100
AcDbSymbolTableRecord
100
AcDbTextStyleTableRecord
  2
SLDTEXTSTYLE0
 70
     0
 40
0.0
 41
0.948
 50
0.0
 71
     0
 42
17.5
  3
ARIAL.TTF
  4

1001
ACAD
1000
Arial
1071
      290
  0
STYLE
  5
B3
330
3
100
AcDbSymbolTableRecord
100
AcDbTextStyleTableRecord
  2
SLDTEXTSTYLE1
 70
     0
 40
0.0
 41
1.0
 50
0.0
 71
     0
 42
17.5
  3
ARIALUNI.TTF
  4

1001
ACAD
1000
Arial Unicode MS
1071
 33554722
  0
STYLE
  5
B9
330
3
100
AcDbSymbolTableRecord
100
AcDbTextStyleTableRecord
  2
SLDTEXTSTYLE2
 70
     0
 40
0.0
 41
0.87
 50
0.0
 71
     0
 42
17.5
  3
ARIALN.TTF
  4

1001
ACAD
1000
Arial Narrow
1071
      290
  0
STYLE
  5
E1
330
3
100
AcDbSymbolTableRecord
100
AcDbTextStyleTableRecord
  2
SLDTEXTSTYLE3
 70
     0
 40
0.0
 41
0.948
 50
0.0
 71
     0
 42
17.5
  3
ARIALBD.TTF
  4

1001
ACAD
1000
Arial
1071
 33554722
  0
ENDTAB
  0
TABLE
  2
VIEW
  5
6
330
0
100
AcDbSymbolTable
 70
     0
  0
ENDTAB
  0
TABLE
  2
UCS
  5
7
330
0
100
AcDbSymbolTable
 70
     0
  0
ENDTAB
  0
TABLE
  2
APPID
  5
9
330
0
100
AcDbSymbolTable
 70
     1
  0
APPID
  5
12
330
9
100
AcDbSymbolTableRecord
100
AcDbRegAppTableRecord
  2
ACAD
 70
     0
  0
ENDTAB
  0
TABLE
  2
DIMSTYLE
  5
A
330
0
100
AcDbSymbolTable
 70
     7
100
AcDbDimStyleTable
  0
DIMSTYLE
105
27
330
A
100
AcDbSymbolTableRecord
100
AcDbDimStyleTableRecord
  2
ISO-25
 70
     0
 41
2.5
 42
0.625
 43
3.75
 44
1.25
 73
     0
 74
     0
 77
     1
 78
     8
140
2.5
141
2.5
143
0.0393700787
147
0.625
171
     3
172
     1
178
     0
271
     2
272
     2
274
     3
278
    44
283
     0
284
     8
340
11
  0
DIMSTYLE
105
2B4
102
{ACAD_REACTORS
330
2B3
330
2BF
330
2C9
330
368
102
}
330
A
100
AcDbSymbolTableRecord
100
AcDbDimStyleTableRecord
  2
SLDDIMSTYLE0
 70
     0
 41
16.51
 44
0.0
 45
0.000000001
 73
     0
 74
     0
 77
     1
 78
    12
 79
     3
140
17.5
147
4.375
173
     1
178
     0
271
     2
272
     2
276
     2
284
    12
340
8C
  0
DIMSTYLE
105
316
102
{ACAD_REACTORS
330
315
330
37F
102
}
330
A
100
AcDbSymbolTableRecord
100
AcDbDimStyleTableRecord
  2
SLDDIMSTYLE1
 70
     0
 41
16.51
 44
0.0
 45
0.000000001
 73
     0
 74
     0
 77
     1
 78
    12
 79
     3
140
17.5
147
4.375
173
     1
178
     0
271
     2
272
     0
276
     2
284
    12
340
8C
  0
DIMSTYLE
105
320
102
{ACAD_REACTORS
330
31F
330
389
102
}
330
A
100
AcDbSymbolTableRecord
100
AcDbDimStyleTableRecord
  2
SLDDIMSTYLE2
 70
     0
 41
16.51
 44
0.0
 45
0.000000001
 73
     0
 74
     0
 77
     1
 78
    12
 79
     3
140
17.5
147
4.375
173
     1
178
     0
271
     2
272
     1
276
     2
284
    12
340
8C
  0
DIMSTYLE
105
32B
102
{ACAD_REACTORS
330
32A
102
}
330
A
100
AcDbSymbolTableRecord
100
AcDbDimStyleTableRecord
  2
SLDDIMSTYLE3
 70
     0
 41
16.51
 44
0.0
 45
0.000000001
 73
     0
 74
     0
 77
     1
 78
    12
 79
     3
140
17.5
147
4.375
172
     1
173
     1
178
     0
271
     2
272
     1
276
     2
284
    12
289
     0
340
8C
  0
DIMSTYLE
105
338
102
{ACAD_REACTORS
330
337
330
393
102
}
330
A
100
AcDbSymbolTableRecord
100
AcDbDimStyleTableRecord
  2
SLDDIMSTYLE4
 70
     0
 41
16.51
 44
0.0
 45
0.000000001
 73
     0
 74
     0
 77
     1
 78
    12
 79
     3
140
17.5
147
4.375
172
     1
173
     1
178
     0
271
     2
272
     0
276
     2
284
    12
289
     0
340
8C
  0
DIMSTYLE
105
344
102
{ACAD_REACTORS
330
343
330
350
330
35C
330
372
330
571
330
57D
102
}
330
A
100
AcDbSymbolTableRecord
100
AcDbDimStyleTableRecord
  2
SLDDIMSTYLE5
 70
     0
 41
16.51
 44
0.0
 45
0.000000001
 73
     0
 74
     0
 77
     1
 78
    12
 79
     3
140
17.5
147
4.375
172
     1
173
     1
178
     0
271
     2
272
     2
276
     2
284
    12
289
     0
340
8C
  0
ENDTAB
  0
TABLE
  2
BLOCK_RECORD
  5
1
330
0
100
AcDbSymbolTable
 70
    36
  0
BLOCK_RECORD
  5
1F
330
1
100
AcDbSymbolTableRecord
100
AcDbBlockTableRecord
  2
*Model_Space
340
22
  0
BLOCK_RECORD
  5
1B
330
1
100
AcDbSymbolTableRecord
100
AcDbBlockTableRecord
  2
*Paper_Space
340
1E
  0
BLOCK_RECORD
  5
23
330
1
100
AcDbSymbolTableRecord
100
AcDbBlockTableRecord
  2
*Paper_Space0
340
26
  0
BLOCK_RECORD
  5
7B
330
1
100
AcDbSymbolTableRecord
100
AcDbBlockTableRecord
  2
Block1_3_1
340
0
102
{BLKREFS
331
D9
102
}
  0
BLOCK_RECORD
  5
89
330
1
100
AcDbSymbolTableRecord
100
AcDbBlockTableRecord
  2
SW_NOTE_0
340
0
102
{BLKREFS
331
8F
102
}
  0
BLOCK_RECORD
  5
90
330
1
100
AcDbSymbolTableRecord
100
AcDbBlockTableRecord
  2
Block2_3_1
340
0
102
{BLKREFS
331
DA
102
}
  0
BLOCK_RECORD
  5
B0
330
1
100
AcDbSymbolTableRecord
100
AcDbBlockTableRecord
  2
SW_NOTE_0_1
340
0
102
{BLKREFS
331
B5
102
}
  0
BLOCK_RECORD
  5
B6
330
1
100
AcDbSymbolTableRecord
100
AcDbBlockTableRecord
  2
SW_NOTE_0_2
340
0
102
{BLKREFS
331
BD
102
}
  0
BLOCK_RECORD
  5
BE
330
1
100
AcDbSymbolTableRecord
100
AcDbBlockTableRecord
  2
rechtlicher_Hinweis_Katalogzeichnungen_1
340
0
102
{BLKREFS
331
DB
102
}
  0
BLOCK_RECORD
  5
C1
330
1
100
AcDbSymbolTableRecord
100
AcDbBlockTableRecord
  2
SW_NOTE_0_3
340
0
102
{BLKREFS
331
CA
102
}
  0
BLOCK_RECORD
  5
2B5
330
1
100
AcDbSymbolTableRecord
100
AcDbBlockTableRecord
  2
_D
340
0
  0
BLOCK_RECORD
  5
2C0
330
1
100
AcDbSymbolTableRecord
100
AcDbBlockTableRecord
  2
_D_1
340
0
  0
BLOCK_RECORD
  5
2CA
330
1
100
AcDbSymbolTableRecord
100
AcDbBlockTableRecord
  2
_D_2
340
0
  0
BLOCK_RECORD
  5
317
330
1
100
AcDbSymbolTableRecord
100
AcDbBlockTableRecord
  2
_D_3
340
0
  0
BLOCK_RECORD
  5
321
330
1
100
AcDbSymbolTableRecord
100
AcDbBlockTableRecord
  2
_D_4
340
0
  0
BLOCK_RECORD
  5
32C
330
1
100
AcDbSymbolTableRecord
100
AcDbBlockTableRecord
  2
_D_5
340
0
  0
BLOCK_RECORD
  5
339
330
1
100
AcDbSymbolTableRecord
100
AcDbBlockTableRecord
  2
_D_6
340
0
  0
BLOCK_RECORD
  5
345
330
1
100
AcDbSymbolTableRecord
100
AcDbBlockTableRecord
  2
_D_7
340
0
  0
BLOCK_RECORD
  5
351
330
1
100
AcDbSymbolTableRecord
100
AcDbBlockTableRecord
  2
_D_8
340
0
  0
BLOCK_RECORD
  5
35D
330
1
100
AcDbSymbolTableRecord
100
AcDbBlockTableRecord
  2
_D_9
340
0
  0
BLOCK_RECORD
  5
369
330
1
100
AcDbSymbolTableRecord
100
AcDbBlockTableRecord
  2
_D_10
340
0
  0
BLOCK_RECORD
  5
373
330
1
100
AcDbSymbolTableRecord
100
AcDbBlockTableRecord
  2
_D_11
340
0
  0
BLOCK_RECORD
  5
380
330
1
100
AcDbSymbolTableRecord
100
AcDbBlockTableRecord
  2
_D_12
340
0
  0
BLOCK_RECORD
  5
38A
330
1
100
AcDbSymbolTableRecord
100
AcDbBlockTableRecord
  2
_D_13
340
0
  0
BLOCK_RECORD
  5
394
330
1
100
AcDbSymbolTableRecord
100
AcDbBlockTableRecord
  2
_D_14
340
0
  0
BLOCK_RECORD
  5
39E
330
1
100
AcDbSymbolTableRecord
100
AcDbBlockTableRecord
  2
SW_CENTERMARKSYMBOL_0
340
0
102
{BLKREFS
331
3A9
102
}
  0
BLOCK_RECORD
  5
3AA
330
1
100
AcDbSymbolTableRecord
100
AcDbBlockTableRecord
  2
SW_CENTERMARKSYMBOL_1
340
0
102
{BLKREFS
331
3B5
102
}
  0
BLOCK_RECORD
  5
3B6
330
1
100
AcDbSymbolTableRecord
100
AcDbBlockTableRecord
  2
SW_CENTERMARKSYMBOL_2
340
0
102
{BLKREFS
331
3C1
102
}
  0
BLOCK_RECORD
  5
3C2
330
1
100
AcDbSymbolTableRecord
100
AcDbBlockTableRecord
  2
SW_CENTERMARKSYMBOL_3
340
0
102
{BLKREFS
331
3CD
102
}
  0
BLOCK_RECORD
  5
3CE
330
1
100
AcDbSymbolTableRecord
100
AcDbBlockTableRecord
  2
SW_CENTERMARKSYMBOL_4
340
0
102
{BLKREFS
331
3D9
102
}
  0
BLOCK_RECORD
  5
3DA
330
1
100
AcDbSymbolTableRecord
100
AcDbBlockTableRecord
  2
SW_CENTERMARKSYMBOL_5
340
0
102
{BLKREFS
331
3E5
102
}
  0
BLOCK_RECORD
  5
3E6
330
1
100
AcDbSymbolTableRecord
100
AcDbBlockTableRecord
  2
SW_CENTERMARKSYMBOL_6
340
0
102
{BLKREFS
331
3F1
102
}
  0
BLOCK_RECORD
  5
3F2
330
1
100
AcDbSymbolTableRecord
100
AcDbBlockTableRecord
  2
SW_CENTERMARKSYMBOL_7
340
0
102
{BLKREFS
331
3FD
102
}
  0
BLOCK_RECORD
  5
3FE
330
1
100
AcDbSymbolTableRecord
100
AcDbBlockTableRecord
  2
SW_CENTERMARKSYMBOL_8
340
0
102
{BLKREFS
331
409
102
}
  0
BLOCK_RECORD
  5
40A
330
1
100
AcDbSymbolTableRecord
100
AcDbBlockTableRecord
  2
SW_CENTERMARKSYMBOL_9
340
0
102
{BLKREFS
331
415
102
}
  0
BLOCK_RECORD
  5
55A
330
1
100
AcDbSymbolTableRecord
100
AcDbBlockTableRecord
  2
SW_HATCH_0
340
0
102
{BLKREFS
331
570
102
}
  0
BLOCK_RECORD
  5
572
330
1
100
AcDbSymbolTableRecord
100
AcDbBlockTableRecord
  2
_D_15
340
0
  0
BLOCK_RECORD
  5
57E
330
1
100
AcDbSymbolTableRecord
100
AcDbBlockTableRecord
  2
_D_16
340
0
  0
ENDTAB
  0
ENDSEC
  0
SECTION
  2
BLOCKS
  0
BLOCK
  5
20
330
1F
100
AcDbEntity
  8
0
100
AcDbBlockBegin
  2
*Model_Space
 70
     0
 10
0.0
 20
0.0
 30
0.0
  3
*Model_Space
  1

  0
ENDBLK
  5
21
330
1F
100
AcDbEntity
  8
0
100
AcDbBlockEnd
  0
BLOCK
  5
1C
330
1B
100
AcDbEntity
 67
     1
  8
0
100
AcDbBlockBegin
  2
*Paper_Space
 70
     0
 10
0.0
 20
0.0
 30
0.0
  3
*Paper_Space
  1

  0
ENDBLK
  5
1D
330
1B
100
AcDbEntity
 67
     1
  8
0
100
AcDbBlockEnd
  0
BLOCK
  5
24
330
23
100
AcDbEntity
  8
0
100
AcDbBlockBegin
  2
*Paper_Space0
 70
     0
 10
0.0
 20
0.0
 30
0.0
  3
*Paper_Space0
  1

  0
ENDBLK
  5
25
330
23
100
AcDbEntity
  8
0
100
AcDbBlockEnd
  0
BLOCK
  5
7C
330
7B
100
AcDbEntity
  8
0
100
AcDbBlockBegin
  2
Block1_3_1
 70
     0
 10
0.0
 20
0.0
 30
0.0
  3
Block1_3_1
  1

  0
CIRCLE
  5
7E
330
7B
100
AcDbEntity
  8
0
  6
Continuous
 62
     7
370
    18
100
AcDbCircle
 10
58.0687724105
 20
45.448293496
 30
0.0
 40
6.279545055293758
  0
CIRCLE
  5
7F
330
7B
100
AcDbEntity
  8
0
  6
Continuous
 62
     7
370
    18
100
AcDbCircle
 10
58.0687724105
 20
45.448293496
 30
0.0
 40
11.08007431827828
  0
LINE
  5
80
330
7B
100
AcDbEntity
  8
0
  6
CENTERX2
 62
     7
370
    18
100
AcDbLine
 10
58.0687724105
 20
45.448293496
 30
0.0
 11
39.4886980922
 21
45.448293496
 31
0.0
  0
LINE
  5
81
330
7B
100
AcDbEntity
  8
0
  6
Continuous
 62
     7
370
    18
100
AcDbLine
 10
40.8287679399
 20
34.3682191778
 30
0.0
 11
40.8287679399
 21
56.5357922957
 31
0.0
  0
LINE
  5
82
330
7B
100
AcDbEntity
  8
0
  6
Continuous
 62
     7
370
    18
100
AcDbLine
 10
13.3985739475
 20
51.7278385513
 30
0.0
 11
13.3985739475
 21
39.1687484407
 31
0.0
  0
LINE
  5
83
330
7B
100
AcDbEntity
  8
0
  6
Continuous
 62
     7
370
    18
100
AcDbLine
 10
13.3985739475
 20
39.1687484407
 30
0.0
 11
40.8287679399
 21
34.3682191778
 31
0.0
  0
LINE
  5
84
330
7B
100
AcDbEntity
  8
0
  6
CENTERX2
 62
     7
370
    18
100
AcDbLine
 10
48.3287679399
 20
45.448293496
 30
0.0
 11
5.8985739475
 21
45.448293496
 31
0.0
  0
LINE
  5
85
330
7B
100
AcDbEntity
  8
0
  6
Continuous
 62
     7
370
    18
100
AcDbLine
 10
40.8287679399
 20
56.5357922957
 30
0.0
 11
13.3985739475
 21
51.7278385513
 31
0.0
  0
LINE
  5
86
330
7B
100
AcDbEntity
  8
0
  6
CENTERX2
 62
     7
370
    18
100
AcDbLine
 10
58.0687724105
 20
45.448293496
 30
0.0
 11
58.0687724105
 21
26.8682191778
 31
0.0
  0
LINE
  5
87
330
7B
100
AcDbEntity
  8
0
  6
CENTERX2
 62
     7
370
    18
100
AcDbLine
 10
58.0687724105
 20
45.448293496
 30
0.0
 11
58.0687724105
 21
64.0283678143
 31
0.0
  0
LINE
  5
88
330
7B
100
AcDbEntity
  8
0
  6
CENTERX2
 62
     7
370
    18
100
AcDbLine
 10
58.0687724105
 20
45.448293496
 30
0.0
 11
76.6488467288
 21
45.448293496
 31
0.0
  0
INSERT
  5
8F
330
7B
100
AcDbEntity
  8
0
  6
Continuous
 62
     7
370
     0
100
AcDbBlockReference
  2
SW_NOTE_0
 10
10.5159164446
 20
11.8772363841
 30
0.0
  0
ENDBLK
  5
7D
330
7B
100
AcDbEntity
  8
0
100
AcDbBlockEnd
  0
BLOCK
  5
8A
330
89
100
AcDbEntity
  8
0
100
AcDbBlockBegin
  2
SW_NOTE_0
 70
     0
 10
0.0
 20
0.0
 30
0.0
  3
SW_NOTE_0
  1

  0
MTEXT
  5
8D
330
89
100
AcDbEntity
  8
0
  6
Continuous
 62
     0
370
     0
100
AcDbMText
 10
32.953125
 20
12.2461435278
 30
0.0
 40
9.5
 41
0.0
 71
     2
 72
     1
  1
DIN 6  T1 - 
  7
SLDTEXTSTYLE0
 73
     1
 44
1.0
  0
MTEXT
  5
8E
330
89
100
AcDbEntity
  8
0
  6
Continuous
 62
     0
370
     0
100
AcDbMText
 10
33.2846313119
 20
0.0016987217
 30
0.0
 40
9.5
 41
0.0
 71
     2
 72
     1
  1
Proj.methode 1
  7
SLDTEXTSTYLE0
 73
     1
 44
1.0
  0
ENDBLK
  5
8B
330
89
100
AcDbEntity
  8
0
100
AcDbBlockEnd
  0
BLOCK
  5
91
330
90
100
AcDbEntity
  8
0
100
AcDbBlockBegin
  2
Block2_3_1
 70
     0
 10
0.0
 20
0.0
 30
0.0
  3
Block2_3_1
  1

  0
ARC
  5
93
330
90
100
AcDbEntity
  8
FORMAT
100
AcDbCircle
 10
1183.7481826908
 20
285.4953004985
 30
0.0
 40
18.75000000000006
100
AcDbArc
 50
93.8225537293
 51
266.1774462707
  0
ARC
  5
94
330
90
100
AcDbEntity
  8
FORMAT
100
AcDbCircle
 10
1183.7481826908
 20
285.4953004985
 30
0.0
 40
15.00000000000005
100
AcDbArc
 50
94.7801918472
 51
265.2198081528
  0
ARC
  5
95
330
90
100
AcDbEntity
  8
FORMAT
100
AcDbCircle
 10
1183.7481826908
 20
285.4953004985
 30
0.0
 40
18.75000000000006
100
AcDbArc
 50
273.8225537293
 51
86.1774462707
  0
ARC
  5
96
330
90
100
AcDbEntity
  8
FORMAT
100
AcDbCircle
 10
1183.7481826908
 20
285.4953004985
 30
0.0
 40
15.00000000000005
100
AcDbArc
 50
274.7801918472
 51
85.2198081528
  0
ARC
  5
97
330
90
100
AcDbEntity
  8
FORMAT
100
AcDbCircle
 10
1183.7481826908
 20
291.1602082181
 30
0.0
 40
4.302013914034417
100
AcDbArc
 50
304.8395134495
 51
73.1084194601
  0
ARC
  5
98
330
90
100
AcDbEntity
  8
FORMAT
100
AcDbCircle
 10
1183.7481826908
 20
291.1602082181
 30
0.0
 40
7.011572158303283
100
AcDbArc
 50
313.8988153445
 51
79.7306010333
  0
ARC
  5
99
330
90
100
AcDbEntity
  8
FORMAT
100
AcDbCircle
 10
1183.7481826908
 20
277.4897861279
 30
0.0
 40
2.45765334336258
100
AcDbArc
 50
300.5716370086
 51
0.0
  0
ARC
  5
9A
330
90
100
AcDbEntity
  8
FORMAT
100
AcDbCircle
 10
1183.7481826908
 20
291.1602082181
 30
0.0
 40
7.011572158303359
100
AcDbArc
 50
100.2693989667
 51
226.1011846555
  0
ARC
  5
9B
330
90
100
AcDbEntity
  8
FORMAT
100
AcDbCircle
 10
1183.7481826908
 20
277.4897861279
 30
0.0
 40
4.861732492708143
100
AcDbArc
 50
180.0
 51
255.1013518888
  0
ARC
  5
9C
330
90
100
AcDbEntity
  8
FORMAT
100
AcDbCircle
 10
1183.7481826908
 20
277.4897861279
 30
0.0
 40
4.861732492708029
100
AcDbArc
 50
284.8986481112
 51
0.0
  0
ARC
  5
9D
330
90
100
AcDbEntity
  8
FORMAT
100
AcDbCircle
 10
1183.7481826908
 20
277.4897861279
 30
0.0
 40
2.457653343362608
100
AcDbArc
 50
180.0
 51
239.4283629914
  0
ARC
  5
9E
330
90
100
AcDbEntity
  8
FORMAT
100
AcDbCircle
 10
1183.7481826908
 20
291.1602082181
 30
0.0
 40
4.30201391403446
100
AcDbArc
 50
106.8915805399
 51
235.1604865505
  0
LINE
  5
9F
330
90
100
AcDbEntity
  8
FORMAT
100
AcDbLine
 10
1162.6562006356
 20
264.4033184433
 30
0.0
 11
1204.840164746
 21
264.4033184433
 31
0.0
  0
LINE
  5
A0
330
90
100
AcDbEntity
  8
FORMAT
100
AcDbLine
 10
1162.6562006356
 20
306.5872825537
 30
0.0
 11
1204.840164746
 21
306.5872825537
 31
0.0
  0
LINE
  5
A1
330
90
100
AcDbEntity
  8
FORMAT
100
AcDbLine
 10
1162.6562006356
 20
306.5872825537
 30
0.0
 11
1162.6562006356
 21
264.4033184433
 31
0.0
  0
LINE
  5
A2
330
90
100
AcDbEntity
  8
FORMAT
100
AcDbLine
 10
1204.840164746
 20
306.5872825537
 30
0.0
 11
1204.840164746
 21
264.4033184433
 31
0.0
  0
LINE
  5
A3
330
90
100
AcDbEntity
  8
FORMAT
100
AcDbLine
 10
1182.4981826908
 20
304.2035874323
 30
0.0
 11
1182.4981826908
 21
300.4431264273
 31
0.0
  0
LINE
  5
A4
330
90
100
AcDbEntity
  8
FORMAT
100
AcDbLine
 10
1184.9981826908
 20
304.2035874323
 30
0.0
 11
1184.9981826908
 21
300.4431264273
 31
0.0
  0
LINE
  5
A5
330
90
100
AcDbEntity
  8
FORMAT
100
AcDbLine
 10
1182.4981826908
 20
270.5474745696
 30
0.0
 11
1182.4981826908
 21
266.7870135646
 31
0.0
  0
LINE
  5
A6
330
90
100
AcDbEntity
  8
FORMAT
100
AcDbLine
 10
1184.9981826908
 20
270.5474745696
 30
0.0
 11
1184.9981826908
 21
266.7870135646
 31
0.0
  0
LINE
  5
A7
330
90
100
AcDbEntity
  8
FORMAT
100
AcDbLine
 10
1184.9981826908
 20
298.059457752
 30
0.0
 11
1184.9981826908
 21
295.2766172984
 31
0.0
  0
LINE
  5
A8
330
90
100
AcDbEntity
  8
FORMAT
100
AcDbLine
 10
1182.4981826908
 20
298.059457752
 30
0.0
 11
1182.4981826908
 21
295.2766172984
 31
0.0
  0
LINE
  5
A9
330
90
100
AcDbEntity
  8
FORMAT
100
AcDbLine
 10
1178.8864501981
 20
277.4897861279
 30
0.0
 11
1178.8864501981
 21
286.1079115818
 31
0.0
  0
LINE
  5
AA
330
90
100
AcDbEntity
  8
FORMAT
100
AcDbLine
 10
1188.6099151835
 20
277.4897861279
 30
0.0
 11
1188.6099151835
 21
286.1079115818
 31
0.0
  0
LINE
  5
AB
330
90
100
AcDbEntity
  8
FORMAT
100
AcDbLine
 10
1186.2058360342
 20
277.4897861279
 30
0.0
 11
1186.2058360342
 21
287.6293069506
 31
0.0
  0
LINE
  5
AC
330
90
100
AcDbEntity
  8
FORMAT
100
AcDbLine
 10
1181.2905293475
 20
277.4897861279
 30
0.0
 11
1181.2905293475
 21
287.6293069506
 31
0.0
  0
LINE
  5
AD
330
90
100
AcDbEntity
  8
FORMAT
100
AcDbLine
 10
1182.4981826908
 20
275.3737615637
 30
0.0
 11
1182.4981826908
 21
272.7914946479
 31
0.0
  0
LINE
  5
AE
330
90
100
AcDbEntity
  8
FORMAT
100
AcDbLine
 10
1184.9981826908
 20
275.3737615637
 30
0.0
 11
1184.9981826908
 21
272.7914946479
 31
0.0
  0
HATCH
  5
AF
330
90
100
AcDbEntity
  8
FORMAT
100
AcDbHatch
 10
0.0
 20
0.0
 30
0.0
210
0.0
220
0.0
230
1.0
  2
SOLID
 70
     1
 71
     0
 91
        5
 92
        0
 93
        4
 72
     1
 10
1204.840164746029
 20
306.5872825536799
 11
1204.840164746029
 21
264.4033184432501
 72
     1
 10
1204.840164746029
 20
264.4033184432501
 11
1162.656200635599
 21
264.4033184432501
 72
     1
 10
1162.656200635599
 20
264.4033184432501
 11
1162.656200635599
 21
306.5872825536799
 72
     1
 10
1162.656200635599
 20
306.5872825536799
 11
1204.840164746029
 21
306.5872825536799
 97
        0
 92
        0
 93
        4
 72
     2
 10
1183.748182690814
 20
285.495300498465
 40
15.00000000000005
 50
94.78019184719915
 51
265.2198081528017
 73
     0
 72
     1
 10
1182.498182690814
 20
300.4431264273418
 11
1182.498182690814
 21
304.2035874323348
 72
     2
 10
1183.748182690814
 20
285.495300498465
 40
18.75000000000004
 50
93.82255372927435
 51
266.1774462707265
 73
     1
 72
     1
 10
1182.498182690814
 20
266.7870135645953
 11
1182.498182690814
 21
270.5474745695882
 97
        0
 92
        0
 93
        8
 72
     1
 10
1188.609915183522
 20
277.4897861278944
 11
1188.609915183522
 21
286.1079115818244
 72
     2
 10
1183.748182690814
 20
291.1602082180524
 40
7.01157215830328
 50
313.8988153445108
 51
439.730601033339
 73
     1
 72
     1
 10
1184.998182690814
 20
298.0594577519578
 11
1184.998182690814
 21
295.276617298373
 72
     2
 10
1183.748182690814
 20
291.1602082180524
 40
4.302013914034391
 50
286.8915805399267
 51
415.1604865505435
 73
     0
 72
     1
 10
1186.205836034177
 20
287.6293069506131
 11
1186.205836034177
 21
277.4897861278944
 72
     2
 10
1183.748182690814
 20
277.4897861278944
 40
2.45765334336252
 50
0.0
 51
59.42836299135142
 73
     0
 72
     1
 10
1184.998182690814
 20
275.3737615637314
 11
1184.998182690814
 21
272.7914946479356
 72
     2
 10
1183.748182690814
 20
277.4897861278944
 40
4.861732492708049
 50
284.8986481111874
 51
360.0000000000008
 73
     1
 97
        0
 92
        0
 93
        8
 72
     2
 10
1183.748182690814
 20
277.4897861278944
 40
2.45765334336252
 50
120.5716370086479
 51
180.0
 73
     0
 72
     1
 10
1181.290529347452
 20
277.4897861278944
 11
1181.290529347452
 21
287.6293069506131
 72
     2
 10
1183.748182690814
 20
291.1602082180524
 40
4.302013914034391
 50
124.8395134494598
 51
253.1084194600749
 73
     0
 72
     1
 10
1182.498182690814
 20
295.276617298373
 11
1182.498182690814
 21
298.0594577519578
 72
     2
 10
1183.748182690814
 20
291.1602082180524
 40
7.01157215830328
 50
100.2693989666618
 51
226.1011846554895
 73
     1
 72
     1
 10
1178.886450198106
 20
286.1079115818244
 11
1178.886450198106
 21
277.4897861278944
 72
     2
 10
1183.748182690814
 20
277.4897861278944
 40
4.861732492708049
 50
180.0
 51
255.1013518888142
 73
     1
 72
     1
 10
1182.498182690814
 20
272.7914946479356
 11
1182.498182690814
 21
275.3737615637314
 97
        0
 92
        0
 93
        4
 72
     2
 10
1183.748182690814
 20
285.495300498465
 40
15.00000000000005
 50
274.7801918471999
 51
445.2198081528016
 73
     0
 72
     1
 10
1184.998182690814
 20
270.5474745695882
 11
1184.998182690814
 21
266.7870135645953
 72
     2
 10
1183.748182690814
 20
285.495300498465
 40
18.75000000000004
 50
273.8225537292751
 51
446.1774462707265
 73
     1
 72
     1
 10
1184.998182690814
 20
304.2035874323348
 11
1184.998182690814
 21
300.4431264273418
 97
        0
 75
     0
 76
     1
 98
        1
 10
0.0
 20
0.0
  0
INSERT
  5
B5
330
90
100
AcDbEntity
  8
FORMAT
 62
     7
100
AcDbBlockReference
  2
SW_NOTE_0_1
 10
1161.2573325813
 20
238.6164694124
 30
0.0
  0
INSERT
  5
BD
330
90
100
AcDbEntity
  8
0
  6
Continuous
 62
     7
370
     0
100
AcDbBlockReference
  2
SW_NOTE_0_2
 10
1220.3615174893
 20
285.588009136
 30
0.0
  0
ENDBLK
  5
92
330
90
100
AcDbEntity
  8
0
100
AcDbBlockEnd
  0
BLOCK
  5
B1
330
B0
100
AcDbEntity
  8
0
100
AcDbBlockBegin
  2
SW_NOTE_0_1
 70
     0
 10
0.0
 20
0.0
 30
0.0
  3
SW_NOTE_0_1
  1

  0
MTEXT
  5
B4
330
B0
100
AcDbEntity
  8
FORMAT
 62
     0
100
AcDbMText
 10
0.0
 20
19.3259557344
 30
0.0
 40
15.0
 41
0.0
 71
     1
 72
     1
  1
ECO
  7
SLDTEXTSTYLE1
 73
     1
 44
1.0
  0
ENDBLK
  5
B2
330
B0
100
AcDbEntity
  8
0
100
AcDbBlockEnd
  0
BLOCK
  5
B7
330
B6
100
AcDbEntity
  8
0
100
AcDbBlockBegin
  2
SW_NOTE_0_2
 70
     0
 10
0.0
 20
0.0
 30
0.0
  3
SW_NOTE_0_2
  1

  0
MTEXT
  5
BA
330
B6
100
AcDbEntity
  8
0
  6
Continuous
 62
     0
370
     0
100
AcDbMText
 10
0.0
 20
16.1133467471
 30
0.0
 40
12.5
 41
0.0
 71
     1
 72
     1
  1
ECO Schulte GmbH & Co. KG
  7
SLDTEXTSTYLE2
 73
     1
 44
1.0
  0
MTEXT
  5
BB
330
B6
100
AcDbEntity
  8
0
  6
Continuous
 62
     0
370
     0
100
AcDbMText
 10
0.0
 20
-1.386653793
 30
0.0
 40
12.5
 41
0.0
 71
     1
 72
     1
  1
Postfach 206
  7
SLDTEXTSTYLE2
 73
     1
 44
1.0
  0
MTEXT
  5
BC
330
B6
100
AcDbEntity
  8
0
  6
Continuous
 62
     0
370
     0
100
AcDbMText
 10
0.0
 20
-18.8866543332
 30
0.0
 40
12.5
 41
0.0
 71
     1
 72
     1
  1
58682 Menden
  7
SLDTEXTSTYLE2
 73
     1
 44
1.0
  0
ENDBLK
  5
B8
330
B6
100
AcDbEntity
  8
0
100
AcDbBlockEnd
  0
BLOCK
  5
BF
330
BE
100
AcDbEntity
  8
0
100
AcDbBlockBegin
  2
rechtlicher_Hinweis_Katalogzeichnungen_1
 70
     0
 10
0.0
 20
0.0
 30
0.0
  3
rechtlicher_Hinweis_Katalogzeichnungen_1
  1

  0
INSERT
  5
CA
330
BE
100
AcDbEntity
  8
0
  6
Continuous
 62
     7
370
     0
100
AcDbBlockReference
  2
SW_NOTE_0_3
 10
1.5548624737
 20
286.7878861786
 30
0.0
  0
ENDBLK
  5
C0
330
BE
100
AcDbEntity
  8
0
100
AcDbBlockEnd
  0
BLOCK
  5
C2
330
C1
100
AcDbEntity
  8
0
100
AcDbBlockBegin
  2
SW_NOTE_0_3
 70
     0
 10
0.0
 20
0.0
 30
0.0
  3
SW_NOTE_0_3
  1

  0
MTEXT
  5
C4
330
C1
100
AcDbEntity
  8
0
  6
Continuous
 62
     0
370
     0
100
AcDbMText
 10
0.0
 20
32.2266934943
 30
0.0
 40
25.0
 41
0.0
 71
     1
 72
     1
  1
Technische Änderungen und Irrtümer vorbehalten. Aus dem Gebrauch der Zeichnung können keinerlei Ansprüche (inkl. 
  7
SLDTEXTSTYLE0
 73
     1
 44
1.0
  0
MTEXT
  5
C5
330
C1
100
AcDbEntity
  8
0
  6
Continuous
 62
     0
370
     0
100
AcDbMText
 10
0.0
 20
-2.773307586
 30
0.0
 40
25.0
 41
0.0
 71
     1
 72
     1
  1
Schadenersatzansprüche) erhoben und gegen ECO Schulte geltend gemacht werden. Die Zeichnung bleibt unser 
  7
SLDTEXTSTYLE0
 73
     1
 44
1.0
  0
MTEXT
  5
C6
330
C1
100
AcDbEntity
  8
0
  6
Continuous
 62
     0
370
     0
100
AcDbMText
 10
0.0
 20
-37.7733086664
 30
0.0
 40
25.0
 41
0.0
 71
     1
 72
     1
  1
Eigentum. Sämtliche sich aus der Zeichnung ergebenden Ansprüche stehen ausschließlich ECO Schulte zu.
  7
SLDTEXTSTYLE0
 73
     1
 44
1.0
  0
MTEXT
  5
C7
330
C1
100
AcDbEntity
  8
0
  6
Continuous
 62
     0
370
     0
100
AcDbMText
 10
0.0
 20
-107.773310827
 30
0.0
 40
25.0
 41
0.0
 71
     1
 72
     1
  1
Technical changes and errors excepted. No claims (including compensation claims) may be raised against ECO Schulte by 
  7
SLDTEXTSTYLE0
 73
     1
 44
1.0
  0
MTEXT
  5
C8
330
C1
100
AcDbEntity
  8
0
  6
Continuous
 62
     0
370
     0
100
AcDbMText
 10
0.0
 20
-142.7733119074
 30
0.0
 40
25.0
 41
0.0
 71
     1
 72
     1
  1
using of this drawing. The drawing remains the property of ECO Schulte. All claims resulting from this drawing are solely 
  7
SLDTEXTSTYLE0
 73
     1
 44
1.0
  0
MTEXT
  5
C9
330
C1
100
AcDbEntity
  8
0
  6
Continuous
 62
     0
370
     0
100
AcDbMText
 10
0.0
 20
-177.7733129877
 30
0.0
 40
25.0
 41
0.0
 71
     1
 72
     1
  1
entitled to ECO Schulte.
  7
SLDTEXTSTYLE0
 73
     1
 44
1.0
  0
ENDBLK
  5
C3
330
C1
100
AcDbEntity
  8
0
100
AcDbBlockEnd
  0
BLOCK
  5
2B6
330
2B5
100
AcDbEntity
  8
0
100
AcDbBlockBegin
  2
_D
 70
     0
 10
0.0
 20
0.0
 30
0.0
  3
_D
  1

  0
ARC
  5
2B8
330
2B5
100
AcDbEntity
  8
FORMAT
100
AcDbCircle
 10
327.8565757211
 20
1026.4966586891
 30
0.0
 40
30.02775295949314
100
AcDbArc
 50
153.4349488229
 51
206.5650511771
  0
ARC
  5
2B9
330
2B5
100
AcDbEntity
  8
FORMAT
100
AcDbCircle
 10
314.2454639311
 20
1026.4966586891
 30
0.0
 40
30.02775295949314
100
AcDbArc
 50
333.4349488229
 51
26.5650511771
  0
SOLID
  5
2BA
330
2B5
100
AcDbEntity
  8
FORMAT
100
AcDbTrace
 10
226.5510204082
 20
1013.0678393233
 30
0.0
 11
243.0610204082
 21
1010.5278393233
 31
0.0
 12
243.0610204082
 22
1015.6078393233
 32
0.0
 13
243.0610204082
 23
1015.6078393233
 33
0.0
  0
SOLID
  5
2BB
330
2B5
100
AcDbEntity
  8
FORMAT
100
AcDbTrace
 10
415.5510204082
 20
1013.0678393233
 30
0.0
 11
399.0410204082
 21
1015.6078393233
 31
0.0
 12
399.0410204082
 22
1010.5278393233
 32
0.0
 13
399.0410204082
 23
1010.5278393233
 33
0.0
  0
LINE
  5
2BC
330
2B5
100
AcDbEntity
  8
FORMAT
100
AcDbLine
 10
415.5510204082
 20
1148.037755102
 30
0.0
 11
415.5510204082
 21
1008.0678393233
 31
0.0
  0
LINE
  5
2BD
330
2B5
100
AcDbEntity
  8
FORMAT
100
AcDbLine
 10
226.5510204082
 20
1013.0678393233
 30
0.0
 11
415.5510204082
 21
1013.0678393233
 31
0.0
  0
MTEXT
  5
2BE
330
2B5
100
AcDbEntity
  8
FORMAT
100
AcDbMText
 10
300.9989369895
 20
1035.6265259335
 30
0.0
 40
17.5
 41
0.0
 71
     1
 72
     1
  1
189
  7
SLDTEXTSTYLE0
 73
     1
 44
1.0
  0
ENDBLK
  5
2B7
330
2B5
100
AcDbEntity
  8
0
100
AcDbBlockEnd
  0
BLOCK
  5
2C1
330
2C0
100
AcDbEntity
  8
0
100
AcDbBlockBegin
  2
_D_1
 70
     0
 10
0.0
 20
0.0
 30
0.0
  3
_D_1
  1

  0
SOLID
  5
2C3
330
2C0
100
AcDbEntity
  8
FORMAT
100
AcDbTrace
 10
226.5510204082
 20
1322.537755102
 30
0.0
 11
243.0610204082
 21
1319.997755102
 31
0.0
 12
243.0610204082
 22
1325.077755102
 32
0.0
 13
243.0610204082
 23
1325.077755102
 33
0.0
  0
SOLID
  5
2C4
330
2C0
100
AcDbEntity
  8
FORMAT
100
AcDbTrace
 10
311.0510204082
 20
1322.537755102
 30
0.0
 11
294.5410204082
 21
1325.077755102
 31
0.0
 12
294.5410204082
 22
1319.997755102
 32
0.0
 13
294.5410204082
 23
1319.997755102
 33
0.0
  0
LINE
  5
2C5
330
2C0
100
AcDbEntity
  8
FORMAT
100
AcDbLine
 10
226.5510204082
 20
1081.3855285775
 30
0.0
 11
226.5510204082
 21
1327.537755102
 31
0.0
  0
LINE
  5
2C6
330
2C0
100
AcDbEntity
  8
FORMAT
100
AcDbLine
 10
311.0510204082
 20
1220.037755102
 30
0.0
 11
311.0510204082
 21
1327.537755102
 31
0.0
  0
LINE
  5
2C7
330
2C0
100
AcDbEntity
  8
FORMAT
100
AcDbLine
 10
226.5510204082
 20
1322.537755102
 30
0.0
 11
311.0510204082
 21
1322.537755102
 31
0.0
  0
MTEXT
  5
2C8
330
2C0
100
AcDbEntity
  8
FORMAT
100
AcDbMText
 10
245.4069237654
 20
1345.0964417122
 30
0.0
 40
17.5
 41
0.0
 71
     1
 72
     1
  1
84,5
  7
SLDTEXTSTYLE0
 73
     1
 44
1.0
  0
ENDBLK
  5
2C2
330
2C0
100
AcDbEntity
  8
0
100
AcDbBlockEnd
  0
BLOCK
  5
2CB
330
2CA
100
AcDbEntity
  8
0
100
AcDbBlockBegin
  2
_D_2
 70
     0
 10
0.0
 20
0.0
 30
0.0
  3
_D_2
  1

  0
SOLID
  5
2CD
330
2CA
100
AcDbEntity
  8
FORMAT
100
AcDbTrace
 10
311.0510204082
 20
1322.537755102
 30
0.0
 11
327.5610204082
 21
1319.997755102
 31
0.0
 12
327.5610204082
 22
1325.077755102
 32
0.0
 13
327.5610204082
 23
1325.077755102
 33
0.0
  0
SOLID
  5
2CE
330
2CA
100
AcDbEntity
  8
FORMAT
100
AcDbTrace
 10
1109.5510204082
 20
1322.537755102
 30
0.0
 11
1093.0410204082
 21
1325.077755102
 31
0.0
 12
1093.0410204082
 22
1319.997755102
 32
0.0
 13
1093.0410204082
 23
1319.997755102
 33
0.0
  0
LINE
  5
2CF
330
2CA
100
AcDbEntity
  8
FORMAT
100
AcDbLine
 10
311.0510204082
 20
1220.037755102
 30
0.0
 11
311.0510204082
 21
1327.537755102
 31
0.0
  0
LINE
  5
2D0
330
2CA
100
AcDbEntity
  8
FORMAT
100
AcDbLine
 10
1109.5510204082
 20
1220.037755102
 30
0.0
 11
1109.5510204082
 21
1327.537755102
 31
0.0
  0
LINE
  5
2D1
330
2CA
100
AcDbEntity
  8
FORMAT
100
AcDbLine
 10
311.0510204082
 20
1322.537755102
 30
0.0
 11
1109.5510204082
 21
1322.537755102
 31
0.0
  0
MTEXT
  5
2D2
330
2CA
100
AcDbEntity
  8
FORMAT
100
AcDbMText
 10
680.2228961532
 20
1345.0964417122
 30
0.0
 40
17.5
 41
0.0
 71
     1
 72
     1
  1
798,5
  7
SLDTEXTSTYLE0
 73
     1
 44
1.0
  0
ENDBLK
  5
2CC
330
2CA
100
AcDbEntity
  8
0
100
AcDbBlockEnd
  0
BLOCK
  5
318
330
317
100
AcDbEntity
  8
0
100
AcDbBlockBegin
  2
_D_3
 70
     0
 10
0.0
 20
0.0
 30
0.0
  3
_D_3
  1

  0
SOLID
  5
31A
330
317
100
AcDbEntity
  8
FORMAT
100
AcDbTrace
 10
226.5510204082
 20
481.5773790702
 30
0.0
 11
243.0610204082
 21
479.0373790702
 31
0.0
 12
243.0610204082
 22
484.1173790702
 32
0.0
 13
243.0610204082
 23
484.1173790702
 33
0.0
  0
SOLID
  5
31B
330
317
100
AcDbEntity
  8
FORMAT
100
AcDbTrace
 10
368.5510204082
 20
481.5773790702
 30
0.0
 11
352.0410204082
 21
484.1173790702
 31
0.0
 12
352.0410204082
 22
479.0373790702
 32
0.0
 13
352.0410204082
 23
479.0373790702
 33
0.0
  0
LINE
  5
31C
330
317
100
AcDbEntity
  8
FORMAT
100
AcDbLine
 10
368.5510204082
 20
557.6091836735
 30
0.0
 11
368.5510204082
 21
476.5773790702
 31
0.0
  0
LINE
  5
31D
330
317
100
AcDbEntity
  8
FORMAT
100
AcDbLine
 10
226.5510204082
 20
481.5773790702
 30
0.0
 11
368.5510204082
 21
481.5773790702
 31
0.0
  0
MTEXT
  5
31E
330
317
100
AcDbEntity
  8
FORMAT
100
AcDbMText
 10
277.4989375715
 20
504.1360656804
 30
0.0
 40
17.5
 41
0.0
 71
     1
 72
     1
  1
142
  7
SLDTEXTSTYLE0
 73
     1
 44
1.0
  0
ENDBLK
  5
319
330
317
100
AcDbEntity
  8
0
100
AcDbBlockEnd
  0
BLOCK
  5
322
330
321
100
AcDbEntity
  8
0
100
AcDbBlockBegin
  2
_D_4
 70
     0
 10
0.0
 20
0.0
 30
0.0
  3
_D_4
  1

  0
SOLID
  5
324
330
321
100
AcDbEntity
  8
FORMAT
100
AcDbTrace
 10
368.5510204082
 20
481.5773790702
 30
0.0
 11
385.0610204082
 21
479.0373790702
 31
0.0
 12
385.0610204082
 22
484.1173790702
 32
0.0
 13
385.0610204082
 23
484.1173790702
 33
0.0
  0
SOLID
  5
325
330
321
100
AcDbEntity
  8
FORMAT
100
AcDbTrace
 10
528.5510204082
 20
481.5773790702
 30
0.0
 11
512.0410204082
 21
484.1173790702
 31
0.0
 12
512.0410204082
 22
479.0373790702
 32
0.0
 13
512.0410204082
 23
479.0373790702
 33
0.0
  0
LINE
  5
326
330
321
100
AcDbEntity
  8
FORMAT
100
AcDbLine
 10
368.5510204082
 20
557.6091836735
 30
0.0
 11
368.5510204082
 21
476.5773790702
 31
0.0
  0
LINE
  5
327
330
321
100
AcDbEntity
  8
FORMAT
100
AcDbLine
 10
528.5510204082
 20
557.6091836735
 30
0.0
 11
528.5510204082
 21
476.5773790702
 31
0.0
  0
LINE
  5
328
330
321
100
AcDbEntity
  8
FORMAT
100
AcDbLine
 10
368.5510204082
 20
481.5773790702
 30
0.0
 11
528.5510204082
 21
481.5773790702
 31
0.0
  0
MTEXT
  5
329
330
321
100
AcDbEntity
  8
FORMAT
100
AcDbMText
 10
428.4989375715
 20
504.1360656804
 30
0.0
 40
17.5
 41
0.0
 71
     1
 72
     1
  1
160
  7
SLDTEXTSTYLE0
 73
     1
 44
1.0
  0
ENDBLK
  5
323
330
321
100
AcDbEntity
  8
0
100
AcDbBlockEnd
  0
BLOCK
  5
32D
330
32C
100
AcDbEntity
  8
0
100
AcDbBlockBegin
  2
_D_5
 70
     0
 10
0.0
 20
0.0
 30
0.0
  3
_D_5
  1

  0
SOLID
  5
32F
330
32C
100
AcDbEntity
  8
FORMAT
100
AcDbTrace
 10
570.2571412624
 20
567.2091836735
 30
0.0
 11
567.7171412624
 21
550.6991836735
 31
0.0
 12
572.7971412624
 22
550.6991836735
 32
0.0
 13
572.7971412624
 23
550.6991836735
 33
0.0
  0
SOLID
  5
330
330
32C
100
AcDbEntity
  8
FORMAT
100
AcDbTrace
 10
570.2571412624
 20
583.2091836735
 30
0.0
 11
572.7971412624
 21
599.7191836735
 31
0.0
 12
567.7171412624
 22
599.7191836735
 32
0.0
 13
567.7171412624
 23
599.7191836735
 33
0.0
  0
LINE
  5
331
330
32C
100
AcDbEntity
  8
FORMAT
100
AcDbLine
 10
538.1510204082
 20
567.2091836735
 30
0.0
 11
575.2571412624
 21
567.2091836735
 31
0.0
  0
LINE
  5
332
330
32C
100
AcDbEntity
  8
FORMAT
100
AcDbLine
 10
538.1510204082
 20
583.2091836735
 30
0.0
 11
575.2571412624
 21
583.2091836735
 31
0.0
  0
LINE
  5
333
330
32C
100
AcDbEntity
  8
FORMAT
100
AcDbLine
 10
570.2571412624
 20
567.2091836735
 30
0.0
 11
570.2571412624
 21
489.9937298371
 31
0.0
  0
LINE
  5
334
330
32C
100
AcDbEntity
  8
FORMAT
100
AcDbLine
 10
570.2571412624
 20
567.2091836735
 30
0.0
 11
570.2571412624
 21
583.2091836735
 31
0.0
  0
LINE
  5
335
330
32C
100
AcDbEntity
  8
FORMAT
100
AcDbLine
 10
570.2571412624
 20
583.2091836735
 30
0.0
 11
570.2571412624
 21
614.9591836735
 31
0.0
  0
MTEXT
  5
336
330
32C
100
AcDbEntity
  8
FORMAT
100
AcDbMText
 10
547.6984546522
 20
489.9937298371
 30
0.0
 40
17.5
 41
0.0
 71
     1
 72
     1
  1
16
  7
SLDTEXTSTYLE0
 11
6.123233995736766E-17
 21
1.0
 31
0.0
 73
     1
 44
1.0
  0
ENDBLK
  5
32E
330
32C
100
AcDbEntity
  8
0
100
AcDbBlockEnd
  0
BLOCK
  5
33A
330
339
100
AcDbEntity
  8
0
100
AcDbBlockBegin
  2
_D_6
 70
     0
 10
0.0
 20
0.0
 30
0.0
  3
_D_6
  1

  0
SOLID
  5
33C
330
339
100
AcDbEntity
  8
FORMAT
100
AcDbTrace
 10
635.1848657731
 20
583.2091836735
 30
0.0
 11
632.6448657731
 21
566.6991836735
 31
0.0
 12
637.7248657731
 22
566.6991836735
 32
0.0
 13
637.7248657731
 23
566.6991836735
 33
0.0
  0
SOLID
  5
33D
330
339
100
AcDbEntity
  8
FORMAT
100
AcDbTrace
 10
635.1848657731
 20
625.2091836735
 30
0.0
 11
637.7248657731
 21
641.7191836735
 31
0.0
 12
632.6448657731
 22
641.7191836735
 32
0.0
 13
632.6448657731
 23
641.7191836735
 33
0.0
  0
LINE
  5
33E
330
339
100
AcDbEntity
  8
FORMAT
100
AcDbLine
 10
538.1510204082
 20
583.2091836735
 30
0.0
 11
640.1848657731
 21
583.2091836735
 31
0.0
  0
LINE
  5
33F
330
339
100
AcDbEntity
  8
FORMAT
100
AcDbLine
 10
635.1848657731
 20
583.2091836735
 30
0.0
 11
635.1848657731
 21
489.9937298371
 31
0.0
  0
LINE
  5
340
330
339
100
AcDbEntity
  8
FORMAT
100
AcDbLine
 10
635.1848657731
 20
583.2091836735
 30
0.0
 11
635.1848657731
 21
625.2091836735
 31
0.0
  0
LINE
  5
341
330
339
100
AcDbEntity
  8
FORMAT
100
AcDbLine
 10
635.1848657731
 20
625.2091836735
 30
0.0
 11
635.1848657731
 21
656.9591836735
 31
0.0
  0
MTEXT
  5
342
330
339
100
AcDbEntity
  8
FORMAT
100
AcDbMText
 10
612.6261791629
 20
489.9937298371
 30
0.0
 40
17.5
 41
0.0
 71
     1
 72
     1
  1
42
  7
SLDTEXTSTYLE0
 11
6.123233995736766E-17
 21
1.0
 31
0.0
 73
     1
 44
1.0
  0
ENDBLK
  5
33B
330
339
100
AcDbEntity
  8
0
100
AcDbBlockEnd
  0
BLOCK
  5
346
330
345
100
AcDbEntity
  8
0
100
AcDbBlockBegin
  2
_D_7
 70
     0
 10
0.0
 20
0.0
 30
0.0
  3
_D_7
  1

  0
SOLID
  5
348
330
345
100
AcDbEntity
  8
FORMAT
100
AcDbTrace
 10
1076.5510204082
 20
718.4990950422
 30
0.0
 11
1060.0410204082
 21
721.0390950422
 31
0.0
 12
1060.0410204082
 22
715.9590950422
 32
0.0
 13
1060.0410204082
 23
715.9590950422
 33
0.0
  0
SOLID
  5
349
330
345
100
AcDbEntity
  8
FORMAT
100
AcDbTrace
 10
1092.5510204082
 20
718.4990950422
 30
0.0
 11
1109.0610204082
 21
715.9590950422
 31
0.0
 12
1109.0610204082
 22
721.0390950422
 32
0.0
 13
1109.0610204082
 23
721.0390950422
 33
0.0
  0
LINE
  5
34A
330
345
100
AcDbEntity
  8
FORMAT
100
AcDbLine
 10
1076.5510204082
 20
660.4091836735
 30
0.0
 11
1076.5510204082
 21
723.4990950422
 31
0.0
  0
LINE
  5
34B
330
345
100
AcDbEntity
  8
FORMAT
100
AcDbLine
 10
1092.5510204082
 20
660.4091836735
 30
0.0
 11
1092.5510204082
 21
723.4990950422
 31
0.0
  0
LINE
  5
34C
330
345
100
AcDbEntity
  8
FORMAT
100
AcDbLine
 10
1076.5510204082
 20
718.4990950422
 30
0.0
 11
1044.8010204082
 21
718.4990950422
 31
0.0
  0
LINE
  5
34D
330
345
100
AcDbEntity
  8
FORMAT
100
AcDbLine
 10
1076.5510204082
 20
718.4990950422
 30
0.0
 11
1092.5510204082
 21
718.4990950422
 31
0.0
  0
LINE
  5
34E
330
345
100
AcDbEntity
  8
FORMAT
100
AcDbLine
 10
1092.5510204082
 20
718.4990950422
 30
0.0
 11
1140.052483379
 21
718.4990950422
 31
0.0
  0
MTEXT
  5
34F
330
345
100
AcDbEntity
  8
FORMAT
100
AcDbMText
 10
1113.3163729302
 20
741.0577816524
 30
0.0
 40
17.5
 41
0.0
 71
     1
 72
     1
  1
16
  7
SLDTEXTSTYLE0
 73
     1
 44
1.0
  0
ENDBLK
  5
347
330
345
100
AcDbEntity
  8
0
100
AcDbBlockEnd
  0
BLOCK
  5
352
330
351
100
AcDbEntity
  8
0
100
AcDbBlockBegin
  2
_D_8
 70
     0
 10
0.0
 20
0.0
 30
0.0
  3
_D_8
  1

  0
SOLID
  5
354
330
351
100
AcDbEntity
  8
FORMAT
100
AcDbTrace
 10
1187.2808205578
 20
646.9091836735
 30
0.0
 11
1184.7408205578
 21
630.3991836735
 31
0.0
 12
1189.8208205578
 22
630.3991836735
 32
0.0
 13
1189.8208205578
 23
630.3991836735
 33
0.0
  0
SOLID
  5
355
330
351
100
AcDbEntity
  8
FORMAT
100
AcDbTrace
 10
1187.2808205578
 20
661.9091836735
 30
0.0
 11
1189.8208205578
 21
678.4191836735
 31
0.0
 12
1184.7408205578
 22
678.4191836735
 32
0.0
 13
1184.7408205578
 23
678.4191836735
 33
0.0
  0
LINE
  5
356
330
351
100
AcDbEntity
  8
FORMAT
100
AcDbLine
 10
1106.0510204082
 20
646.9091836735
 30
0.0
 11
1192.2808205578
 21
646.9091836735
 31
0.0
  0
LINE
  5
357
330
351
100
AcDbEntity
  8
FORMAT
100
AcDbLine
 10
1106.0510204082
 20
661.9091836735
 30
0.0
 11
1192.2808205578
 21
661.9091836735
 31
0.0
  0
LINE
  5
358
330
351
100
AcDbEntity
  8
FORMAT
100
AcDbLine
 10
1187.2808205578
 20
646.9091836735
 30
0.0
 11
1187.2808205578
 21
615.1591836735
 31
0.0
  0
LINE
  5
359
330
351
100
AcDbEntity
  8
FORMAT
100
AcDbLine
 10
1187.2808205578
 20
646.9091836735
 30
0.0
 11
1187.2808205578
 21
661.9091836735
 31
0.0
  0
LINE
  5
35A
330
351
100
AcDbEntity
  8
FORMAT
100
AcDbLine
 10
1187.2808205578
 20
661.9091836735
 30
0.0
 11
1187.2808205578
 21
731.8671502666
 31
0.0
  0
MTEXT
  5
35B
330
351
100
AcDbEntity
  8
FORMAT
100
AcDbMText
 10
1164.7221339476
 20
705.1310398178
 30
0.0
 40
17.5
 41
0.0
 71
     1
 72
     1
  1
15
  7
SLDTEXTSTYLE0
 11
6.123233995736766E-17
 21
1.0
 31
0.0
 73
     1
 44
1.0
  0
ENDBLK
  5
353
330
351
100
AcDbEntity
  8
0
100
AcDbBlockEnd
  0
BLOCK
  5
35E
330
35D
100
AcDbEntity
  8
0
100
AcDbBlockBegin
  2
_D_9
 70
     0
 10
0.0
 20
0.0
 30
0.0
  3
_D_9
  1

  0
SOLID
  5
360
330
35D
100
AcDbEntity
  8
FORMAT
100
AcDbTrace
 10
1319.2278748411
 20
625.2091836735
 30
0.0
 11
1316.6878748411
 21
608.6991836735
 31
0.0
 12
1321.7678748411
 22
608.6991836735
 32
0.0
 13
1321.7678748411
 23
608.6991836735
 33
0.0
  0
SOLID
  5
361
330
35D
100
AcDbEntity
  8
FORMAT
100
AcDbTrace
 10
1319.2278748411
 20
646.9091836735
 30
0.0
 11
1321.7678748411
 21
663.4191836735
 31
0.0
 12
1316.6878748411
 22
663.4191836735
 32
0.0
 13
1316.6878748411
 23
663.4191836735
 33
0.0
  0
LINE
  5
362
330
35D
100
AcDbEntity
  8
FORMAT
100
AcDbLine
 10
1194.0510204082
 20
625.2091836735
 30
0.0
 11
1324.2278748411
 21
625.2091836735
 31
0.0
  0
LINE
  5
363
330
35D
100
AcDbEntity
  8
FORMAT
100
AcDbLine
 10
1106.0510204082
 20
646.9091836735
 30
0.0
 11
1324.2278748411
 21
646.9091836735
 31
0.0
  0
LINE
  5
364
330
35D
100
AcDbEntity
  8
FORMAT
100
AcDbLine
 10
1319.2278748411
 20
625.2091836735
 30
0.0
 11
1319.2278748411
 21
553.4017197904
 31
0.0
  0
LINE
  5
365
330
35D
100
AcDbEntity
  8
FORMAT
100
AcDbLine
 10
1319.2278748411
 20
625.2091836735
 30
0.0
 11
1319.2278748411
 21
646.9091836735
 31
0.0
  0
LINE
  5
366
330
35D
100
AcDbEntity
  8
FORMAT
100
AcDbLine
 10
1319.2278748411
 20
646.9091836735
 30
0.0
 11
1319.2278748411
 21
678.6591836735
 31
0.0
  0
MTEXT
  5
367
330
35D
100
AcDbEntity
  8
FORMAT
100
AcDbMText
 10
1296.6691882309
 20
553.4017197904
 30
0.0
 40
17.5
 41
0.0
 71
     1
 72
     1
  1
21,7
  7
SLDTEXTSTYLE0
 11
6.123233995736766E-17
 21
1.0
 31
0.0
 73
     1
 44
1.0
  0
ENDBLK
  5
35F
330
35D
100
AcDbEntity
  8
0
100
AcDbBlockEnd
  0
BLOCK
  5
36A
330
369
100
AcDbEntity
  8
0
100
AcDbBlockBegin
  2
_D_10
 70
     0
 10
0.0
 20
0.0
 30
0.0
  3
_D_10
  1

  0
SOLID
  5
36C
330
369
100
AcDbEntity
  8
FORMAT
100
AcDbTrace
 10
226.5510204082
 20
790.1466081004
 30
0.0
 11
243.0610204082
 21
787.6066081004
 31
0.0
 12
243.0610204082
 22
792.6866081004
 32
0.0
 13
243.0610204082
 23
792.6866081004
 33
0.0
  0
SOLID
  5
36D
330
369
100
AcDbEntity
  8
FORMAT
100
AcDbTrace
 10
1076.5510204082
 20
790.1466081004
 30
0.0
 11
1060.0410204082
 21
792.6866081004
 31
0.0
 12
1060.0410204082
 22
787.6066081004
 32
0.0
 13
1060.0410204082
 23
787.6066081004
 33
0.0
  0
LINE
  5
36E
330
369
100
AcDbEntity
  8
FORMAT
100
AcDbLine
 10
226.5510204082
 20
538.827013771
 30
0.0
 11
226.5510204082
 21
795.1466081004
 31
0.0
  0
LINE
  5
36F
330
369
100
AcDbEntity
  8
FORMAT
100
AcDbLine
 10
1076.5510204082
 20
675.4091836735
 30
0.0
 11
1076.5510204082
 21
795.1466081004
 31
0.0
  0
LINE
  5
370
330
369
100
AcDbEntity
  8
FORMAT
100
AcDbLine
 10
226.5510204082
 20
790.1466081004
 30
0.0
 11
1076.5510204082
 21
790.1466081004
 31
0.0
  0
MTEXT
  5
371
330
369
100
AcDbEntity
  8
FORMAT
100
AcDbMText
 10
631.4989375715
 20
812.7052947106
 30
0.0
 40
17.5
 41
0.0
 71
     1
 72
     1
  1
850
  7
SLDTEXTSTYLE0
 73
     1
 44
1.0
  0
ENDBLK
  5
36B
330
369
100
AcDbEntity
  8
0
100
AcDbBlockEnd
  0
BLOCK
  5
374
330
373
100
AcDbEntity
  8
0
100
AcDbBlockBegin
  2
_D_11
 70
     0
 10
0.0
 20
0.0
 30
0.0
  3
_D_11
  1

  0
SOLID
  5
376
330
373
100
AcDbEntity
  8
FORMAT
100
AcDbTrace
 10
1070.5510204082
 20
584.2696323745
 30
0.0
 11
1054.0410204082
 21
586.8096323745
 31
0.0
 12
1054.0410204082
 22
581.7296323745
 32
0.0
 13
1054.0410204082
 23
581.7296323745
 33
0.0
  0
SOLID
  5
377
330
373
100
AcDbEntity
  8
FORMAT
100
AcDbTrace
 10
1082.5510204082
 20
584.2696323745
 30
0.0
 11
1099.0610204082
 21
581.7296323745
 31
0.0
 12
1099.0610204082
 22
586.8096323745
 32
0.0
 13
1099.0610204082
 23
586.8096323745
 33
0.0
  0
LINE
  5
378
330
373
100
AcDbEntity
  8
FORMAT
100
AcDbLine
 10
1070.5510204082
 20
641.9091836735
 30
0.0
 11
1070.5510204082
 21
579.2696323745
 31
0.0
  0
LINE
  5
379
330
373
100
AcDbEntity
  8
FORMAT
100
AcDbLine
 10
1082.5510204082
 20
641.9091836735
 30
0.0
 11
1082.5510204082
 21
579.2696323745
 31
0.0
  0
LINE
  5
37A
330
373
100
AcDbEntity
  8
FORMAT
100
AcDbLine
 10
1070.5510204082
 20
584.2696323745
 30
0.0
 11
996.0282009713
 21
584.2696323745
 31
0.0
  0
LINE
  5
37B
330
373
100
AcDbEntity
  8
FORMAT
100
AcDbLine
 10
1070.5510204082
 20
584.2696323745
 30
0.0
 11
1082.5510204082
 21
584.2696323745
 31
0.0
  0
LINE
  5
37C
330
373
100
AcDbEntity
  8
FORMAT
100
AcDbLine
 10
1082.5510204082
 20
584.2696323745
 30
0.0
 11
1114.3010204082
 21
584.2696323745
 31
0.0
  0
MTEXT
  5
37D
330
373
100
AcDbEntity
  8
FORMAT
100
AcDbMText
 10
996.0282009713
 20
606.8283178205
 30
0.0
 40
17.5
 41
0.0
 71
     1
 72
     1
  1
%%c
  7
SLDTEXTSTYLE0
 73
     1
 44
1.0
  0
MTEXT
  5
37E
330
373
100
AcDbEntity
  8
FORMAT
100
AcDbMText
 10
1021.5429586976
 20
606.8769293665
 30
0.0
 40
17.5
 41
0.0
 71
     1
 72
     1
  1
12
  7
SLDTEXTSTYLE0
 73
     1
 44
1.0
  0
ENDBLK
  5
375
330
373
100
AcDbEntity
  8
0
100
AcDbBlockEnd
  0
BLOCK
  5
381
330
380
100
AcDbEntity
  8
0
100
AcDbBlockBegin
  2
_D_12
 70
     0
 10
0.0
 20
0.0
 30
0.0
  3
_D_12
  1

  0
SOLID
  5
383
330
380
100
AcDbEntity
  8
FORMAT
100
AcDbTrace
 10
226.5510204082
 20
736.4883677104
 30
0.0
 11
243.0610204082
 21
733.9483677104
 31
0.0
 12
243.0610204082
 22
739.0283677104
 32
0.0
 13
243.0610204082
 23
739.0283677104
 33
0.0
  0
SOLID
  5
384
330
380
100
AcDbEntity
  8
FORMAT
100
AcDbTrace
 10
346.5510204082
 20
736.4883677104
 30
0.0
 11
330.0410204082
 21
739.0283677104
 31
0.0
 12
330.0410204082
 22
733.9483677104
 32
0.0
 13
330.0410204082
 23
733.9483677104
 33
0.0
  0
LINE
  5
385
330
380
100
AcDbEntity
  8
FORMAT
100
AcDbLine
 10
226.5510204082
 20
538.827013771
 30
0.0
 11
226.5510204082
 21
741.4883677104
 31
0.0
  0
LINE
  5
386
330
380
100
AcDbEntity
  8
FORMAT
100
AcDbLine
 10
346.5510204082
 20
647.9591836735
 30
0.0
 11
346.5510204082
 21
741.4883677104
 31
0.0
  0
LINE
  5
387
330
380
100
AcDbEntity
  8
FORMAT
100
AcDbLine
 10
226.5510204082
 20
736.4883677104
 30
0.0
 11
346.5510204082
 21
736.4883677104
 31
0.0
  0
MTEXT
  5
388
330
380
100
AcDbEntity
  8
FORMAT
100
AcDbMText
 10
266.4989375715
 20
759.0470543206
 30
0.0
 40
17.5
 41
0.0
 71
     1
 72
     1
  1
120
  7
SLDTEXTSTYLE0
 73
     1
 44
1.0
  0
ENDBLK
  5
382
330
380
100
AcDbEntity
  8
0
100
AcDbBlockEnd
  0
BLOCK
  5
38B
330
38A
100
AcDbEntity
  8
0
100
AcDbBlockBegin
  2
_D_13
 70
     0
 10
0.0
 20
0.0
 30
0.0
  3
_D_13
  1

  0
SOLID
  5
38D
330
38A
100
AcDbEntity
  8
FORMAT
100
AcDbTrace
 10
346.5510204082
 20
736.4883677104
 30
0.0
 11
363.0610204082
 21
733.9483677104
 31
0.0
 12
363.0610204082
 22
739.0283677104
 32
0.0
 13
363.0610204082
 23
739.0283677104
 33
0.0
  0
SOLID
  5
38E
330
38A
100
AcDbEntity
  8
FORMAT
100
AcDbTrace
 10
775.0510204082
 20
736.4883677104
 30
0.0
 11
758.5410204082
 21
739.0283677104
 31
0.0
 12
758.5410204082
 22
733.9483677104
 32
0.0
 13
758.5410204082
 23
733.9483677104
 33
0.0
  0
LINE
  5
38F
330
38A
100
AcDbEntity
  8
FORMAT
100
AcDbLine
 10
346.5510204082
 20
647.9591836735
 30
0.0
 11
346.5510204082
 21
741.4883677104
 31
0.0
  0
LINE
  5
390
330
38A
100
AcDbEntity
  8
FORMAT
100
AcDbLine
 10
775.0510204082
 20
647.9591836735
 30
0.0
 11
775.0510204082
 21
741.4883677104
 31
0.0
  0
LINE
  5
391
330
38A
100
AcDbEntity
  8
FORMAT
100
AcDbLine
 10
346.5510204082
 20
736.4883677104
 30
0.0
 11
775.0510204082
 21
736.4883677104
 31
0.0
  0
MTEXT
  5
392
330
38A
100
AcDbEntity
  8
FORMAT
100
AcDbMText
 10
530.7228961532
 20
759.0470543206
 30
0.0
 40
17.5
 41
0.0
 71
     1
 72
     1
  1
428,5
  7
SLDTEXTSTYLE0
 73
     1
 44
1.0
  0
ENDBLK
  5
38C
330
38A
100
AcDbEntity
  8
0
100
AcDbBlockEnd
  0
BLOCK
  5
395
330
394
100
AcDbEntity
  8
0
100
AcDbBlockBegin
  2
_D_14
 70
     0
 10
0.0
 20
0.0
 30
0.0
  3
_D_14
  1

  0
SOLID
  5
397
330
394
100
AcDbEntity
  8
FORMAT
100
AcDbTrace
 10
829.8188793654
 20
625.2091836735
 30
0.0
 11
827.2788793654
 21
608.6991836735
 31
0.0
 12
832.3588793654
 22
608.6991836735
 32
0.0
 13
832.3588793654
 23
608.6991836735
 33
0.0
  0
SOLID
  5
398
330
394
100
AcDbEntity
  8
FORMAT
100
AcDbTrace
 10
829.8188793654
 20
635.2091836735
 30
0.0
 11
832.3588793654
 21
651.7191836735
 31
0.0
 12
827.2788793654
 22
651.7191836735
 32
0.0
 13
827.2788793654
 23
651.7191836735
 33
0.0
  0
LINE
  5
399
330
394
100
AcDbEntity
  8
FORMAT
100
AcDbLine
 10
787.8010204082
 20
635.2091836735
 30
0.0
 11
834.8188793654
 21
635.2091836735
 31
0.0
  0
LINE
  5
39A
330
394
100
AcDbEntity
  8
FORMAT
100
AcDbLine
 10
829.8188793654
 20
625.2091836735
 30
0.0
 11
829.8188793654
 21
554.6332023584
 31
0.0
  0
LINE
  5
39B
330
394
100
AcDbEntity
  8
FORMAT
100
AcDbLine
 10
829.8188793654
 20
625.2091836735
 30
0.0
 11
829.8188793654
 21
635.2091836735
 31
0.0
  0
LINE
  5
39C
330
394
100
AcDbEntity
  8
FORMAT
100
AcDbLine
 10
829.8188793654
 20
635.2091836735
 30
0.0
 11
829.8188793654
 21
666.9591836735
 31
0.0
  0
MTEXT
  5
39D
330
394
100
AcDbEntity
  8
FORMAT
100
AcDbMText
 10
807.2601927552
 20
554.6332023584
 30
0.0
 40
17.5
 41
0.0
 71
     1
 72
     1
  1
10
  7
SLDTEXTSTYLE0
 11
6.123233995736766E-17
 21
1.0
 31
0.0
 73
     1
 44
1.0
  0
ENDBLK
  5
396
330
394
100
AcDbEntity
  8
0
100
AcDbBlockEnd
  0
BLOCK
  5
39F
330
39E
100
AcDbEntity
  8
0
100
AcDbBlockBegin
  2
SW_CENTERMARKSYMBOL_0
 70
     0
 10
0.0
 20
0.0
 30
0.0
  3
SW_CENTERMARKSYMBOL_0
  1

  0
LINE
  5
3A1
330
39E
100
AcDbEntity
  8
FORMAT
 62
     0
100
AcDbLine
 10
0.0
 20
0.0
 30
0.0
 11
0.0
 21
2.5
 31
0.0
  0
LINE
  5
3A2
330
39E
100
AcDbEntity
  8
FORMAT
 62
     0
100
AcDbLine
 10
0.0
 20
0.0
 30
0.0
 11
-2.5
 21
0.0
 31
0.0
  0
LINE
  5
3A3
330
39E
100
AcDbEntity
  8
FORMAT
 62
     0
100
AcDbLine
 10
0.0
 20
0.0
 30
0.0
 11
0.0
 21
-2.5
 31
0.0
  0
LINE
  5
3A4
330
39E
100
AcDbEntity
  8
FORMAT
 62
     0
100
AcDbLine
 10
0.0
 20
0.0
 30
0.0
 11
2.5
 21
0.0
 31
0.0
  0
LINE
  5
3A5
330
39E
100
AcDbEntity
  8
FORMAT
 62
     0
100
AcDbLine
 10
0.0
 20
2.5
 30
0.0
 11
0.0
 21
4.6
 31
0.0
  0
LINE
  5
3A6
330
39E
100
AcDbEntity
  8
FORMAT
 62
     0
100
AcDbLine
 10
-2.5
 20
0.0
 30
0.0
 11
-4.6
 21
0.0
 31
0.0
  0
LINE
  5
3A7
330
39E
100
AcDbEntity
  8
FORMAT
 62
     0
100
AcDbLine
 10
0.0
 20
-2.5
 30
0.0
 11
0.0
 21
-4.6
 31
0.0
  0
LINE
  5
3A8
330
39E
100
AcDbEntity
  8
FORMAT
 62
     0
100
AcDbLine
 10
2.5
 20
0.0
 30
0.0
 11
4.6
 21
0.0
 31
0.0
  0
ENDBLK
  5
3A0
330
39E
100
AcDbEntity
  8
0
100
AcDbBlockEnd
  0
BLOCK
  5
3AB
330
3AA
100
AcDbEntity
  8
0
100
AcDbBlockBegin
  2
SW_CENTERMARKSYMBOL_1
 70
     0
 10
0.0
 20
0.0
 30
0.0
  3
SW_CENTERMARKSYMBOL_1
  1

  0
LINE
  5
3AD
330
3AA
100
AcDbEntity
  8
FORMAT
 62
     0
100
AcDbLine
 10
0.0
 20
0.0
 30
0.0
 11
0.0
 21
2.5
 31
0.0
  0
LINE
  5
3AE
330
3AA
100
AcDbEntity
  8
FORMAT
 62
     0
100
AcDbLine
 10
0.0
 20
0.0
 30
0.0
 11
-2.5
 21
0.0
 31
0.0
  0
LINE
  5
3AF
330
3AA
100
AcDbEntity
  8
FORMAT
 62
     0
100
AcDbLine
 10
0.0
 20
0.0
 30
0.0
 11
0.0
 21
-2.5
 31
0.0
  0
LINE
  5
3B0
330
3AA
100
AcDbEntity
  8
FORMAT
 62
     0
100
AcDbLine
 10
0.0
 20
0.0
 30
0.0
 11
2.5
 21
0.0
 31
0.0
  0
LINE
  5
3B1
330
3AA
100
AcDbEntity
  8
FORMAT
 62
     0
100
AcDbLine
 10
0.0
 20
2.5
 30
0.0
 11
0.0
 21
4.6
 31
0.0
  0
LINE
  5
3B2
330
3AA
100
AcDbEntity
  8
FORMAT
 62
     0
100
AcDbLine
 10
-2.5
 20
0.0
 30
0.0
 11
-4.6
 21
0.0
 31
0.0
  0
LINE
  5
3B3
330
3AA
100
AcDbEntity
  8
FORMAT
 62
     0
100
AcDbLine
 10
0.0
 20
-2.5
 30
0.0
 11
0.0
 21
-4.6
 31
0.0
  0
LINE
  5
3B4
330
3AA
100
AcDbEntity
  8
FORMAT
 62
     0
100
AcDbLine
 10
2.5
 20
0.0
 30
0.0
 11
4.6
 21
0.0
 31
0.0
  0
ENDBLK
  5
3AC
330
3AA
100
AcDbEntity
  8
0
100
AcDbBlockEnd
  0
BLOCK
  5
3B7
330
3B6
100
AcDbEntity
  8
0
100
AcDbBlockBegin
  2
SW_CENTERMARKSYMBOL_2
 70
     0
 10
0.0
 20
0.0
 30
0.0
  3
SW_CENTERMARKSYMBOL_2
  1

  0
LINE
  5
3B9
330
3B6
100
AcDbEntity
  8
FORMAT
 62
     0
100
AcDbLine
 10
0.0
 20
0.0
 30
0.0
 11
0.0
 21
2.5
 31
0.0
  0
LINE
  5
3BA
330
3B6
100
AcDbEntity
  8
FORMAT
 62
     0
100
AcDbLine
 10
0.0
 20
0.0
 30
0.0
 11
-2.5
 21
0.0
 31
0.0
  0
LINE
  5
3BB
330
3B6
100
AcDbEntity
  8
FORMAT
 62
     0
100
AcDbLine
 10
0.0
 20
0.0
 30
0.0
 11
0.0
 21
-2.5
 31
0.0
  0
LINE
  5
3BC
330
3B6
100
AcDbEntity
  8
FORMAT
 62
     0
100
AcDbLine
 10
0.0
 20
0.0
 30
0.0
 11
2.5
 21
0.0
 31
0.0
  0
LINE
  5
3BD
330
3B6
100
AcDbEntity
  8
FORMAT
 62
     0
100
AcDbLine
 10
0.0
 20
2.5
 30
0.0
 11
0.0
 21
4.6
 31
0.0
  0
LINE
  5
3BE
330
3B6
100
AcDbEntity
  8
FORMAT
 62
     0
100
AcDbLine
 10
-2.5
 20
0.0
 30
0.0
 11
-4.6
 21
0.0
 31
0.0
  0
LINE
  5
3BF
330
3B6
100
AcDbEntity
  8
FORMAT
 62
     0
100
AcDbLine
 10
0.0
 20
-2.5
 30
0.0
 11
0.0
 21
-4.6
 31
0.0
  0
LINE
  5
3C0
330
3B6
100
AcDbEntity
  8
FORMAT
 62
     0
100
AcDbLine
 10
2.5
 20
0.0
 30
0.0
 11
4.6
 21
0.0
 31
0.0
  0
ENDBLK
  5
3B8
330
3B6
100
AcDbEntity
  8
0
100
AcDbBlockEnd
  0
BLOCK
  5
3C3
330
3C2
100
AcDbEntity
  8
0
100
AcDbBlockBegin
  2
SW_CENTERMARKSYMBOL_3
 70
     0
 10
0.0
 20
0.0
 30
0.0
  3
SW_CENTERMARKSYMBOL_3
  1

  0
LINE
  5
3C5
330
3C2
100
AcDbEntity
  8
FORMAT
 62
     0
100
AcDbLine
 10
0.0
 20
0.0
 30
0.0
 11
0.0
 21
2.5
 31
0.0
  0
LINE
  5
3C6
330
3C2
100
AcDbEntity
  8
FORMAT
 62
     0
100
AcDbLine
 10
0.0
 20
0.0
 30
0.0
 11
-2.5
 21
0.0
 31
0.0
  0
LINE
  5
3C7
330
3C2
100
AcDbEntity
  8
FORMAT
 62
     0
100
AcDbLine
 10
0.0
 20
0.0
 30
0.0
 11
0.0
 21
-2.5
 31
0.0
  0
LINE
  5
3C8
330
3C2
100
AcDbEntity
  8
FORMAT
 62
     0
100
AcDbLine
 10
0.0
 20
0.0
 30
0.0
 11
2.5
 21
0.0
 31
0.0
  0
LINE
  5
3C9
330
3C2
100
AcDbEntity
  8
FORMAT
 62
     0
100
AcDbLine
 10
0.0
 20
2.5
 30
0.0
 11
0.0
 21
4.6
 31
0.0
  0
LINE
  5
3CA
330
3C2
100
AcDbEntity
  8
FORMAT
 62
     0
100
AcDbLine
 10
-2.5
 20
0.0
 30
0.0
 11
-4.6
 21
0.0
 31
0.0
  0
LINE
  5
3CB
330
3C2
100
AcDbEntity
  8
FORMAT
 62
     0
100
AcDbLine
 10
0.0
 20
-2.5
 30
0.0
 11
0.0
 21
-4.6
 31
0.0
  0
LINE
  5
3CC
330
3C2
100
AcDbEntity
  8
FORMAT
 62
     0
100
AcDbLine
 10
2.5
 20
0.0
 30
0.0
 11
4.6
 21
0.0
 31
0.0
  0
ENDBLK
  5
3C4
330
3C2
100
AcDbEntity
  8
0
100
AcDbBlockEnd
  0
BLOCK
  5
3CF
330
3CE
100
AcDbEntity
  8
0
100
AcDbBlockBegin
  2
SW_CENTERMARKSYMBOL_4
 70
     0
 10
0.0
 20
0.0
 30
0.0
  3
SW_CENTERMARKSYMBOL_4
  1

  0
LINE
  5
3D1
330
3CE
100
AcDbEntity
  8
FORMAT
 62
     0
100
AcDbLine
 10
0.0
 20
0.0
 30
0.0
 11
0.0
 21
2.5
 31
0.0
  0
LINE
  5
3D2
330
3CE
100
AcDbEntity
  8
FORMAT
 62
     0
100
AcDbLine
 10
0.0
 20
0.0
 30
0.0
 11
-2.5
 21
0.0
 31
0.0
  0
LINE
  5
3D3
330
3CE
100
AcDbEntity
  8
FORMAT
 62
     0
100
AcDbLine
 10
0.0
 20
0.0
 30
0.0
 11
0.0
 21
-2.5
 31
0.0
  0
LINE
  5
3D4
330
3CE
100
AcDbEntity
  8
FORMAT
 62
     0
100
AcDbLine
 10
0.0
 20
0.0
 30
0.0
 11
2.5
 21
0.0
 31
0.0
  0
LINE
  5
3D5
330
3CE
100
AcDbEntity
  8
FORMAT
 62
     0
100
AcDbLine
 10
0.0
 20
5.0
 30
0.0
 11
0.0
 21
8.5
 31
0.0
  0
LINE
  5
3D6
330
3CE
100
AcDbEntity
  8
FORMAT
 62
     0
100
AcDbLine
 10
-5.0
 20
0.0
 30
0.0
 11
-8.5
 21
0.0
 31
0.0
  0
LINE
  5
3D7
330
3CE
100
AcDbEntity
  8
FORMAT
 62
     0
100
AcDbLine
 10
0.0
 20
-5.0
 30
0.0
 11
0.0
 21
-8.5
 31
0.0
  0
LINE
  5
3D8
330
3CE
100
AcDbEntity
  8
FORMAT
 62
     0
100
AcDbLine
 10
5.0
 20
0.0
 30
0.0
 11
8.5
 21
0.0
 31
0.0
  0
ENDBLK
  5
3D0
330
3CE
100
AcDbEntity
  8
0
100
AcDbBlockEnd
  0
BLOCK
  5
3DB
330
3DA
100
AcDbEntity
  8
0
100
AcDbBlockBegin
  2
SW_CENTERMARKSYMBOL_5
 70
     0
 10
0.0
 20
0.0
 30
0.0
  3
SW_CENTERMARKSYMBOL_5
  1

  0
LINE
  5
3DD
330
3DA
100
AcDbEntity
  8
FORMAT
 62
     0
100
AcDbLine
 10
0.0
 20
0.0
 30
0.0
 11
0.0
 21
2.5
 31
0.0
  0
LINE
  5
3DE
330
3DA
100
AcDbEntity
  8
FORMAT
 62
     0
100
AcDbLine
 10
0.0
 20
0.0
 30
0.0
 11
-2.5
 21
0.0
 31
0.0
  0
LINE
  5
3DF
330
3DA
100
AcDbEntity
  8
FORMAT
 62
     0
100
AcDbLine
 10
0.0
 20
0.0
 30
0.0
 11
0.0
 21
-2.5
 31
0.0
  0
LINE
  5
3E0
330
3DA
100
AcDbEntity
  8
FORMAT
 62
     0
100
AcDbLine
 10
0.0
 20
0.0
 30
0.0
 11
2.5
 21
0.0
 31
0.0
  0
LINE
  5
3E1
330
3DA
100
AcDbEntity
  8
FORMAT
 62
     0
100
AcDbLine
 10
0.0
 20
5.0
 30
0.0
 11
0.0
 21
8.5
 31
0.0
  0
LINE
  5
3E2
330
3DA
100
AcDbEntity
  8
FORMAT
 62
     0
100
AcDbLine
 10
-5.0
 20
0.0
 30
0.0
 11
-8.5
 21
0.0
 31
0.0
  0
LINE
  5
3E3
330
3DA
100
AcDbEntity
  8
FORMAT
 62
     0
100
AcDbLine
 10
0.0
 20
-5.0
 30
0.0
 11
0.0
 21
-8.5
 31
0.0
  0
LINE
  5
3E4
330
3DA
100
AcDbEntity
  8
FORMAT
 62
     0
100
AcDbLine
 10
5.0
 20
0.0
 30
0.0
 11
8.5
 21
0.0
 31
0.0
  0
ENDBLK
  5
3DC
330
3DA
100
AcDbEntity
  8
0
100
AcDbBlockEnd
  0
BLOCK
  5
3E7
330
3E6
100
AcDbEntity
  8
0
100
AcDbBlockBegin
  2
SW_CENTERMARKSYMBOL_6
 70
     0
 10
0.0
 20
0.0
 30
0.0
  3
SW_CENTERMARKSYMBOL_6
  1

  0
LINE
  5
3E9
330
3E6
100
AcDbEntity
  8
FORMAT
 62
     0
100
AcDbLine
 10
0.0
 20
0.0
 30
0.0
 11
0.0
 21
2.5
 31
0.0
  0
LINE
  5
3EA
330
3E6
100
AcDbEntity
  8
FORMAT
 62
     0
100
AcDbLine
 10
0.0
 20
0.0
 30
0.0
 11
-2.5
 21
0.0
 31
0.0
  0
LINE
  5
3EB
330
3E6
100
AcDbEntity
  8
FORMAT
 62
     0
100
AcDbLine
 10
0.0
 20
0.0
 30
0.0
 11
0.0
 21
-2.5
 31
0.0
  0
LINE
  5
3EC
330
3E6
100
AcDbEntity
  8
FORMAT
 62
     0
100
AcDbLine
 10
0.0
 20
0.0
 30
0.0
 11
2.5
 21
0.0
 31
0.0
  0
LINE
  5
3ED
330
3E6
100
AcDbEntity
  8
FORMAT
 62
     0
100
AcDbLine
 10
0.0
 20
5.0
 30
0.0
 11
0.0
 21
8.5
 31
0.0
  0
LINE
  5
3EE
330
3E6
100
AcDbEntity
  8
FORMAT
 62
     0
100
AcDbLine
 10
-5.0
 20
0.0
 30
0.0
 11
-8.5
 21
0.0
 31
0.0
  0
LINE
  5
3EF
330
3E6
100
AcDbEntity
  8
FORMAT
 62
     0
100
AcDbLine
 10
0.0
 20
-5.0
 30
0.0
 11
0.0
 21
-8.5
 31
0.0
  0
LINE
  5
3F0
330
3E6
100
AcDbEntity
  8
FORMAT
 62
     0
100
AcDbLine
 10
5.0
 20
0.0
 30
0.0
 11
8.5
 21
0.0
 31
0.0
  0
ENDBLK
  5
3E8
330
3E6
100
AcDbEntity
  8
0
100
AcDbBlockEnd
  0
BLOCK
  5
3F3
330
3F2
100
AcDbEntity
  8
0
100
AcDbBlockBegin
  2
SW_CENTERMARKSYMBOL_7
 70
     0
 10
0.0
 20
0.0
 30
0.0
  3
SW_CENTERMARKSYMBOL_7
  1

  0
LINE
  5
3F5
330
3F2
100
AcDbEntity
  8
FORMAT
 62
     0
100
AcDbLine
 10
0.0
 20
0.0
 30
0.0
 11
0.0
 21
2.5
 31
0.0
  0
LINE
  5
3F6
330
3F2
100
AcDbEntity
  8
FORMAT
 62
     0
100
AcDbLine
 10
0.0
 20
0.0
 30
0.0
 11
-2.5
 21
0.0
 31
0.0
  0
LINE
  5
3F7
330
3F2
100
AcDbEntity
  8
FORMAT
 62
     0
100
AcDbLine
 10
0.0
 20
0.0
 30
0.0
 11
0.0
 21
-2.5
 31
0.0
  0
LINE
  5
3F8
330
3F2
100
AcDbEntity
  8
FORMAT
 62
     0
100
AcDbLine
 10
0.0
 20
0.0
 30
0.0
 11
2.5
 21
0.0
 31
0.0
  0
LINE
  5
3F9
330
3F2
100
AcDbEntity
  8
FORMAT
 62
     0
100
AcDbLine
 10
0.0
 20
5.0
 30
0.0
 11
0.0
 21
8.5
 31
0.0
  0
LINE
  5
3FA
330
3F2
100
AcDbEntity
  8
FORMAT
 62
     0
100
AcDbLine
 10
-5.0
 20
0.0
 30
0.0
 11
-8.5
 21
0.0
 31
0.0
  0
LINE
  5
3FB
330
3F2
100
AcDbEntity
  8
FORMAT
 62
     0
100
AcDbLine
 10
0.0
 20
-5.0
 30
0.0
 11
0.0
 21
-8.5
 31
0.0
  0
LINE
  5
3FC
330
3F2
100
AcDbEntity
  8
FORMAT
 62
     0
100
AcDbLine
 10
5.0
 20
0.0
 30
0.0
 11
8.5
 21
0.0
 31
0.0
  0
ENDBLK
  5
3F4
330
3F2
100
AcDbEntity
  8
0
100
AcDbBlockEnd
  0
BLOCK
  5
3FF
330
3FE
100
AcDbEntity
  8
0
100
AcDbBlockBegin
  2
SW_CENTERMARKSYMBOL_8
 70
     0
 10
0.0
 20
0.0
 30
0.0
  3
SW_CENTERMARKSYMBOL_8
  1

  0
LINE
  5
401
330
3FE
100
AcDbEntity
  8
FORMAT
 62
     0
100
AcDbLine
 10
0.0
 20
0.0
 30
0.0
 11
0.0
 21
2.5
 31
0.0
  0
LINE
  5
402
330
3FE
100
AcDbEntity
  8
FORMAT
 62
     0
100
AcDbLine
 10
0.0
 20
0.0
 30
0.0
 11
-2.5
 21
0.0
 31
0.0
  0
LINE
  5
403
330
3FE
100
AcDbEntity
  8
FORMAT
 62
     0
100
AcDbLine
 10
0.0
 20
0.0
 30
0.0
 11
0.0
 21
-2.5
 31
0.0
  0
LINE
  5
404
330
3FE
100
AcDbEntity
  8
FORMAT
 62
     0
100
AcDbLine
 10
0.0
 20
0.0
 30
0.0
 11
2.5
 21
0.0
 31
0.0
  0
LINE
  5
405
330
3FE
100
AcDbEntity
  8
FORMAT
 62
     0
100
AcDbLine
 10
0.0
 20
5.0
 30
0.0
 11
0.0
 21
7.75
 31
0.0
  0
LINE
  5
406
330
3FE
100
AcDbEntity
  8
FORMAT
 62
     0
100
AcDbLine
 10
-5.0
 20
0.0
 30
0.0
 11
-7.75
 21
0.0
 31
0.0
  0
LINE
  5
407
330
3FE
100
AcDbEntity
  8
FORMAT
 62
     0
100
AcDbLine
 10
0.0
 20
-5.0
 30
0.0
 11
0.0
 21
-7.75
 31
0.0
  0
LINE
  5
408
330
3FE
100
AcDbEntity
  8
FORMAT
 62
     0
100
AcDbLine
 10
5.0
 20
0.0
 30
0.0
 11
7.75
 21
0.0
 31
0.0
  0
ENDBLK
  5
400
330
3FE
100
AcDbEntity
  8
0
100
AcDbBlockEnd
  0
BLOCK
  5
40B
330
40A
100
AcDbEntity
  8
0
100
AcDbBlockBegin
  2
SW_CENTERMARKSYMBOL_9
 70
     0
 10
0.0
 20
0.0
 30
0.0
  3
SW_CENTERMARKSYMBOL_9
  1

  0
LINE
  5
40D
330
40A
100
AcDbEntity
  8
FORMAT
 62
     0
100
AcDbLine
 10
0.0
 20
0.0
 30
0.0
 11
0.0
 21
2.5
 31
0.0
  0
LINE
  5
40E
330
40A
100
AcDbEntity
  8
FORMAT
 62
     0
100
AcDbLine
 10
0.0
 20
0.0
 30
0.0
 11
-2.5
 21
0.0
 31
0.0
  0
LINE
  5
40F
330
40A
100
AcDbEntity
  8
FORMAT
 62
     0
100
AcDbLine
 10
0.0
 20
0.0
 30
0.0
 11
0.0
 21
-2.5
 31
0.0
  0
LINE
  5
410
330
40A
100
AcDbEntity
  8
FORMAT
 62
     0
100
AcDbLine
 10
0.0
 20
0.0
 30
0.0
 11
2.5
 21
0.0
 31
0.0
  0
LINE
  5
411
330
40A
100
AcDbEntity
  8
FORMAT
 62
     0
100
AcDbLine
 10
0.0
 20
5.0
 30
0.0
 11
0.0
 21
7.75
 31
0.0
  0
LINE
  5
412
330
40A
100
AcDbEntity
  8
FORMAT
 62
     0
100
AcDbLine
 10
-5.0
 20
0.0
 30
0.0
 11
-7.75
 21
0.0
 31
0.0
  0
LINE
  5
413
330
40A
100
AcDbEntity
  8
FORMAT
 62
     0
100
AcDbLine
 10
0.0
 20
-5.0
 30
0.0
 11
0.0
 21
-7.75
 31
0.0
  0
LINE
  5
414
330
40A
100
AcDbEntity
  8
FORMAT
 62
     0
100
AcDbLine
 10
5.0
 20
0.0
 30
0.0
 11
7.75
 21
0.0
 31
0.0
  0
ENDBLK
  5
40C
330
40A
100
AcDbEntity
  8
0
100
AcDbBlockEnd
  0
BLOCK
  5
55B
330
55A
100
AcDbEntity
  8
0
100
AcDbBlockBegin
  2
SW_HATCH_0
 70
     0
 10
0.0
 20
0.0
 30
0.0
  3
SW_HATCH_0
  1

  0
LINE
  5
55D
330
55A
100
AcDbEntity
  8
0
  6
Continuous
 62
     0
370
    18
100
AcDbLine
 10
0.0
 20
0.0
 30
0.0
 11
7.0557627241
 21
7.0557627241
 31
0.0
  0
LINE
  5
55E
330
55A
100
AcDbEntity
  8
0
  6
Continuous
 62
     0
370
    18
100
AcDbLine
 10
-22.4506403027
 20
0.0
 30
0.0
 11
7.0557627241
 21
29.5064030267
 31
0.0
  0
LINE
  5
55F
330
55A
100
AcDbEntity
  8
0
  6
Continuous
 62
     0
370
    18
100
AcDbLine
 10
-64.9012806053
 20
-20.0
 30
0.0
 11
-52.9442372759
 21
-8.0429566706
 31
0.0
  0
LINE
  5
560
330
55A
100
AcDbEntity
  8
0
  6
Continuous
 62
     0
370
    18
100
AcDbLine
 10
-44.9012806053
 20
0.0
 30
0.0
 11
7.0557627241
 21
51.9570433294
 31
0.0
  0
LINE
  5
561
330
55A
100
AcDbEntity
  8
0
  6
Continuous
 62
     0
370
    18
100
AcDbLine
 10
-67.9442372759
 20
-0.5923163679
 30
0.0
 11
-2.351920908
 21
65.0
 31
0.0
  0
LINE
  5
562
330
55A
100
AcDbEntity
  8
0
  6
Continuous
 62
     0
370
    18
100
AcDbLine
 10
-67.9442372759
 20
21.8583239347
 30
0.0
 11
-24.8025612107
 21
65.0
 31
0.0
  0
LINE
  5
563
330
55A
100
AcDbEntity
  8
0
  6
Continuous
 62
     0
370
    18
100
AcDbLine
 10
-67.9442372759
 20
44.3089642374
 30
0.0
 11
-47.2532015134
 21
65.0
 31
0.0
  0
LINE
  5
564
330
55A
100
AcDbEntity
  8
0
  6
Continuous
 62
     0
370
    18
100
AcDbLine
 10
-15.3948775786
 20
-195.0
 30
0.0
 11
7.0557627241
 21
-172.5493596973
 31
0.0
  0
LINE
  5
565
330
55A
100
AcDbEntity
  8
0
  6
Continuous
 62
     0
370
    18
100
AcDbLine
 10
-37.8455178813
 20
-195.0
 30
0.0
 11
7.0557627241
 21
-150.0987193947
 31
0.0
  0
LINE
  5
566
330
55A
100
AcDbEntity
  8
0
  6
Continuous
 62
     0
370
    18
100
AcDbLine
 10
-47.9442372759
 20
-182.648079092
 30
0.0
 11
7.0557627241
 21
-127.648079092
 31
0.0
  0
LINE
  5
567
330
55A
100
AcDbEntity
  8
0
  6
Continuous
 62
     0
370
    18
100
AcDbLine
 10
-47.9442372759
 20
-160.1974387893
 30
0.0
 11
7.0557627241
 21
-105.1974387893
 31
0.0
  0
LINE
  5
568
330
55A
100
AcDbEntity
  8
0
  6
Continuous
 62
     0
370
    18
100
AcDbLine
 10
-47.9442372759
 20
-137.7467984866
 30
0.0
 11
7.0557627241
 21
-82.7467984866
 31
0.0
  0
LINE
  5
569
330
55A
100
AcDbEntity
  8
0
  6
Continuous
 62
     0
370
    18
100
AcDbLine
 10
-47.9442372759
 20
-115.296158184
 30
0.0
 11
7.0557627241
 21
-60.296158184
 31
0.0
  0
LINE
  5
56A
330
55A
100
AcDbEntity
  8
0
  6
Continuous
 62
     0
370
    18
100
AcDbLine
 10
-47.9442372759
 20
-92.8455178813
 30
0.0
 11
7.0557627241
 21
-37.8455178813
 31
0.0
  0
LINE
  5
56B
330
55A
100
AcDbEntity
  8
0
  6
Continuous
 62
     0
370
    18
100
AcDbLine
 10
-47.9442372759
 20
-70.3948775786
 30
0.0
 11
7.0557627241
 21
-15.3948775786
 31
0.0
  0
LINE
  5
56C
330
55A
100
AcDbEntity
  8
0
  6
Continuous
 62
     0
370
    18
100
AcDbLine
 10
-47.9442372759
 20
-47.9442372759
 30
0.0
 11
-5.0
 21
-5.0
 31
0.0
  0
LINE
  5
56D
330
55A
100
AcDbEntity
  8
0
  6
Continuous
 62
     0
370
    18
100
AcDbLine
 10
-47.9442372759
 20
-25.4935969733
 30
0.0
 11
-27.4506403027
 21
-5.0
 31
0.0
  0
LINE
  5
56E
330
55A
100
AcDbEntity
  8
0
  6
Continuous
 62
     0
370
    18
100
AcDbLine
 10
12.0557627241
 20
24.5064030267
 30
0.0
 11
8.5621657508
 21
28.0
 31
0.0
  0
LINE
  5
56F
330
55A
100
AcDbEntity
  8
0
  6
Continuous
 62
     0
370
    18
100
AcDbLine
 10
12.0557627241
 20
2.0557627241
 30
0.0
 11
7.0557627241
 21
7.0557627241
 31
0.0
  0
ENDBLK
  5
55C
330
55A
100
AcDbEntity
  8
0
100
AcDbBlockEnd
  0
BLOCK
  5
573
330
572
100
AcDbEntity
  8
0
100
AcDbBlockBegin
  2
_D_15
 70
     0
 10
0.0
 20
0.0
 30
0.0
  3
_D_15
  1

  0
SOLID
  5
575
330
572
100
AcDbEntity
  8
FORMAT
100
AcDbTrace
 10
1629.6497711912
 20
1283.2417792865
 30
0.0
 11
1613.1397711912
 21
1285.7817792865
 31
0.0
 12
1613.1397711912
 22
1280.7017792865
 32
0.0
 13
1613.1397711912
 23
1280.7017792865
 33
0.0
  0
SOLID
  5
576
330
572
100
AcDbEntity
  8
FORMAT
100
AcDbTrace
 10
1682.6497711912
 20
1283.2417792865
 30
0.0
 11
1699.1597711912
 21
1280.7017792865
 31
0.0
 12
1699.1597711912
 22
1285.7817792865
 32
0.0
 13
1699.1597711912
 23
1285.7817792865
 33
0.0
  0
LINE
  5
577
330
572
100
AcDbEntity
  8
FORMAT
100
AcDbLine
 10
1629.6497711912
 20
1247.537755102
 30
0.0
 11
1629.6497711912
 21
1288.2417792865
 31
0.0
  0
LINE
  5
578
330
572
100
AcDbEntity
  8
FORMAT
100
AcDbLine
 10
1682.6497711912
 20
1219.137755102
 30
0.0
 11
1682.6497711912
 21
1288.2417792865
 31
0.0
  0
LINE
  5
579
330
572
100
AcDbEntity
  8
FORMAT
100
AcDbLine
 10
1629.6497711912
 20
1283.2417792865
 30
0.0
 11
1574.0939728798
 21
1283.2417792865
 31
0.0
  0
LINE
  5
57A
330
572
100
AcDbEntity
  8
FORMAT
100
AcDbLine
 10
1629.6497711912
 20
1283.2417792865
 30
0.0
 11
1682.6497711912
 21
1283.2417792865
 31
0.0
  0
LINE
  5
57B
330
572
100
AcDbEntity
  8
FORMAT
100
AcDbLine
 10
1682.6497711912
 20
1283.2417792865
 30
0.0
 11
1714.3997711912
 21
1283.2417792865
 31
0.0
  0
MTEXT
  5
57C
330
572
100
AcDbEntity
  8
FORMAT
100
AcDbMText
 10
1574.0939728798
 20
1305.8004658966
 30
0.0
 40
17.5
 41
0.0
 71
     1
 72
     1
  1
53
  7
SLDTEXTSTYLE0
 73
     1
 44
1.0
  0
ENDBLK
  5
574
330
572
100
AcDbEntity
  8
0
100
AcDbBlockEnd
  0
BLOCK
  5
57F
330
57E
100
AcDbEntity
  8
0
100
AcDbBlockBegin
  2
_D_16
 70
     0
 10
0.0
 20
0.0
 30
0.0
  3
_D_16
  1

  0
SOLID
  5
581
330
57E
100
AcDbEntity
  8
FORMAT
100
AcDbTrace
 10
1742.397999711
 20
1182.537755102
 30
0.0
 11
1739.857999711
 21
1166.027755102
 31
0.0
 12
1744.937999711
 22
1166.027755102
 32
0.0
 13
1744.937999711
 23
1166.027755102
 33
0.0
  0
SOLID
  5
582
330
57E
100
AcDbEntity
  8
FORMAT
100
AcDbTrace
 10
1742.397999711
 20
1215.937755102
 30
0.0
 11
1744.937999711
 21
1232.447755102
 31
0.0
 12
1739.857999711
 22
1232.447755102
 32
0.0
 13
1739.857999711
 23
1232.447755102
 33
0.0
  0
LINE
  5
583
330
57E
100
AcDbEntity
  8
FORMAT
100
AcDbLine
 10
1685.8497711912
 20
1182.537755102
 30
0.0
 11
1747.397999711
 21
1182.537755102
 31
0.0
  0
LINE
  5
584
330
57E
100
AcDbEntity
  8
FORMAT
100
AcDbLine
 10
1685.8497711912
 20
1215.937755102
 30
0.0
 11
1747.397999711
 21
1215.937755102
 31
0.0
  0
LINE
  5
585
330
57E
100
AcDbEntity
  8
FORMAT
100
AcDbLine
 10
1742.397999711
 20
1182.537755102
 30
0.0
 11
1742.397999711
 21
1150.787755102
 31
0.0
  0
LINE
  5
586
330
57E
100
AcDbEntity
  8
FORMAT
100
AcDbLine
 10
1742.397999711
 20
1182.537755102
 30
0.0
 11
1742.397999711
 21
1215.937755102
 31
0.0
  0
LINE
  5
587
330
57E
100
AcDbEntity
  8
FORMAT
100
AcDbLine
 10
1742.397999711
 20
1215.937755102
 30
0.0
 11
1742.397999711
 21
1286.5280109129
 31
0.0
  0
MTEXT
  5
588
330
57E
100
AcDbEntity
  8
FORMAT
100
AcDbMText
 10
1719.8393131009
 20
1239.7398176275
 30
0.0
 40
17.5
 41
0.0
 71
     1
 72
     1
  1
33,4
  7
SLDTEXTSTYLE0
 11
2.725767599057743E-15
 21
1.0
 31
0.0
 73
     1
 44
1.0
  0
ENDBLK
  5
580
330
57E
100
AcDbEntity
  8
0
100
AcDbBlockEnd
  0
ENDSEC
  0
SECTION
  2
ENTITIES
  0
LINE
  5
CB
330
1F
100
AcDbEntity
  8
FORMAT
  6
Continuous
 62
     7
370
    18
100
AcDbLine
 10
1891.9619397592
 20
177.8962908116
 30
0.0
 11
1515.6217725955
 21
177.8962908116
 31
0.0
  0
LINE
  5
CC
330
1F
100
AcDbEntity
  8
FORMAT
  6
Continuous
 62
     7
370
    18
100
AcDbLine
 10
1891.9619397592
 20
243.7103370959
 30
0.0
 11
2049.7192989288
 21
243.7103370959
 31
0.0
  0
LINE
  5
CD
330
1F
100
AcDbEntity
  8
0
  6
Continuous
 62
     7
370
    18
100
AcDbLine
 10
1823.5503045447
 20
177.8962908116
 30
0.0
 11
1823.5503045447
 21
129.5416792659
 31
0.0
  0
LINE
  5
CE
330
1F
100
AcDbEntity
  8
FORMAT
100
AcDbLine
 10
2049.7192989288
 20
1435.0
 30
0.0
 11
49.7192989288
 21
1435.0
 31
0.0
  0
LINE
  5
CF
330
1F
100
AcDbEntity
  8
FORMAT
100
AcDbLine
 10
49.7192989288
 20
1435.0
 30
0.0
 11
49.7192989288
 21
50.0
 31
0.0
  0
LINE
  5
D0
330
1F
100
AcDbEntity
  8
BEMASSUNG
  6
Continuous
 62
     7
370
    18
100
AcDbLine
 10
1891.9619397592
 20
202.8190379711
 30
0.0
 11
2049.7192989288
 21
202.8190379711
 31
0.0
  0
LINE
  5
D1
330
1F
100
AcDbEntity
  8
FORMAT
100
AcDbLine
 10
49.7192989288
 20
50.0
 30
0.0
 11
2049.7192989288
 21
50.0
 31
0.0
  0
LINE
  5
D2
330
1F
100
AcDbEntity
  8
FORMAT
100
AcDbLine
 10
2049.7192989288
 20
50.0
 30
0.0
 11
2049.7192989288
 21
1435.0
 31
0.0
  0
LINE
  5
D3
330
1F
100
AcDbEntity
  8
0
  6
Continuous
 62
     7
370
    18
100
AcDbLine
 10
1515.6217725955
 20
263.390558872
 30
0.0
 11
1515.6217725955
 21
50.0000114706
 31
0.0
  0
LINE
  5
D4
330
1F
100
AcDbEntity
  8
0
  6
Continuous
 62
     7
370
    18
100
AcDbLine
 10
1975.9965965143
 20
50.0
 30
0.0
 11
1975.9965965143
 21
96.7352007517
 31
0.0
  0
LINE
  5
D5
330
1F
100
AcDbEntity
  8
0
  6
Continuous
 62
     7
370
    18
100
AcDbLine
 10
1515.6217725955
 20
129.5416792659
 30
0.0
 11
2049.7192989288
 21
129.5416792659
 31
0.0
  0
LINE
  5
D6
330
1F
100
AcDbEntity
  8
0
  6
Continuous
 62
     7
370
    18
100
AcDbLine
 10
1891.9619397592
 20
96.7352007517
 30
0.0
 11
2049.7192989288
 21
96.7352007517
 31
0.0
  0
LINE
  5
D7
330
1F
100
AcDbEntity
  8
0
  6
Continuous
 62
     7
370
    18
100
AcDbLine
 10
1515.6217725955
 20
263.390558872
 30
0.0
 11
2049.7862083612
 21
263.390558872
 31
0.0
  0
LINE
  5
D8
330
1F
100
AcDbEntity
  8
0
  6
Continuous
 62
     7
370
    18
100
AcDbLine
 10
1891.9619397592
 20
50.0
 30
0.0
 11
1891.9619397592
 21
263.390558872
 31
0.0
  0
INSERT
  5
D9
330
1F
100
AcDbEntity
  8
0
  6
Continuous
 62
     7
100
AcDbBlockReference
  2
Block1_3_1
 10
1929.0096676772
 20
135.4783426579
 30
0.0
  0
INSERT
  5
DA
330
1F
100
AcDbEntity
  8
0
  6
Continuous
 62
     7
100
AcDbBlockReference
  2
Block2_3_1
 10
363.7005607949
 20
-186.853211606
 30
0.0
  0
INSERT
  5
DB
330
1F
100
AcDbEntity
  8
FORMAT
100
AcDbBlockReference
  2
rechtlicher_Hinweis_Katalogzeichnungen_1
 10
61.5924934591
 20
22.5392837488
 30
0.0
 41
0.5
 42
0.5
 43
0.5
  0
MTEXT
  5
DC
330
1F
100
AcDbEntity
  8
0
  6
Continuous
 62
     7
370
     0
100
AcDbMText
 10
1896.6068211254
 20
117.8638808683
 30
0.0
 40
10.0
 41
0.0
 71
     1
 72
     1
  1
Maßstab:
  7
SLDTEXTSTYLE0
 73
     1
 44
1.0
  0
MTEXT
  5
DD
330
1F
100
AcDbEntity
  8
0
  6
Continuous
 62
     7
370
     0
100
AcDbMText
 10
1989.964486975
 20
89.4490387542
 30
0.0
 40
10.0
 41
0.0
 71
     1
 72
     1
  1
Format
  7
SLDTEXTSTYLE0
 73
     1
 44
1.0
  0
MTEXT
  5
DE
330
1F
100
AcDbEntity
  8
0
  6
Continuous
 62
     7
370
     0
100
AcDbMText
 10
1525.5802784963
 20
254.9870609315
 30
0.0
 40
10.0
 41
0.0
 71
     1
 72
     1
  1
Benennung:
  7
SLDTEXTSTYLE0
 73
     1
 44
1.0
  0
MTEXT
  5
DF
330
1F
100
AcDbEntity
  8
0
  6
Continuous
 62
     7
370
     0
100
AcDbMText
 10
1903.2146711367
 20
89.4490387542
 30
0.0
 40
10.0
 41
0.0
 71
     1
 72
     1
  1
Blatt / von
  7
SLDTEXTSTYLE0
 73
     1
 44
1.0
  0
MTEXT
  5
E0
330
1F
100
AcDbEntity
  8
0
  6
Continuous
 62
     7
370
     0
100
AcDbMText
 10
1933.1947076773
 20
71.926744447
 30
0.0
 40
12.5
 41
0.0
 71
     2
 72
     1
  1
/
  7
SLDTEXTSTYLE0
 73
     1
 44
1.0
  0
MTEXT
  5
E2
330
1F
100
AcDbEntity
  8
0
  6
Continuous
 62
     7
370
     0
100
AcDbMText
 10
1524.4672558013
 20
153.4201776347
 30
0.0
 40
15.875
 41
0.0
 71
     1
 72
     1
  1
D052-57349
  7
SLDTEXTSTYLE3
 73
     1
 44
1.0
  0
MTEXT
  5
E3
330
1F
100
AcDbEntity
  8
0
  6
Continuous
 62
     7
370
     0
100
AcDbMText
 10
1966.0680482893
 20
118.506115318
 30
0.0
 40
10.5833333333
 41
0.0
 71
     1
 72
     1
  1
1:5
  7
SLDTEXTSTYLE0
 73
     1
 44
1.0
  0
MTEXT
  5
E4
330
1F
100
AcDbEntity
  8
0
  6
Continuous
 62
     7
370
     0
100
AcDbMText
 10
2002.6778352352
 20
70.8624964679
 30
0.0
 40
10.5833333333
 41
0.0
 71
     1
 72
     1
  1
A3
  7
SLDTEXTSTYLE0
 73
     1
 44
1.0
  0
MTEXT
  5
E5
330
1F
100
AcDbEntity
  8
0
  6
Continuous
 62
     7
370
     0
100
AcDbMText
 10
1914.3095753637
 20
71.4030339727
 30
0.0
 40
10.5833333333
 41
0.0
 71
     1
 72
     1
  1
1
  7
SLDTEXTSTYLE0
 73
     1
 44
1.0
  0
MTEXT
  5
E6
330
1F
100
AcDbEntity
  8
0
  6
Continuous
 62
     7
370
     0
100
AcDbMText
 10
1944.6721839709
 20
71.4030339727
 30
0.0
 40
10.5833333333
 41
0.0
 71
     1
 72
     1
  1
1
  7
SLDTEXTSTYLE0
 73
     1
 44
1.0
  0
MTEXT
  5
E7
330
1F
100
AcDbEntity
  8
FORMAT
100
AcDbMText
 10
1527.1223004557
 20
172.0929629779
 30
0.0
 40
10.0
 41
0.0
 71
     1
 72
     1
  1
Zeichnungsnummer:
  7
SLDTEXTSTYLE0
 73
     1
 44
1.0
  0
MTEXT
  5
E8
330
1F
100
AcDbEntity
  8
FORMAT
100
AcDbMText
 10
1904.7309528226
 20
258.0048002759
 30
0.0
 40
9.0
 41
0.0
 71
     1
 72
     1
  1
KATALOGZEICHNUNG
  7
SLDTEXTSTYLE3
 73
     1
 44
1.0
  0
MTEXT
  5
E9
330
1F
100
AcDbEntity
  8
FORMAT
100
AcDbMText
 10
1838.1864689423
 20
172.1727058453
 30
0.0
 40
10.0
 41
0.0
 71
     1
 72
     1
  1
Index:
  7
SLDTEXTSTYLE0
 73
     1
 44
1.0
  0
MTEXT
  5
EA
330
1F
100
AcDbEntity
  8
BEMASSUNG
 62
     7
100
AcDbMText
 10
1895.9823479349
 20
239.6819657777
 30
0.0
 40
10.0
 41
0.0
 71
     1
 72
     1
  1
Ausführung:
  7
SLDTEXTSTYLE0
 73
     1
 44
1.0
  0
MTEXT
  5
EB
330
1F
100
AcDbEntity
  8
FORMAT
100
AcDbMText
 10
1524.6077310754
 20
197.9623926292
 30
0.0
 40
12.5
 41
0.0
 71
     1
 72
     1
  1
Normalmontage Bandseite DIN L
  7
SLDTEXTSTYLE3
 73
     1
 44
1.0
  0
MTEXT
  5
EC
330
1F
100
AcDbEntity
  8
FORMAT
100
AcDbMText
 10
1524.6077310754
 20
215.0867997196
 30
0.0
 40
12.5
 41
0.0
 71
     1
 72
     1
  1
Adaptionsprofil 30
  7
SLDTEXTSTYLE3
 73
     1
 44
1.0
  0
MTEXT
  5
ED
330
1F
100
AcDbEntity
  8
FORMAT
100
AcDbMText
 10
1524.6077310754
 20
238.0652926703
 30
0.0
 40
17.5
 41
0.0
 71
     1
 72
     1
  1
ECO R III
  7
SLDTEXTSTYLE3
 73
     1
 44
1.0
  0
LINE
  5
EE
330
1F
100
AcDbEntity
  8
0
  6
Continuous
 62
     7
370
    25
100
AcDbLine
 10
758.0493797792
 20
1174.937755102
 30
0.0
 11
758.0493797792
 21
1175.537755102
 31
0.0
  0
LINE
  5
EF
330
1F
100
AcDbEntity
  8
0
  6
Continuous
 62
     7
370
    25
100
AcDbLine
 10
745.0493797792
 20
1175.537755102
 30
0.0
 11
745.0493797792
 21
1174.937755102
 31
0.0
  0
ARC
  5
F0
330
1F
100
AcDbEntity
  8
0
  6
Continuous
 62
     7
370
    25
100
AcDbCircle
 10
745.4493797792
 20
1174.937755102
 30
0.0
 40
0.4000000000000909
100
AcDbArc
 50
180.0
 51
270.0
  0
ARC
  5
F1
330
1F
100
AcDbEntity
  8
0
  6
Continuous
 62
     7
370
    25
100
AcDbCircle
 10
757.6493797792
 20
1174.937755102
 30
0.0
 40
0.4000000000000909
100
AcDbArc
 50
270.0
 51
0.0
  0
LINE
  5
F2
330
1F
100
AcDbEntity
  8
0
  6
Continuous
 62
     7
370
    25
100
AcDbLine
 10
756.5493797792
 20
1179.537755102
 30
0.0
 11
756.5493797792
 21
1181.9219238625
 31
0.0
  0
LINE
  5
F3
330
1F
100
AcDbEntity
  8
0
  6
Continuous
 62
     7
370
    25
100
AcDbLine
 10
746.5493797792
 20
1181.9219238625
 30
0.0
 11
746.5493797792
 21
1179.537755102
 31
0.0
  0
LINE
  5
F4
330
1F
100
AcDbEntity
  8
0
  6
HIDDEN
 62
     7
370
    25
100
AcDbLine
 10
399.5510204082
 20
1168.237755102
 30
0.0
 11
399.5510204082
 21
1166.737755102
 31
0.0
  0
LINE
  5
F5
330
1F
100
AcDbEntity
  8
0
  6
HIDDEN
 62
     7
370
    25
100
AcDbLine
 10
431.5510204082
 20
1166.737755102
 30
0.0
 11
431.5510204082
 21
1168.237755102
 31
0.0
  0
ARC
  5
F6
330
1F
100
AcDbEntity
  8
0
  6
HIDDEN
 62
     7
370
    25
100
AcDbCircle
 10
401.5510204082
 20
1168.237755102
 30
0.0
 40
2.000000000000057
100
AcDbArc
 50
90.0
 51
180.0
  0
ARC
  5
F7
330
1F
100
AcDbEntity
  8
0
  6
HIDDEN
 62
     7
370
    25
100
AcDbCircle
 10
429.5510204082
 20
1168.237755102
 30
0.0
 40
2.000000000000057
100
AcDbArc
 50
0.0
 51
90.0
  0
LINE
  5
F8
330
1F
100
AcDbEntity
  8
0
  6
Continuous
 62
     7
370
    25
100
AcDbLine
 10
405.0510204082
 20
1175.537755102
 30
0.0
 11
405.0510204082
 21
1170.237755102
 31
0.0
  0
LINE
  5
F9
330
1F
100
AcDbEntity
  8
0
  6
Continuous
 62
     7
370
    25
100
AcDbLine
 10
426.0510204082
 20
1170.237755102
 30
0.0
 11
426.0510204082
 21
1175.537755102
 31
0.0
  0
LINE
  5
FA
330
1F
100
AcDbEntity
  8
0
  6
Continuous
 62
     7
370
    25
100
AcDbLine
 10
404.5510204082
 20
1179.537755102
 30
0.0
 11
404.5510204082
 21
1175.537755102
 31
0.0
  0
LINE
  5
FB
330
1F
100
AcDbEntity
  8
0
  6
Continuous
 62
     7
370
    25
100
AcDbLine
 10
762.5493797792
 20
1175.537755102
 30
0.0
 11
762.5493797792
 21
1179.537755102
 31
0.0
  0
LINE
  5
FC
330
1F
100
AcDbEntity
  8
0
  6
HIDDEN
 62
     7
370
    25
100
AcDbLine
 10
431.7010204082
 20
1101.837755102
 30
0.0
 11
431.7010204082
 21
1104.337755102
 31
0.0
  0
LINE
  5
FD
330
1F
100
AcDbEntity
  8
0
  6
HIDDEN
 62
     7
370
    25
100
AcDbLine
 10
399.4010204082
 20
1104.337755102
 30
0.0
 11
399.4010204082
 21
1101.837755102
 31
0.0
  0
ARC
  5
FE
330
1F
100
AcDbEntity
  8
0
  6
HIDDEN
 62
     7
370
    25
100
AcDbCircle
 10
401.4010204082
 20
1101.837755102
 30
0.0
 40
2.000000000000057
100
AcDbArc
 50
180.0
 51
270.0
  0
ARC
  5
FF
330
1F
100
AcDbEntity
  8
0
  6
HIDDEN
 62
     7
370
    25
100
AcDbCircle
 10
429.7010204082
 20
1101.837755102
 30
0.0
 40
2.0
100
AcDbArc
 50
270.0
 51
0.0
  0
LINE
  5
100
330
1F
100
AcDbEntity
  8
0
  6
Continuous
 62
     7
370
    25
100
AcDbLine
 10
744.3493797792
 20
1182.537755102
 30
0.0
 11
744.3493797792
 21
1182.087755102
 31
0.0
  0
LINE
  5
101
330
1F
100
AcDbEntity
  8
0
  6
Continuous
 62
     7
370
    25
100
AcDbLine
 10
758.7493797792
 20
1182.087755102
 30
0.0
 11
758.7493797792
 21
1182.537755102
 31
0.0
  0
ARC
  5
102
330
1F
100
AcDbEntity
  8
0
  6
Continuous
 62
     7
370
    25
100
AcDbCircle
 10
756.2993797792
 20
1182.087755102
 30
0.0
 40
0.3000000000000682
100
AcDbArc
 50
326.4426902381
 51
0.0
  0
ARC
  5
103
330
1F
100
AcDbEntity
  8
0
  6
Continuous
 62
     7
370
    25
100
AcDbCircle
 10
746.7993797792
 20
1182.087755102
 30
0.0
 40
0.2999999999999545
100
AcDbArc
 50
180.0
 51
213.5573097619
  0
LINE
  5
104
330
1F
100
AcDbEntity
  8
0
  6
Continuous
 62
     7
370
    25
100
AcDbLine
 10
340.6876313833
 20
1182.3013893411
 30
0.0
 11
340.2657876655
 21
1182.4197124063
 31
0.0
  0
LINE
  5
105
330
1F
100
AcDbEntity
  8
0
  6
Continuous
 62
     7
370
    25
100
AcDbLine
 10
341.5529945039
 20
1181.9962893411
 30
0.0
 11
341.5540980206
 21
1181.9959135362
 31
0.0
  0
LINE
  5
106
330
1F
100
AcDbEntity
  8
0
  6
Continuous
 62
     7
370
    25
100
AcDbLine
 10
342.4180552606
 20
1181.9962893411
 30
0.0
 11
342.8410285893
 21
1181.8776704993
 31
0.0
  0
LINE
  5
107
330
1F
100
AcDbEntity
  8
0
  6
Continuous
 62
     7
370
    25
100
AcDbLine
 10
339.9537133901
 20
1182.3013893411
 30
0.0
 11
339.2800890837
 21
1182.460713294
 31
0.0
  0
LINE
  5
108
330
1F
100
AcDbEntity
  8
0
  6
Continuous
 62
     7
370
    25
100
AcDbLine
 10
343.2248979406
 20
1181.9788246973
 30
0.0
 11
343.8249156678
 21
1181.8367932681
 31
0.0
  0
LINE
  5
109
330
1F
100
AcDbEntity
  8
0
  6
Continuous
 62
     7
370
    25
100
AcDbLine
 10
339.0579642224
 20
1182.3560265042
 30
0.0
 11
338.6819823129
 21
1182.4816065675
 31
0.0
  0
LINE
  5
10A
330
1F
100
AcDbEntity
  8
0
  6
Continuous
 62
     7
370
    25
100
AcDbLine
 10
344.047049128
 20
1181.9410496851
 30
0.0
 11
344.4209111182
 21
1181.8159042604
 31
0.0
  0
LINE
  5
10B
330
1F
100
AcDbEntity
  8
0
  6
Continuous
 62
     7
370
    25
100
AcDbLine
 10
338.5508704068
 20
1182.3065873173
 30
0.0
 11
338.5508704068
 21
1181.9949965618
 31
0.0
  0
LINE
  5
10C
330
1F
100
AcDbEntity
  8
0
  6
Continuous
 62
     7
370
    25
100
AcDbLine
 10
344.5511704068
 20
1181.9949965618
 30
0.0
 11
344.5511704068
 21
1182.3065873173
 31
0.0
  0
LINE
  5
10D
330
1F
100
AcDbEntity
  8
0
  6
Continuous
 62
     7
370
    25
100
AcDbLine
 10
339.2771251458
 20
1181.8367932681
 30
0.0
 11
339.5368173376
 21
1181.8982655404
 31
0.0
  0
LINE
  5
10E
330
1F
100
AcDbEntity
  8
0
  6
Continuous
 62
     7
370
    25
100
AcDbLine
 10
343.82195173
 20
1182.460713294
 30
0.0
 11
343.5544892638
 21
1182.3974537338
 31
0.0
  0
LINE
  5
10F
330
1F
100
AcDbEntity
  8
0
  6
Continuous
 62
     7
370
    25
100
AcDbLine
 10
771.5529945039
 20
1181.9962893411
 30
0.0
 11
771.5540980206
 21
1181.9959135362
 31
0.0
  0
LINE
  5
110
330
1F
100
AcDbEntity
  8
0
  6
Continuous
 62
     7
370
    25
100
AcDbLine
 10
770.6876313833
 20
1182.3013893411
 30
0.0
 11
770.2657876655
 21
1182.4197124063
 31
0.0
  0
LINE
  5
111
330
1F
100
AcDbEntity
  8
0
  6
Continuous
 62
     7
370
    25
100
AcDbLine
 10
772.4180552606
 20
1181.9962893411
 30
0.0
 11
772.8410285893
 21
1181.8776704993
 31
0.0
  0
LINE
  5
112
330
1F
100
AcDbEntity
  8
0
  6
Continuous
 62
     7
370
    25
100
AcDbLine
 10
769.9537133901
 20
1182.3013893411
 30
0.0
 11
769.2800890837
 21
1182.460713294
 31
0.0
  0
LINE
  5
113
330
1F
100
AcDbEntity
  8
0
  6
Continuous
 62
     7
370
    25
100
AcDbLine
 10
773.2248979406
 20
1181.9788246973
 30
0.0
 11
773.8249156678
 21
1181.8367932681
 31
0.0
  0
LINE
  5
114
330
1F
100
AcDbEntity
  8
0
  6
Continuous
 62
     7
370
    25
100
AcDbLine
 10
769.0579642224
 20
1182.3560265042
 30
0.0
 11
768.6819823129
 21
1182.4816065675
 31
0.0
  0
LINE
  5
115
330
1F
100
AcDbEntity
  8
0
  6
Continuous
 62
     7
370
    25
100
AcDbLine
 10
774.047049128
 20
1181.9410496851
 30
0.0
 11
774.4209111182
 21
1181.8159042604
 31
0.0
  0
LINE
  5
116
330
1F
100
AcDbEntity
  8
0
  6
Continuous
 62
     7
370
    25
100
AcDbLine
 10
768.5508704068
 20
1182.3065873173
 30
0.0
 11
768.5508704068
 21
1181.9949965618
 31
0.0
  0
LINE
  5
117
330
1F
100
AcDbEntity
  8
0
  6
Continuous
 62
     7
370
    25
100
AcDbLine
 10
774.5511704068
 20
1181.9949965618
 30
0.0
 11
774.5511704068
 21
1182.3065873173
 31
0.0
  0
LINE
  5
118
330
1F
100
AcDbEntity
  8
0
  6
Continuous
 62
     7
370
    25
100
AcDbLine
 10
769.2771251458
 20
1181.8367932681
 30
0.0
 11
769.5368173376
 21
1181.8982655404
 31
0.0
  0
LINE
  5
119
330
1F
100
AcDbEntity
  8
0
  6
Continuous
 62
     7
370
    25
100
AcDbLine
 10
773.82195173
 20
1182.460713294
 30
0.0
 11
773.5544892638
 21
1182.3974537338
 31
0.0
  0
LINE
  5
11A
330
1F
100
AcDbEntity
  8
0
  6
Continuous
 62
     7
370
    25
100
AcDbLine
 10
344.3510204082
 20
1180.3629428014
 30
0.0
 11
344.3510204082
 21
1181.7594412689
 31
0.0
  0
LINE
  5
11B
330
1F
100
AcDbEntity
  8
0
  6
Continuous
 62
     7
370
    25
100
AcDbLine
 10
338.7510204082
 20
1181.7594412689
 30
0.0
 11
338.7510204082
 21
1180.3629428014
 31
0.0
  0
ARC
  5
11C
330
1F
100
AcDbEntity
  8
0
  6
Continuous
 62
     7
370
    25
100
AcDbCircle
 10
344.0810204082
 20
1180.3629428014
 30
0.0
 40
0.2699999999999818
100
AcDbArc
 50
302.3360259975
 51
0.0
  0
ARC
  5
11D
330
1F
100
AcDbEntity
  8
0
  6
Continuous
 62
     7
370
    25
100
AcDbCircle
 10
339.0210204082
 20
1180.3629428014
 30
0.0
 40
0.2700000000000046
100
AcDbArc
 50
180.0
 51
237.6639740024
  0
ARC
  5
11E
330
1F
100
AcDbEntity
  8
0
  6
Continuous
 62
     7
370
    25
100
AcDbCircle
 10
341.5510204082
 20
1184.3594412689
 30
0.0
 40
4.999999999999877
100
AcDbArc
 50
285.2192781064
 51
302.3360259976
  0
ARC
  5
11F
330
1F
100
AcDbEntity
  8
0
  6
Continuous
 62
     7
370
    25
100
AcDbCircle
 10
341.5510204082
 20
1184.3594412689
 30
0.0
 40
4.999999999999939
100
AcDbArc
 50
237.6639740024
 51
254.7807218936
  0
ARC
  5
120
330
1F
100
AcDbEntity
  8
0
  6
Continuous
 62
     7
370
    25
100
AcDbCircle
 10
339.9510204082
 20
1181.8594412689
 30
0.0
 40
0.0999999999999659
100
AcDbArc
 50
270.0
 51
0.0
  0
LINE
  5
121
330
1F
100
AcDbEntity
  8
0
  6
Continuous
 62
     7
370
    25
100
AcDbLine
 10
343.0510204082
 20
1182.4344114886
 30
0.0
 11
343.0510204082
 21
1182.537755102
 31
0.0
  0
LINE
  5
122
330
1F
100
AcDbEntity
  8
0
  6
Continuous
 62
     7
370
    25
100
AcDbLine
 10
774.3510204082
 20
1180.3629428014
 30
0.0
 11
774.3510204082
 21
1181.7594412689
 31
0.0
  0
LINE
  5
123
330
1F
100
AcDbEntity
  8
0
  6
Continuous
 62
     7
370
    25
100
AcDbLine
 10
768.7510204082
 20
1181.7594412689
 30
0.0
 11
768.7510204082
 21
1180.3629428014
 31
0.0
  0
ARC
  5
124
330
1F
100
AcDbEntity
  8
0
  6
Continuous
 62
     7
370
    25
100
AcDbCircle
 10
774.0810204082
 20
1180.3629428014
 30
0.0
 40
0.2700000000002271
100
AcDbArc
 50
302.3360259976
 51
0.0
  0
ARC
  5
125
330
1F
100
AcDbEntity
  8
0
  6
Continuous
 62
     7
370
    25
100
AcDbCircle
 10
769.0210204082
 20
1180.3629428014
 30
0.0
 40
0.2700000000001663
100
AcDbArc
 50
180.0
 51
237.6639740025
  0
ARC
  5
126
330
1F
100
AcDbEntity
  8
0
  6
Continuous
 62
     7
370
    25
100
AcDbCircle
 10
771.5510204082
 20
1184.3594412689
 30
0.0
 40
5.000000000000161
100
AcDbArc
 50
285.2192781064
 51
302.3360259976
  0
ARC
  5
127
330
1F
100
AcDbEntity
  8
0
  6
Continuous
 62
     7
370
    25
100
AcDbCircle
 10
771.5510204082
 20
1184.3594412689
 30
0.0
 40
5.000000000000161
100
AcDbArc
 50
237.6639740024
 51
254.7807218936
  0
ARC
  5
128
330
1F
100
AcDbEntity
  8
0
  6
Continuous
 62
     7
370
    25
100
AcDbCircle
 10
769.9510204082
 20
1181.8594412689
 30
0.0
 40
0.1000000000001364
100
AcDbArc
 50
270.0
 51
0.0
  0
LINE
  5
129
330
1F
100
AcDbEntity
  8
0
  6
Continuous
 62
     7
370
    25
100
AcDbLine
 10
773.0510204082
 20
1182.4344114886
 30
0.0
 11
773.0510204082
 21
1182.537755102
 31
0.0
  0
ARC
  5
12A
330
1F
100
AcDbEntity
  8
0
  6
Continuous
 62
     7
370
    25
100
AcDbCircle
 10
310.0510204082
 20
1208.987755102
 30
0.0
 40
1.000000000000057
100
AcDbArc
 50
90.0
 51
180.0
  0
ARC
  5
12B
330
1F
100
AcDbEntity
  8
0
  6
Continuous
 62
     7
370
    25
100
AcDbCircle
 10
310.0510204082
 20
1200.987755102
 30
0.0
 40
1.000000000000057
100
AcDbArc
 50
180.0
 51
270.0
  0
LINE
  5
12C
330
1F
100
AcDbEntity
  8
0
  6
Continuous
 62
     7
370
    25
100
AcDbLine
 10
311.0510204082
 20
1209.987755102
 30
0.0
 11
310.0510204082
 21
1209.987755102
 31
0.0
  0
LINE
  5
12D
330
1F
100
AcDbEntity
  8
0
  6
Continuous
 62
     7
370
    25
100
AcDbLine
 10
310.0510204082
 20
1199.987755102
 30
0.0
 11
311.0510204082
 21
1199.987755102
 31
0.0
  0
LINE
  5
12E
330
1F
100
AcDbEntity
  8
0
  6
Continuous
 62
     7
370
    25
100
AcDbLine
 10
311.0510204082
 20
1198.487755102
 30
0.0
 11
310.0510204082
 21
1198.487755102
 31
0.0
  0
LINE
  5
12F
330
1F
100
AcDbEntity
  8
0
  6
Continuous
 62
     7
370
    25
100
AcDbLine
 10
310.0510204082
 20
1188.487755102
 30
0.0
 11
311.0510204082
 21
1188.487755102
 31
0.0
  0
ARC
  5
130
330
1F
100
AcDbEntity
  8
0
  6
Continuous
 62
     7
370
    25
100
AcDbCircle
 10
310.0510204082
 20
1197.487755102
 30
0.0
 40
1.000000000000057
100
AcDbArc
 50
90.0
 51
180.0
  0
ARC
  5
131
330
1F
100
AcDbEntity
  8
0
  6
Continuous
 62
     7
370
    25
100
AcDbCircle
 10
310.0510204082
 20
1189.487755102
 30
0.0
 40
1.000000000000057
100
AcDbArc
 50
180.0
 51
270.0
  0
LINE
  5
132
330
1F
100
AcDbEntity
  8
0
  6
Continuous
 62
     7
370
    25
100
AcDbLine
 10
234.0510204082
 20
1012.537755102
 30
0.0
 11
234.0510204082
 21
1047.537755102
 31
0.0
  0
LINE
  5
133
330
1F
100
AcDbEntity
  8
0
  6
Continuous
 62
     7
370
    25
100
AcDbLine
 10
219.0510204082
 20
1047.537755102
 30
0.0
 11
219.0510204082
 21
1012.537755102
 31
0.0
  0
LINE
  5
134
330
1F
100
AcDbEntity
  8
0
  6
Continuous
 62
     7
370
    25
100
AcDbLine
 10
219.0510204082
 20
1012.537755102
 30
0.0
 11
219.0510204082
 21
987.537755102
 31
0.0
  0
LINE
  5
135
330
1F
100
AcDbEntity
  8
0
  6
Continuous
 62
     7
370
    25
100
AcDbLine
 10
234.0510204082
 20
987.537755102
 30
0.0
 11
234.0510204082
 21
1012.537755102
 31
0.0
  0
LINE
  5
136
330
1F
100
AcDbEntity
  8
0
  6
Continuous
 62
     7
370
    25
100
AcDbLine
 10
219.0510204082
 20
1072.537755102
 30
0.0
 11
219.0510204082
 21
1047.537755102
 31
0.0
  0
LINE
  5
137
330
1F
100
AcDbEntity
  8
0
  6
Continuous
 62
     7
370
    25
100
AcDbLine
 10
234.0510204082
 20
1047.537755102
 30
0.0
 11
234.0510204082
 21
1072.537755102
 31
0.0
  0
LINE
  5
138
330
1F
100
AcDbEntity
  8
0
  6
Continuous
 62
     7
370
    25
100
AcDbLine
 10
1109.5510204082
 20
1175.537755102
 30
0.0
 11
1109.5510204082
 21
1182.362745102
 31
0.0
  0
LINE
  5
139
330
1F
100
AcDbEntity
  8
0
  6
Continuous
 62
     7
370
    25
100
AcDbLine
 10
311.0510204082
 20
1175.537755102
 30
0.0
 11
404.5510204082
 21
1175.537755102
 31
0.0
  0
LINE
  5
13A
330
1F
100
AcDbEntity
  8
0
  6
Continuous
 62
     7
370
    25
100
AcDbLine
 10
762.5493797792
 20
1175.537755102
 30
0.0
 11
1109.5510204082
 21
1175.537755102
 31
0.0
  0
LINE
  5
13B
330
1F
100
AcDbEntity
  8
0
  6
Continuous
 62
     7
370
    25
100
AcDbLine
 10
311.0510204082
 20
1182.362745102
 30
0.0
 11
311.0510204082
 21
1175.537755102
 31
0.0
  0
LINE
  5
13C
330
1F
100
AcDbEntity
  8
0
  6
Continuous
 62
     7
370
    25
100
AcDbLine
 10
769.8050255751
 20
1182.3327228825
 30
0.0
 11
769.8116899182
 21
1182.2032165888
 31
0.0
  0
ARC
  5
13D
330
1F
100
AcDbEntity
  8
0
  6
Continuous
 62
     7
370
    25
100
AcDbCircle
 10
775.0510204082
 20
1182.537755102
 30
0.0
 40
5.25
100
AcDbArc
 50
216.3401775891
 51
0.0
  0
ARC
  5
13E
330
1F
100
AcDbEntity
  8
0
  6
Continuous
 62
     7
370
    25
100
AcDbCircle
 10
346.5510204082
 20
1182.537755102
 30
0.0
 40
5.249999999999956
100
AcDbArc
 50
216.2623349481
 51
0.0
  0
LINE
  5
13F
330
1F
100
AcDbEntity
  8
0
  6
Continuous
 62
     7
370
    25
100
AcDbLine
 10
343.8010204082
 20
1182.537755102
 30
0.0
 11
343.8020713743
 21
1182.4617339926
 31
0.0
  0
ARC
  5
140
330
1F
100
AcDbEntity
  8
0
  6
Continuous
 62
     7
370
    25
100
AcDbCircle
 10
346.5510204082
 20
1182.537755102
 30
0.0
 40
2.750000000000046
100
AcDbArc
 50
216.8698976458
 51
0.0
  0
ARC
  5
141
330
1F
100
AcDbEntity
  8
0
  6
Continuous
 62
     7
370
    25
100
AcDbCircle
 10
775.0510204082
 20
1182.537755102
 30
0.0
 40
2.75
100
AcDbArc
 50
247.4443835013
 51
0.0
  0
LINE
  5
142
330
1F
100
AcDbEntity
  8
0
  6
Continuous
 62
     7
370
    25
100
AcDbLine
 10
757.6493797792
 20
1174.537755102
 30
0.0
 11
745.4493797792
 21
1174.537755102
 31
0.0
  0
LINE
  5
143
330
1F
100
AcDbEntity
  8
0
  6
Continuous
 62
     7
370
    25
100
AcDbLine
 10
751.5493797792
 20
1182.037755102
 30
0.0
 11
746.5493797792
 21
1182.037755102
 31
0.0
  0
LINE
  5
144
330
1F
100
AcDbEntity
  8
0
  6
Continuous
 62
     7
370
    25
100
AcDbLine
 10
756.5493797792
 20
1182.037755102
 30
0.0
 11
751.5493797792
 21
1182.037755102
 31
0.0
  0
LINE
  5
145
330
1F
100
AcDbEntity
  8
0
  6
HIDDEN
 62
     7
370
    25
100
AcDbLine
 10
333.3510204082
 20
1163.487755102
 30
0.0
 11
333.3510204082
 21
1107.587755102
 31
0.0
  0
LINE
  5
146
330
1F
100
AcDbEntity
  8
0
  6
HIDDEN
 62
     7
370
    25
100
AcDbLine
 10
333.3510204082
 20
1163.487755102
 30
0.0
 11
615.7510204082
 21
1163.487755102
 31
0.0
  0
LINE
  5
147
330
1F
100
AcDbEntity
  8
0
  6
HIDDEN
 62
     7
370
    25
100
AcDbLine
 10
615.7510204082
 20
1107.587755102
 30
0.0
 11
615.7510204082
 21
1163.487755102
 31
0.0
  0
LINE
  5
148
330
1F
100
AcDbEntity
  8
0
  6
HIDDEN
 62
     7
370
    25
100
AcDbLine
 10
333.3510204082
 20
1107.587755102
 30
0.0
 11
615.7510204082
 21
1107.587755102
 31
0.0
  0
LINE
  5
149
330
1F
100
AcDbEntity
  8
0
  6
HIDDEN
 62
     7
370
    25
100
AcDbLine
 10
617.5510204082
 20
1163.487755102
 30
0.0
 11
617.5510204082
 21
1107.587755102
 31
0.0
  0
LINE
  5
14A
330
1F
100
AcDbEntity
  8
0
  6
HIDDEN
 62
     7
370
    25
100
AcDbLine
 10
615.7510204082
 20
1163.487755102
 30
0.0
 11
617.5510204082
 21
1163.487755102
 31
0.0
  0
LINE
  5
14B
330
1F
100
AcDbEntity
  8
0
  6
HIDDEN
 62
     7
370
    25
100
AcDbLine
 10
617.5510204082
 20
1107.587755102
 30
0.0
 11
615.7510204082
 21
1107.587755102
 31
0.0
  0
LINE
  5
14C
330
1F
100
AcDbEntity
  8
0
  6
HIDDEN
 62
     7
370
    25
100
AcDbLine
 10
331.5510204082
 20
1107.587755102
 30
0.0
 11
331.5510204082
 21
1163.487755102
 31
0.0
  0
LINE
  5
14D
330
1F
100
AcDbEntity
  8
0
  6
HIDDEN
 62
     7
370
    25
100
AcDbLine
 10
331.5510204082
 20
1163.487755102
 30
0.0
 11
333.3510204082
 21
1163.487755102
 31
0.0
  0
LINE
  5
14E
330
1F
100
AcDbEntity
  8
0
  6
HIDDEN
 62
     7
370
    25
100
AcDbLine
 10
333.3510204082
 20
1107.587755102
 30
0.0
 11
331.5510204082
 21
1107.587755102
 31
0.0
  0
LINE
  5
14F
330
1F
100
AcDbEntity
  8
0
  6
HIDDEN
 62
     7
370
    25
100
AcDbLine
 10
415.5510204082
 20
1170.237755102
 30
0.0
 11
429.5510204082
 21
1170.237755102
 31
0.0
  0
LINE
  5
150
330
1F
100
AcDbEntity
  8
0
  6
HIDDEN
 62
     7
370
    25
100
AcDbLine
 10
401.5510204082
 20
1170.237755102
 30
0.0
 11
415.5510204082
 21
1170.237755102
 31
0.0
  0
LINE
  5
151
330
1F
100
AcDbEntity
  8
0
  6
Continuous
 62
     7
370
    25
100
AcDbLine
 10
415.5853954082
 20
1179.537755102
 30
0.0
 11
415.5853954082
 21
1175.537755102
 31
0.0
  0
LINE
  5
152
330
1F
100
AcDbEntity
  8
0
  6
Continuous
 62
     7
370
    25
100
AcDbLine
 10
404.5510204082
 20
1175.537755102
 30
0.0
 11
415.5853954082
 21
1175.537755102
 31
0.0
  0
LINE
  5
153
330
1F
100
AcDbEntity
  8
0
  6
Continuous
 62
     7
370
    25
100
AcDbLine
 10
404.5510204082
 20
1179.537755102
 30
0.0
 11
415.5853954082
 21
1179.537755102
 31
0.0
  0
LINE
  5
154
330
1F
100
AcDbEntity
  8
0
  6
Continuous
 62
     7
370
    25
100
AcDbLine
 10
751.5837547792
 20
1179.537755102
 30
0.0
 11
751.5837547792
 21
1175.537755102
 31
0.0
  0
LINE
  5
155
330
1F
100
AcDbEntity
  8
0
  6
Continuous
 62
     7
370
    25
100
AcDbLine
 10
415.5853954082
 20
1175.537755102
 30
0.0
 11
751.5837547792
 21
1175.537755102
 31
0.0
  0
LINE
  5
156
330
1F
100
AcDbEntity
  8
0
  6
Continuous
 62
     7
370
    25
100
AcDbLine
 10
415.5853954082
 20
1179.537755102
 30
0.0
 11
751.5837547792
 21
1179.537755102
 31
0.0
  0
LINE
  5
157
330
1F
100
AcDbEntity
  8
0
  6
Continuous
 62
     7
370
    25
100
AcDbLine
 10
751.5837547792
 20
1175.537755102
 30
0.0
 11
762.5493797792
 21
1175.537755102
 31
0.0
  0
LINE
  5
158
330
1F
100
AcDbEntity
  8
0
  6
Continuous
 62
     7
370
    25
100
AcDbLine
 10
751.5837547792
 20
1179.537755102
 30
0.0
 11
762.5493797792
 21
1179.537755102
 31
0.0
  0
LINE
  5
159
330
1F
100
AcDbEntity
  8
0
  6
HIDDEN
 62
     7
370
    25
100
AcDbLine
 10
429.7010204082
 20
1099.837755102
 30
0.0
 11
401.4010204082
 21
1099.837755102
 31
0.0
  0
LINE
  5
15A
330
1F
100
AcDbEntity
  8
0
  6
HIDDEN
 62
     7
370
    25
100
AcDbLine
 10
331.3431420039
 20
1166.737755102
 30
0.0
 11
333.2510204082
 21
1166.737755102
 31
0.0
  0
LINE
  5
15B
330
1F
100
AcDbEntity
  8
0
  6
HIDDEN
 62
     7
370
    25
100
AcDbLine
 10
333.2510204082
 20
1166.737755102
 30
0.0
 11
333.2510204082
 21
1163.737755102
 31
0.0
  0
LINE
  5
15C
330
1F
100
AcDbEntity
  8
0
  6
HIDDEN
 62
     7
370
    25
100
AcDbLine
 10
333.2510204082
 20
1163.737755102
 30
0.0
 11
331.2510204082
 21
1163.737755102
 31
0.0
  0
LINE
  5
15D
330
1F
100
AcDbEntity
  8
0
  6
HIDDEN
 62
     7
370
    25
100
AcDbLine
 10
331.2510204082
 20
1163.737755102
 30
0.0
 11
331.2510204082
 21
1165.5888425759
 31
0.0
  0
SPLINE
  5
15E
330
1F
100
AcDbEntity
  8
0
  6
HIDDEN
 62
     7
370
    25
100
AcDbSpline
210
0.0
220
0.0
230
1.0
 70
     8
 71
     3
 72
    10
 73
     6
 74
     0
 42
0.00000001
 43
0.00000001
 40
0.0
 40
0.0
 40
0.0
 40
0.0
 40
0.3434322050965701
 40
0.6861644016760157
 40
1.0
 40
1.0
 40
1.0
 40
1.0
 10
331.2510204081604
 20
1165.588842575856
 30
0.0
 10
331.2579028415552
 20
1165.689467640756
 30
0.0
 10
331.2716536800681
 20
1165.890512669223
 30
0.0
 10
331.330963914053
 20
1166.302266249534
 30
0.0
 10
331.3392035200386
 20
1166.596914802487
 30
0.0
 10
331.3431420039157
 20
1166.73775510204
 30
0.0
  0
SPLINE
  5
15F
330
1F
100
AcDbEntity
  8
0
  6
HIDDEN
 62
     7
370
    25
100
AcDbSpline
210
0.0
220
0.0
230
1.0
 70
     8
 71
     3
 72
    10
 73
     6
 74
     0
 42
0.00000001
 43
0.00000001
 40
0.0
 40
0.0
 40
0.0
 40
0.0
 40
0.3436775013766934
 40
0.6868902601229933
 40
0.9999999999999999
 40
0.9999999999999999
 40
0.9999999999999999
 40
0.9999999999999999
 10
617.7588988124053
 20
1166.73775510204
 30
0.0
 10
617.7636925200964
 20
1166.583406414424
 30
0.0
 10
617.7732734531216
 20
1166.274917759328
 30
0.0
 10
617.8332894064134
 20
1165.869781245115
 30
0.0
 10
617.8452936032077
 20
1165.679580876234
 30
0.0
 10
617.8510204081605
 20
1165.588842575856
 30
0.0
  0
LINE
  5
160
330
1F
100
AcDbEntity
  8
0
  6
HIDDEN
 62
     7
370
    25
100
AcDbLine
 10
617.8510204082
 20
1165.5888425759
 30
0.0
 11
617.8510204082
 21
1163.737755102
 31
0.0
  0
LINE
  5
161
330
1F
100
AcDbEntity
  8
0
  6
HIDDEN
 62
     7
370
    25
100
AcDbLine
 10
615.8510204082
 20
1163.737755102
 30
0.0
 11
615.8510204082
 21
1166.737755102
 31
0.0
  0
LINE
  5
162
330
1F
100
AcDbEntity
  8
0
  6
HIDDEN
 62
     7
370
    25
100
AcDbLine
 10
615.8510204082
 20
1166.737755102
 30
0.0
 11
617.7588988124
 21
1166.737755102
 31
0.0
  0
LINE
  5
163
330
1F
100
AcDbEntity
  8
0
  6
HIDDEN
 62
     7
370
    25
100
AcDbLine
 10
617.8510204082
 20
1163.737755102
 30
0.0
 11
615.8510204082
 21
1163.737755102
 31
0.0
  0
LINE
  5
164
330
1F
100
AcDbEntity
  8
0
  6
HIDDEN
 62
     7
370
    25
100
AcDbLine
 10
333.2510204082
 20
1166.737755102
 30
0.0
 11
615.8510204082
 21
1166.737755102
 31
0.0
  0
LINE
  5
165
330
1F
100
AcDbEntity
  8
0
  6
HIDDEN
 62
     7
370
    25
100
AcDbLine
 10
333.2510204082
 20
1163.737755102
 30
0.0
 11
615.8510204082
 21
1163.737755102
 31
0.0
  0
LINE
  5
166
330
1F
100
AcDbEntity
  8
0
  6
HIDDEN
 62
     7
370
    25
100
AcDbLine
 10
333.2510204082
 20
1107.337755102
 30
0.0
 11
333.2510204082
 21
1104.337755102
 31
0.0
  0
LINE
  5
167
330
1F
100
AcDbEntity
  8
0
  6
HIDDEN
 62
     7
370
    25
100
AcDbLine
 10
333.2510204082
 20
1104.337755102
 30
0.0
 11
331.3431420053
 21
1104.337755102
 31
0.0
  0
SPLINE
  5
168
330
1F
100
AcDbEntity
  8
0
  6
HIDDEN
 62
     7
370
    25
100
AcDbSpline
210
0.0
220
0.0
230
1.0
 70
     8
 71
     3
 72
    10
 73
     6
 74
     0
 42
0.00000001
 43
0.00000001
 40
0.0
 40
0.0
 40
0.0
 40
0.0
 40
0.3436774998516928
 40
0.6868902570680331
 40
1.0
 40
1.0
 40
1.0
 40
1.0
 10
331.3431420053265
 20
1104.33775510204
 30
0.0
 10
331.338348297602
 20
1104.492103789599
 30
0.0
 10
331.3287673645104
 20
1104.800592444576
 30
0.0
 10
331.2687514104003
 20
1105.205728960473
 30
0.0
 10
331.2567472133011
 20
1105.395929329992
 30
0.0
 10
331.2510204081604
 20
1105.486667631348
 30
0.0
  0
LINE
  5
169
330
1F
100
AcDbEntity
  8
0
  6
HIDDEN
 62
     7
370
    25
100
AcDbLine
 10
331.2510204082
 20
1105.4866676313
 30
0.0
 11
331.2510204082
 21
1107.337755102
 31
0.0
  0
LINE
  5
16A
330
1F
100
AcDbEntity
  8
0
  6
HIDDEN
 62
     7
370
    25
100
AcDbLine
 10
331.2510204082
 20
1107.337755102
 30
0.0
 11
333.2510204082
 21
1107.337755102
 31
0.0
  0
LINE
  5
16B
330
1F
100
AcDbEntity
  8
0
  6
HIDDEN
 62
     7
370
    25
100
AcDbLine
 10
617.8510204082
 20
1107.337755102
 30
0.0
 11
617.8510204082
 21
1105.4866676313
 31
0.0
  0
SPLINE
  5
16C
330
1F
100
AcDbEntity
  8
0
  6
HIDDEN
 62
     7
370
    25
100
AcDbSpline
210
0.0
220
0.0
230
1.0
 70
     8
 71
     3
 72
    10
 73
     6
 74
     0
 42
0.00000001
 43
0.00000001
 40
0.0
 40
0.0
 40
0.0
 40
0.0
 40
0.3434322035638815
 40
0.6861643986028262
 40
1.0
 40
1.0
 40
1.0
 40
1.0
 10
617.8510204081605
 20
1105.486667631348
 30
0.0
 10
617.8441379747339
 20
1105.38604256695
 30
0.0
 10
617.8303871361576
 20
1105.184997539487
 30
0.0
 10
617.7710769012543
 20
1104.773243958432
 30
0.0
 10
617.7628372950198
 20
1104.478595403561
 30
0.0
 10
617.7588988109943
 20
1104.33775510204
 30
0.0
  0
LINE
  5
16D
330
1F
100
AcDbEntity
  8
0
  6
HIDDEN
 62
     7
370
    25
100
AcDbLine
 10
617.758898811
 20
1104.337755102
 30
0.0
 11
615.8510204082
 21
1104.337755102
 31
0.0
  0
LINE
  5
16E
330
1F
100
AcDbEntity
  8
0
  6
HIDDEN
 62
     7
370
    25
100
AcDbLine
 10
615.8510204082
 20
1104.337755102
 30
0.0
 11
615.8510204082
 21
1107.337755102
 31
0.0
  0
LINE
  5
16F
330
1F
100
AcDbEntity
  8
0
  6
HIDDEN
 62
     7
370
    25
100
AcDbLine
 10
615.8510204082
 20
1107.337755102
 30
0.0
 11
617.8510204082
 21
1107.337755102
 31
0.0
  0
LINE
  5
170
330
1F
100
AcDbEntity
  8
0
  6
HIDDEN
 62
     7
370
    25
100
AcDbLine
 10
333.2510204082
 20
1107.337755102
 30
0.0
 11
615.8510204082
 21
1107.337755102
 31
0.0
  0
LINE
  5
171
330
1F
100
AcDbEntity
  8
0
  6
HIDDEN
 62
     7
370
    25
100
AcDbLine
 10
333.2510204082
 20
1104.337755102
 30
0.0
 11
615.8510204082
 21
1104.337755102
 31
0.0
  0
LINE
  5
172
330
1F
100
AcDbEntity
  8
0
  6
HIDDEN
 62
     7
370
    25
100
AcDbLine
 10
333.5510204082
 20
1163.737755102
 30
0.0
 11
333.5510204082
 21
1163.487755102
 31
0.0
  0
LINE
  5
173
330
1F
100
AcDbEntity
  8
0
  6
HIDDEN
 62
     7
370
    25
100
AcDbLine
 10
615.5510204082
 20
1163.487755102
 30
0.0
 11
615.5510204082
 21
1163.737755102
 31
0.0
  0
LINE
  5
174
330
1F
100
AcDbEntity
  8
0
  6
HIDDEN
 62
     7
370
    25
100
AcDbLine
 10
615.5510204082
 20
1107.337755102
 30
0.0
 11
615.5510204082
 21
1107.587755102
 31
0.0
  0
LINE
  5
175
330
1F
100
AcDbEntity
  8
0
  6
HIDDEN
 62
     7
370
    25
100
AcDbLine
 10
333.5510204082
 20
1107.587755102
 30
0.0
 11
333.5510204082
 21
1107.337755102
 31
0.0
  0
LINE
  5
176
330
1F
100
AcDbEntity
  8
0
  6
HIDDEN
 62
     7
370
    25
100
AcDbLine
 10
332.5510204082
 20
1163.487755102
 30
0.0
 11
332.5510204082
 21
1163.737755102
 31
0.0
  0
LINE
  5
177
330
1F
100
AcDbEntity
  8
0
  6
HIDDEN
 62
     7
370
    25
100
AcDbLine
 10
616.5510204082
 20
1107.587755102
 30
0.0
 11
616.5510204082
 21
1107.337755102
 31
0.0
  0
LINE
  5
178
330
1F
100
AcDbEntity
  8
0
  6
HIDDEN
 62
     7
370
    25
100
AcDbLine
 10
616.5510204082
 20
1163.737755102
 30
0.0
 11
616.5510204082
 21
1163.487755102
 31
0.0
  0
LINE
  5
179
330
1F
100
AcDbEntity
  8
0
  6
HIDDEN
 62
     7
370
    25
100
AcDbLine
 10
332.5510204082
 20
1107.337755102
 30
0.0
 11
332.5510204082
 21
1107.587755102
 31
0.0
  0
LINE
  5
17A
330
1F
100
AcDbEntity
  8
0
  6
HIDDEN
 62
     7
370
    25
100
AcDbLine
 10
331.2510204082
 20
1104.337755102
 30
0.0
 11
331.3431420053
 21
1104.337755102
 31
0.0
  0
LINE
  5
17B
330
1F
100
AcDbEntity
  8
0
  6
HIDDEN
 62
     7
370
    25
100
AcDbLine
 10
617.758898811
 20
1104.337755102
 30
0.0
 11
617.8510204082
 21
1104.337755102
 31
0.0
  0
LINE
  5
17C
330
1F
100
AcDbEntity
  8
0
  6
HIDDEN
 62
     7
370
    25
100
AcDbLine
 10
331.2510204082
 20
1105.4890012814
 30
0.0
 11
331.2510204082
 21
1104.337755102
 31
0.0
  0
LINE
  5
17D
330
1F
100
AcDbEntity
  8
0
  6
HIDDEN
 62
     7
370
    25
100
AcDbLine
 10
617.8510204082
 20
1105.4866676313
 30
0.0
 11
617.8510204082
 21
1104.337755102
 31
0.0
  0
LINE
  5
17E
330
1F
100
AcDbEntity
  8
0
  6
HIDDEN
 62
     7
370
    25
100
AcDbLine
 10
331.2510204082
 20
1166.737755102
 30
0.0
 11
331.2510204082
 21
1165.5888425759
 31
0.0
  0
LINE
  5
17F
330
1F
100
AcDbEntity
  8
0
  6
HIDDEN
 62
     7
370
    25
100
AcDbLine
 10
331.2510204082
 20
1166.737755102
 30
0.0
 11
331.3431420039
 21
1166.737755102
 31
0.0
  0
LINE
  5
180
330
1F
100
AcDbEntity
  8
0
  6
HIDDEN
 62
     7
370
    25
100
AcDbLine
 10
617.7588988124
 20
1166.737755102
 30
0.0
 11
617.8510204082
 21
1166.737755102
 31
0.0
  0
LINE
  5
181
330
1F
100
AcDbEntity
  8
0
  6
HIDDEN
 62
     7
370
    25
100
AcDbLine
 10
617.8510204082
 20
1166.737755102
 30
0.0
 11
617.8510204082
 21
1165.5888425759
 31
0.0
  0
LINE
  5
182
330
1F
100
AcDbEntity
  8
0
  6
Continuous
 62
     7
370
    25
100
AcDbLine
 10
758.7493797792
 20
1182.087755102
 30
0.0
 11
744.3493797792
 21
1182.087755102
 31
0.0
  0
SPLINE
  5
183
330
1F
100
AcDbEntity
  8
0
  6
Continuous
 62
     7
370
    25
100
AcDbSpline
210
0.0
220
0.0
230
1.0
 70
     8
 71
     3
 72
    11
 73
     7
 74
     0
 42
0.00000001
 43
0.00000001
 40
0.0
 40
0.0
 40
0.0
 40
0.0
 40
0.3196651312757838
 40
0.6393302625515175
 40
0.9589953938272475
 40
1.0
 40
1.0
 40
1.0
 40
1.0
 10
1107.751020408163
 20
1214.137755102041
 30
0.0
 10
1107.882661529841
 20
1214.212755102041
 30
0.0
 10
1108.145943773197
 20
1214.362755102041
 30
0.0
 10
1108.467427542215
 20
1214.587755102041
 30
0.0
 10
1108.655908626566
 20
1214.74737562415
 30
0.0
 10
1108.681728700451
 20
1214.831996146259
 30
0.0
 10
1108.684664189213
 20
1214.841616668368
 30
0.0
  0
LINE
  5
184
330
1F
100
AcDbEntity
  8
0
  6
Continuous
 62
     7
370
    25
100
AcDbLine
 10
1109.5510204082
 20
1215.037755102
 30
0.0
 11
1109.094864554
 21
1215.037755102
 31
0.0
  0
SPLINE
  5
185
330
1F
100
AcDbEntity
  8
0
  6
Continuous
 62
     7
370
    25
100
AcDbSpline
210
0.0
220
0.0
230
1.0
 70
     8
 71
     3
 72
    11
 73
     7
 74
     0
 42
0.00000001
 43
0.00000001
 40
0.0
 40
0.0
 40
0.0
 40
0.0
 40
0.2499999999999999
 40
0.5000000000000161
 40
0.7500000000000012
 40
1.0
 40
1.0
 40
1.0
 40
1.0
 10
1107.751020408163
 20
1214.137755102041
 30
0.0
 10
1107.986887087014
 20
1214.212755102041
 30
0.0
 10
1108.458620444716
 20
1214.362755102041
 30
0.0
 10
1109.053601331491
 20
1214.587755102041
 30
0.0
 10
1109.469849915111
 20
1214.812755102041
 30
0.0
 10
1109.523963577145
 20
1214.962755102041
 30
0.0
 10
1109.551020408163
 20
1215.037755102041
 30
0.0
  0
SPLINE
  5
186
330
1F
100
AcDbEntity
  8
0
  6
Continuous
 62
     7
370
    25
100
AcDbSpline
210
0.0
220
0.0
230
1.0
 70
     8
 71
     3
 72
    11
 73
     7
 74
     0
 42
0.00000001
 43
0.00000001
 40
0.0
 40
0.0
 40
0.0
 40
0.0
 40
0.2846552580126468
 40
0.5927444949416183
 40
0.9008837811072032
 40
1.0
 40
1.0
 40
1.0
 40
1.0
 10
312.8510204081627
 20
1184.337755102041
 30
0.0
 10
312.7307320018176
 20
1184.269145840894
 30
0.0
 10
312.4802525581416
 20
1184.126279125098
 30
0.0
 10
312.1604073738657
 20
1183.908855095841
 30
0.0
 10
311.9531954186171
 20
1183.736397734408
 30
0.0
 10
311.923782998797
 20
1183.638021694055
 30
0.0
 10
311.9166247214874
 20
1183.614079326111
 30
0.0
  0
LINE
  5
187
330
1F
100
AcDbEntity
  8
0
  6
Continuous
 62
     7
370
    25
100
AcDbLine
 10
311.5505920889
 20
1183.437755102
 30
0.0
 11
311.0510204082
 21
1183.437755102
 31
0.0
  0
SPLINE
  5
188
330
1F
100
AcDbEntity
  8
0
  6
Continuous
 62
     7
370
    25
100
AcDbSpline
210
0.0
220
0.0
230
1.0
 70
     8
 71
     3
 72
    12
 73
     8
 74
     0
 42
0.00000001
 43
0.00000001
 40
0.0
 40
0.0
 40
0.0
 40
0.0
 40
0.2253337478803797
 40
0.4507151390691128
 40
0.6760967232121969
 40
0.901478093511571
 40
1.0
 40
1.0
 40
1.0
 40
1.0
 10
312.8510204081627
 20
1184.337755102041
 30
0.0
 10
312.6386241473762
 20
1184.270131439108
 30
0.0
 10
312.2137867179248
 20
1184.134869815274
 30
0.0
 10
311.6549317627444
 20
1183.931938093215
 30
0.0
 10
311.2471115407627
 20
1183.729119365894
 30
0.0
 10
311.0695949689575
 20
1183.563963786547
 30
0.0
 10
311.0553525389497
 20
1183.467190658218
 30
0.0
 10
311.0510204081627
 20
1183.437755102041
 30
0.0
  0
SPLINE
  5
189
330
1F
100
AcDbEntity
  8
0
  6
Continuous
 62
     7
370
    25
100
AcDbSpline
210
0.0
220
0.0
230
1.0
 70
     8
 71
     3
 72
    10
 73
     6
 74
     0
 42
0.00000001
 43
0.00000001
 40
0.0
 40
0.0
 40
0.0
 40
0.0
 40
0.3270514720393191
 40
0.6551273325026946
 40
1.0
 40
1.0
 40
1.0
 40
1.0
 10
1107.751020408163
 20
1184.337755102041
 30
0.0
 10
1107.947218961272
 20
1184.167644770594
 30
0.0
 10
1108.34023059928
 20
1183.826891289262
 30
0.0
 10
1108.940035627397
 20
1183.423060652702
 30
0.0
 10
1109.343997846555
 20
1183.366659543155
 30
0.0
 10
1109.551020408163
 20
1183.337755102041
 30
0.0
  0
LINE
  5
18A
330
1F
100
AcDbEntity
  8
0
  6
Continuous
 62
     7
370
    25
100
AcDbLine
 10
1109.5510204082
 20
1182.537755102
 30
0.0
 11
1109.5510204082
 21
1183.337755102
 31
0.0
  0
SPLINE
  5
18B
330
1F
100
AcDbEntity
  8
0
  6
Continuous
 62
     7
370
    25
100
AcDbSpline
210
0.0
220
0.0
230
1.0
 70
     8
 71
     3
 72
    11
 73
     7
 74
     0
 42
0.00000001
 43
0.00000001
 40
0.0
 40
0.0
 40
0.0
 40
0.0
 40
0.2450334515710097
 40
0.4998973412928204
 40
0.7547871358978452
 40
1.0
 40
1.0
 40
1.0
 40
1.0
 10
1107.751020408163
 20
1184.337755102041
 30
0.0
 10
1107.897999963314
 20
1184.10663460291
 30
0.0
 10
1108.197855711064
 20
1183.635121336893
 30
0.0
 10
1108.650849603114
 20
1183.034080425101
 30
0.0
 10
1109.103950807772
 20
1182.616972797261
 30
0.0
 10
1109.403932076027
 20
1182.563818154987
 30
0.0
 10
1109.551020408163
 20
1182.537755102041
 30
0.0
  0
LINE
  5
18C
330
1F
100
AcDbEntity
  8
0
  6
Continuous
 62
     7
370
    25
100
AcDbLine
 10
312.8510204082
 20
1214.137755102
 30
0.0
 11
312.8510204082
 21
1184.337755102
 31
0.0
  0
LINE
  5
18D
330
1F
100
AcDbEntity
  8
0
  6
Continuous
 62
     7
370
    25
100
AcDbLine
 10
1107.7510204082
 20
1214.137755102
 30
0.0
 11
312.8510204082
 21
1214.137755102
 31
0.0
  0
LINE
  5
18E
330
1F
100
AcDbEntity
  8
0
  6
Continuous
 62
     7
370
    25
100
AcDbLine
 10
1107.7510204082
 20
1184.337755102
 30
0.0
 11
1107.7510204082
 21
1214.137755102
 31
0.0
  0
LINE
  5
18F
330
1F
100
AcDbEntity
  8
0
  6
Continuous
 62
     7
370
    25
100
AcDbLine
 10
312.8510204082
 20
1184.337755102
 30
0.0
 11
1107.7510204082
 21
1184.337755102
 31
0.0
  0
LINE
  5
190
330
1F
100
AcDbEntity
  8
0
  6
Continuous
 62
     7
370
    25
100
AcDbLine
 10
1109.1175959948
 20
1183.437755102
 30
0.0
 11
1109.5510204082
 21
1183.437755102
 31
0.0
  0
SPLINE
  5
191
330
1F
100
AcDbEntity
  8
0
  6
Continuous
 62
     7
370
    25
100
AcDbSpline
210
0.0
220
0.0
230
1.0
 70
     8
 71
     3
 72
    11
 73
     7
 74
     0
 42
0.00000001
 43
0.00000001
 40
0.0
 40
0.0
 40
0.0
 40
0.0
 40
0.042756928813759
 40
0.3618379525425087
 40
0.6809189762712717
 40
1.0
 40
1.0
 40
1.0
 40
1.0
 10
1108.685100100407
 20
1183.632605051528
 30
0.0
 10
1108.682046456281
 20
1183.642655068366
 30
0.0
 10
1108.656204461336
 20
1183.727705085203
 30
0.0
 10
1108.46751637388
 20
1183.887755102041
 30
0.0
 10
1108.145921565281
 20
1184.112755102041
 30
0.0
 10
1107.882654127202
 20
1184.262755102041
 30
0.0
 10
1107.751020408163
 20
1184.337755102041
 30
0.0
  0
SPLINE
  5
192
330
1F
100
AcDbEntity
  8
0
  6
Continuous
 62
     7
370
    25
100
AcDbSpline
210
0.0
220
0.0
230
1.0
 70
     8
 71
     3
 72
    11
 73
     7
 74
     0
 42
0.00000001
 43
0.00000001
 40
0.0
 40
0.0
 40
0.0
 40
0.0
 40
0.2500000000000028
 40
0.4999999999999948
 40
0.7500000000000256
 40
0.9999999999999999
 40
0.9999999999999999
 40
0.9999999999999999
 40
0.9999999999999999
 10
1109.551020408163
 20
1183.437755102041
 30
0.0
 10
1109.523963577145
 20
1183.512755102041
 30
0.0
 10
1109.469849915111
 20
1183.662755102041
 30
0.0
 10
1109.053601331491
 20
1183.887755102041
 30
0.0
 10
1108.458620444717
 20
1184.112755102041
 30
0.0
 10
1107.986887087014
 20
1184.262755102041
 30
0.0
 10
1107.751020408163
 20
1184.337755102041
 30
0.0
  0
LINE
  5
193
330
1F
100
AcDbEntity
  8
0
  6
Continuous
 62
     7
370
    25
100
AcDbLine
 10
311.0510204082
 20
1182.537755102
 30
0.0
 11
1109.5510204082
 21
1182.537755102
 31
0.0
  0
SPLINE
  5
194
330
1F
100
AcDbEntity
  8
0
  6
Continuous
 62
     7
370
    25
100
AcDbSpline
210
0.0
220
0.0
230
1.0
 70
     8
 71
     3
 72
    11
 73
     7
 74
     0
 42
0.00000001
 43
0.00000001
 40
0.0
 40
0.0
 40
0.0
 40
0.0
 40
0.2500000000000015
 40
0.5000000000000036
 40
0.7500000000000007
 40
1.0
 40
1.0
 40
1.0
 40
1.0
 10
311.0510204081642
 20
1182.537755102041
 30
0.0
 10
311.2010204081641
 20
1182.564811933058
 30
0.0
 10
311.5010204081639
 20
1182.618925595093
 30
0.0
 10
311.9510204081634
 20
1183.035174178713
 30
0.0
 10
312.401020408163
 20
1183.630155065487
 30
0.0
 10
312.7010204081628
 20
1184.10188842319
 30
0.0
 10
312.8510204081627
 20
1184.337755102041
 30
0.0
  0
LINE
  5
195
330
1F
100
AcDbEntity
  8
0
  6
Continuous
 62
     7
370
    25
100
AcDbLine
 10
1109.5510204082
 20
1183.437755102
 30
0.0
 11
1109.5510204082
 21
1215.037755102
 31
0.0
  0
SPLINE
  5
196
330
1F
100
AcDbEntity
  8
0
  6
Continuous
 62
     7
370
    25
100
AcDbSpline
210
0.0
220
0.0
230
1.0
 70
     8
 71
     3
 72
    10
 73
     6
 74
     0
 42
0.00000001
 43
0.00000001
 40
0.0
 40
0.0
 40
0.0
 40
0.0
 40
0.3270436703753285
 40
0.6551194676656329
 40
1.0
 40
1.0
 40
1.0
 40
1.0
 10
1109.551020408163
 20
1215.137755102041
 30
0.0
 10
1109.354826591076
 20
1215.111770791669
 30
0.0
 10
1108.961819782959
 20
1215.059720166263
 30
0.0
 10
1108.362014764962
 20
1214.667435172747
 30
0.0
 10
1107.958047749087
 20
1214.317230174697
 30
0.0
 10
1107.751020408163
 20
1214.137755102041
 30
0.0
  0
SPLINE
  5
197
330
1F
100
AcDbEntity
  8
0
  6
Continuous
 62
     7
370
    25
100
AcDbSpline
210
0.0
220
0.0
230
1.0
 70
     8
 71
     3
 72
    11
 73
     7
 74
     0
 42
0.00000001
 43
0.00000001
 40
0.0
 40
0.0
 40
0.0
 40
0.0
 40
0.2475522032093777
 40
0.5024226380969328
 40
0.7573126004816974
 40
1.0
 40
1.0
 40
1.0
 40
1.0
 10
1109.551020408163
 20
1215.937755102041
 30
0.0
 10
1109.402512754547
 20
1215.911194803269
 30
0.0
 10
1109.101107208
 20
1215.857289020147
 30
0.0
 10
1108.646616291068
 20
1215.436571531898
 30
0.0
 10
1108.195008582376
 20
1214.835921975586
 30
0.0
 10
1107.896576891507
 20
1214.366641186859
 30
0.0
 10
1107.751020408163
 20
1214.137755102041
 30
0.0
  0
LINE
  5
198
330
1F
100
AcDbEntity
  8
0
  6
Continuous
 62
     7
370
    25
100
AcDbLine
 10
1109.5510204082
 20
1215.937755102
 30
0.0
 11
1109.5510204082
 21
1215.137755102
 31
0.0
  0
SPLINE
  5
199
330
1F
100
AcDbEntity
  8
0
  6
Continuous
 62
     7
370
    25
100
AcDbSpline
210
0.0
220
0.0
230
1.0
 70
     8
 71
     3
 72
    11
 73
     7
 74
     0
 42
0.00000001
 43
0.00000001
 40
0.0
 40
0.0
 40
0.0
 40
0.0
 40
0.2500000000000029
 40
0.5000000000000009
 40
0.7500000000000017
 40
1.0
 40
1.0
 40
1.0
 40
1.0
 10
311.0510204081642
 20
1183.337755102041
 30
0.0
 10
311.201020408164
 20
1183.352786674828
 30
0.0
 10
311.5010204081639
 20
1183.382849820403
 30
0.0
 10
311.9510204081635
 20
1183.614099033525
 30
0.0
 10
312.401020408163
 20
1183.944643970622
 30
0.0
 10
312.7010204081628
 20
1184.206718058235
 30
0.0
 10
312.8510204081627
 20
1184.337755102041
 30
0.0
  0
LINE
  5
19A
330
1F
100
AcDbEntity
  8
0
  6
Continuous
 62
     7
370
    25
100
AcDbLine
 10
311.0510204082
 20
1182.537755102
 30
0.0
 11
311.0510204082
 21
1183.337755102
 31
0.0
  0
SPLINE
  5
19B
330
1F
100
AcDbEntity
  8
0
  6
Continuous
 62
     7
370
    25
100
AcDbSpline
210
0.0
220
0.0
230
1.0
 70
     8
 71
     3
 72
    11
 73
     7
 74
     0
 42
0.00000001
 43
0.00000001
 40
0.0
 40
0.0
 40
0.0
 40
0.0
 40
0.2499999999999826
 40
0.4999999999999972
 40
0.7500000000000178
 40
1.0
 40
1.0
 40
1.0
 40
1.0
 10
312.8510204081626
 20
1214.137755102041
 30
0.0
 10
312.7010204081627
 20
1214.373621780892
 30
0.0
 10
312.4010204081628
 20
1214.845355138595
 30
0.0
 10
311.9510204081627
 20
1215.440336025369
 30
0.0
 10
311.5010204081627
 20
1215.856584608989
 30
0.0
 10
311.2010204081627
 20
1215.910698271024
 30
0.0
 10
311.0510204081629
 20
1215.937755102041
 30
0.0
  0
LINE
  5
19C
330
1F
100
AcDbEntity
  8
0
  6
Continuous
 62
     7
370
    25
100
AcDbLine
 10
1109.5510204082
 20
1215.937755102
 30
0.0
 11
311.0510204082
 21
1215.937755102
 31
0.0
  0
LINE
  5
19D
330
1F
100
AcDbEntity
  8
0
  6
Continuous
 62
     7
370
    25
100
AcDbLine
 10
311.0510204082
 20
1215.037755102
 30
0.0
 11
311.0510204082
 21
1183.437755102
 31
0.0
  0
SPLINE
  5
19E
330
1F
100
AcDbEntity
  8
0
  6
Continuous
 62
     7
370
    25
100
AcDbSpline
210
0.0
220
0.0
230
1.0
 70
     8
 71
     3
 72
    12
 73
     8
 74
     0
 42
0.00000001
 43
0.00000001
 40
0.0
 40
0.0
 40
0.0
 40
0.0
 40
0.225334301687443
 40
0.450715694699535
 40
0.676097280297002
 40
0.9014786520556319
 40
1.0
 40
1.0
 40
1.0
 40
1.0
 10
311.0510204081627
 20
1215.037755102041
 30
0.0
 10
311.0729586432219
 20
1214.970131271331
 30
0.0
 10
311.1168396980861
 20
1214.834869477594
 30
0.0
 10
311.4578403480273
 20
1214.631937591147
 30
0.0
 10
311.9553331570229
 20
1214.429118863745
 30
0.0
 10
312.4545777237261
 20
1214.26396345126
 30
0.0
 10
312.758558660254
 20
1214.167190490882
 30
0.0
 10
312.8510204081627
 20
1214.137755102041
 30
0.0
  0
SPLINE
  5
19F
330
1F
100
AcDbEntity
  8
0
  6
Continuous
 62
     7
370
    25
100
AcDbSpline
210
0.0
220
0.0
230
1.0
 70
     8
 71
     3
 72
    11
 73
     7
 74
     0
 42
0.00000001
 43
0.00000001
 40
0.0
 40
0.0
 40
0.0
 40
0.0
 40
0.2499999999999641
 40
0.5000000000000009
 40
0.7500000000000351
 40
0.9999999999999999
 40
0.9999999999999999
 40
0.9999999999999999
 40
0.9999999999999999
 10
312.8510204081626
 20
1214.137755102041
 30
0.0
 10
312.7010204081626
 20
1214.268792145847
 30
0.0
 10
312.4010204081628
 20
1214.53086623346
 30
0.0
 10
311.9510204081627
 20
1214.861411170557
 30
0.0
 10
311.5010204081627
 20
1215.092660383679
 30
0.0
 10
311.2010204081628
 20
1215.122723529254
 30
0.0
 10
311.0510204081629
 20
1215.137755102041
 30
0.0
  0
LINE
  5
1A0
330
1F
100
AcDbEntity
  8
0
  6
Continuous
 62
     7
370
    25
100
AcDbLine
 10
311.0510204082
 20
1215.937755102
 30
0.0
 11
311.0510204082
 21
1215.137755102
 31
0.0
  0
SPLINE
  5
1A1
330
1F
100
AcDbEntity
  8
0
  6
Continuous
 62
     7
370
    25
100
AcDbSpline
210
0.0
220
0.0
230
1.0
 70
     8
 71
     3
 72
    12
 73
     8
 74
     0
 42
0.00000001
 43
0.00000001
 40
0.0
 40
0.0
 40
0.0
 40
0.0
 40
0.0464799107901402
 40
0.351793144797642
 40
0.6571617142865107
 40
0.9625304658184745
 40
1.0
 40
1.0
 40
1.0
 40
1.0
 10
311.9031801451773
 20
1214.867907361964
 30
0.0
 10
311.9062400106153
 20
1214.856602187651
 30
0.0
 10
311.9293992565518
 20
1214.771036558192
 30
0.0
 10
312.1049800744494
 20
1214.610941632782
 30
0.0
 10
312.414728372325
 20
1214.388152357842
 30
0.0
 10
312.6902874025452
 20
1214.229878368275
 30
0.0
 10
312.8351843129445
 20
1214.146831475685
 30
0.0
 10
312.8510204081627
 20
1214.137755102041
 30
0.0
  0
LINE
  5
1A2
330
1F
100
AcDbEntity
  8
0
  6
Continuous
 62
     7
370
    25
100
AcDbLine
 10
311.0510204082
 20
1215.037755102
 30
0.0
 11
311.5505920889
 21
1215.037755102
 31
0.0
  0
LINE
  5
1A3
330
1F
100
AcDbEntity
  8
0
  6
Continuous
 62
     7
370
    25
100
AcDbLine
 10
340.9683054233
 20
1182.0647809271
 30
0.0
 11
341.0162545919
 21
1182.1488404706
 31
0.0
  0
SPLINE
  5
1A4
330
1F
100
AcDbEntity
  8
0
  6
Continuous
 62
     7
370
    25
100
AcDbSpline
210
0.0
220
0.0
230
1.0
 70
     8
 71
     3
 72
    12
 73
     8
 74
     0
 42
0.00000001
 43
0.00000001
 40
0.0
 40
0.0
 40
0.0
 40
0.0
 40
0.1591001189659381
 40
0.3202041399010712
 40
0.6168538849297307
 40
0.9140545764647939
 40
0.9999999999999999
 40
0.9999999999999999
 40
0.9999999999999999
 40
0.9999999999999999
 10
340.9683054233287
 20
1182.064780927142
 30
0.0
 10
340.9068269299873
 20
1182.059001586686
 30
0.0
 10
340.7830956077813
 20
1182.047370113675
 30
0.0
 10
340.5656077525146
 20
1182.151126910681
 30
0.0
 10
340.361449422353
 20
1182.340386736332
 30
0.0
 10
340.1644647516835
 20
1182.522821819231
 30
0.0
 10
340.0352697226053
 20
1182.535019074613
 30
0.0
 10
340.006289338736
 20
1182.537755102041
 30
0.0
  0
LINE
  5
1A5
330
1F
100
AcDbEntity
  8
0
  6
Continuous
 62
     7
370
    25
100
AcDbLine
 10
340.6707165337
 20
1182.3013893411
 30
0.0
 11
340.9103529815
 21
1182.3013893411
 31
0.0
  0
LINE
  5
1A6
330
1F
100
AcDbEntity
  8
0
  6
Continuous
 62
     7
370
    25
100
AcDbLine
 10
341.0162326016
 20
1182.1488384219
 30
0.0
 11
341.0162575667
 21
1182.1488821462
 31
0.0
  0
LINE
  5
1A7
330
1F
100
AcDbEntity
  8
0
  6
Continuous
 62
     7
370
    25
100
AcDbLine
 10
340.0233823442
 20
1182.1488384768
 30
0.0
 11
339.8863893839
 21
1182.2328982485
 31
0.0
  0
SPLINE
  5
1A8
330
1F
100
AcDbEntity
  8
0
  6
Continuous
 62
     7
370
    25
100
AcDbSpline
210
0.0
220
0.0
230
1.0
 70
     8
 71
     3
 72
    13
 73
     9
 74
     0
 42
0.00000001
 43
0.00000001
 40
0.0
 40
0.0
 40
0.0
 40
0.0
 40
0.142116697832237
 40
0.2860202338336613
 40
0.5510761480912377
 40
0.8166554578065942
 40
0.9604895185151445
 40
1.0
 40
1.0
 40
1.0
 40
1.0
 10
339.8863893838632
 20
1182.23289824845
 30
0.0
 10
339.9394454939285
 20
1182.238624808219
 30
0.0
 10
340.0462247903703
 20
1182.250149927991
 30
0.0
 10
340.2472203223109
 20
1182.146670866498
 30
0.0
 10
340.447512118277
 20
1181.953121126511
 30
0.0
 10
340.6769599138942
 20
1181.763538496955
 30
0.0
 10
340.8735348983043
 20
1181.747917641831
 30
0.0
 10
340.9516175961966
 20
1181.757398218421
 30
0.0
 10
340.9684443037301
 20
1181.759441268852
 30
0.0
  0
LINE
  5
1A9
330
1F
100
AcDbEntity
  8
0
  6
Continuous
 62
     7
370
    25
100
AcDbLine
 10
340.9684443037
 20
1181.7594412689
 30
0.0
 11
341.1032713804
 21
1181.9962893411
 31
0.0
  0
SPLINE
  5
1AA
330
1F
100
AcDbEntity
  8
0
  6
Continuous
 62
     7
370
    25
100
AcDbSpline
210
0.0
220
0.0
230
1.0
 70
     8
 71
     3
 72
    10
 73
     6
 74
     0
 42
0.00000001
 43
0.00000001
 40
0.0
 40
0.0
 40
0.0
 40
0.0
 40
0.3223023543358957
 40
0.6611511742599284
 40
1.0
 40
1.0
 40
1.0
 40
1.0
 10
340.2719930326858
 20
1181.996289341107
 30
0.0
 10
340.2452924749755
 20
1182.012679037446
 30
0.0
 10
340.1905205974322
 20
1182.046299849812
 30
0.0
 10
340.1076572385202
 20
1182.097150722957
 30
0.0
 10
340.0514866850157
 20
1182.131610623129
 30
0.0
 10
340.0234014080224
 20
1182.148840573363
 30
0.0
  0
LINE
  5
1AB
330
1F
100
AcDbEntity
  8
0
  6
Continuous
 62
     7
370
    25
100
AcDbLine
 10
343.2200052726
 20
1182.0647809271
 30
0.0
 11
343.0826540873
 21
1182.1488404706
 31
0.0
  0
SPLINE
  5
1AC
330
1F
100
AcDbEntity
  8
0
  6
Continuous
 62
     7
370
    25
100
AcDbSpline
210
0.0
220
0.0
230
1.0
 70
     8
 71
     3
 72
    12
 73
     8
 74
     0
 42
0.00000001
 43
0.00000001
 40
0.0
 40
0.0
 40
0.0
 40
0.0
 40
0.1591001189661128
 40
0.3202041399010048
 40
0.616853884929746
 40
0.9140545764649984
 40
1.0
 40
1.0
 40
1.0
 40
1.0
 10
343.2200052725613
 20
1182.064780927142
 30
0.0
 10
343.1670848959855
 20
1182.059001586686
 30
0.0
 10
343.0605775987263
 20
1182.047370113675
 30
0.0
 10
342.8601548118863
 20
1182.151126910681
 30
0.0
 10
342.6596450649263
 20
1182.340386736332
 30
0.0
 10
342.455526622428
 20
1182.522821819231
 30
0.0
 10
342.3093316900818
 20
1182.535019074613
 30
0.0
 10
342.2765379727897
 20
1182.537755102041
 30
0.0
  0
LINE
  5
1AD
330
1F
100
AcDbEntity
  8
0
  6
Continuous
 62
     7
370
    25
100
AcDbLine
 10
342.0027154585
 20
1182.3013893411
 30
0.0
 11
342.1390089321
 21
1182.537755102
 31
0.0
  0
LINE
  5
1AE
330
1F
100
AcDbEntity
  8
0
  6
Continuous
 62
     7
370
    25
100
AcDbLine
 10
342.8333930597
 20
1182.3013893411
 30
0.0
 11
343.0206743802
 21
1182.1867723302
 31
0.0
  0
LINE
  5
1AF
330
1F
100
AcDbEntity
  8
0
  6
Continuous
 62
     7
370
    25
100
AcDbLine
 10
343.0826349544
 20
1182.1488384219
 30
0.0
 11
343.0206743802
 21
1182.1867723302
 31
0.0
  0
SPLINE
  5
1B0
330
1F
100
AcDbEntity
  8
0
  6
Continuous
 62
     7
370
    25
100
AcDbSpline
210
0.0
220
0.0
230
1.0
 70
     8
 71
     3
 72
    13
 73
     9
 74
     0
 42
0.00000001
 43
0.00000001
 40
0.0
 40
0.0
 40
0.0
 40
0.0
 40
0.142116697832346
 40
0.2860202338337419
 40
0.551076148091574
 40
0.8166554578071743
 40
0.9604895185153626
 40
1.0
 40
1.0
 40
1.0
 40
1.0
 10
340.9682711046176
 20
1182.23289824845
 30
0.0
 10
341.0302939584048
 20
1182.238624808219
 30
0.0
 10
341.1551194814701
 20
1182.250149927991
 30
0.0
 10
341.3817010223243
 20
1182.146670866498
 30
0.0
 10
341.600613737374
 20
1181.953121126511
 30
0.0
 10
341.8433426008915
 20
1181.763538496955
 30
0.0
 10
342.0439771657983
 20
1181.747917641831
 30
0.0
 10
342.1221895965844
 20
1181.757398218421
 30
0.0
 10
342.1390442613674
 20
1181.759441268852
 30
0.0
  0
LINE
  5
1B1
330
1F
100
AcDbEntity
  8
0
  6
Continuous
 62
     7
370
    25
100
AcDbLine
 10
340.9684089615
 20
1182.537755102
 30
0.0
 11
340.9682711046
 21
1182.2328982485
 31
0.0
  0
SPLINE
  5
1B2
330
1F
100
AcDbEntity
  8
0
  6
Continuous
 62
     7
370
    25
100
AcDbSpline
210
0.0
220
0.0
230
1.0
 70
     8
 71
     3
 72
    12
 73
     8
 74
     0
 42
0.00000001
 43
0.00000001
 40
0.0
 40
0.0
 40
0.0
 40
0.0
 40
0.1591001189661093
 40
0.3202041399010315
 40
0.6168538849299288
 40
0.9140545764650809
 40
1.0
 40
1.0
 40
1.0
 40
1.0
 10
342.1389054307983
 20
1182.064780927142
 30
0.0
 10
342.0769932085381
 20
1182.059001586686
 30
0.0
 10
341.9523889655804
 20
1182.047370113675
 30
0.0
 10
341.7262173558626
 20
1182.151126910681
 30
0.0
 10
341.5072125706706
 20
1182.340386736332
 30
0.0
 10
341.2901371300677
 20
1182.522821819231
 30
0.0
 10
341.1410971569256
 20
1182.535019074613
 30
0.0
 10
341.1076652542871
 20
1182.537755102041
 30
0.0
  0
LINE
  5
1B3
330
1F
100
AcDbEntity
  8
0
  6
Continuous
 62
     7
370
    25
100
AcDbLine
 10
342.1390442614
 20
1181.7594412689
 30
0.0
 11
342.1389054308
 21
1182.0647809271
 31
0.0
  0
LINE
  5
1B4
330
1F
100
AcDbEntity
  8
0
  6
Continuous
 62
     7
370
    25
100
AcDbLine
 10
339.8865063021
 20
1182.537755102
 30
0.0
 11
339.8863893839
 21
1182.2328982485
 31
0.0
  0
LINE
  5
1B5
330
1F
100
AcDbEntity
  8
0
  6
Continuous
 62
     7
370
    25
100
AcDbLine
 10
340.9684443037
 20
1181.7594412689
 30
0.0
 11
340.9683054233
 21
1182.0647809271
 31
0.0
  0
LINE
  5
1B6
330
1F
100
AcDbEntity
  8
0
  6
Continuous
 62
     7
370
    25
100
AcDbLine
 10
340.9682711046
 20
1182.2328982485
 30
0.0
 11
341.0162324655
 21
1182.1488385299
 31
0.0
  0
LINE
  5
1B7
330
1F
100
AcDbEntity
  8
0
  6
Continuous
 62
     7
370
    25
100
AcDbLine
 10
341.1032713804
 20
1181.9962893411
 30
0.0
 11
341.5530332846
 21
1181.9962893411
 31
0.0
  0
SPLINE
  5
1B8
330
1F
100
AcDbEntity
  8
0
  6
Continuous
 62
     7
370
    25
100
AcDbSpline
210
0.0
220
0.0
230
1.0
 70
     8
 71
     3
 72
    10
 73
     6
 74
     0
 42
0.00000001
 43
0.00000001
 40
0.0
 40
0.0
 40
0.0
 40
0.0
 40
0.3223023543381371
 40
0.6611511742646703
 40
1.0
 40
1.0
 40
1.0
 40
1.0
 10
341.0162547265573
 20
1182.148840573363
 30
0.0
 10
341.0256110672779
 20
1182.13245199577
 30
0.0
 10
341.0448040876546
 20
1182.09883347833
 30
0.0
 10
341.0738101619045
 20
1182.047982685037
 30
0.0
 10
341.0934509741832
 20
1182.013520455849
 30
0.0
 10
341.1032713804066
 20
1181.996289341107
 30
0.0
  0
LINE
  5
1B9
330
1F
100
AcDbEntity
  8
0
  6
Continuous
 62
     7
370
    25
100
AcDbLine
 10
342.0905213778
 20
1182.1488405231
 30
0.0
 11
342.1389054308
 21
1182.0647809271
 31
0.0
  0
LINE
  5
1BA
330
1F
100
AcDbEntity
  8
0
  6
Continuous
 62
     7
370
    25
100
AcDbLine
 10
341.5530311015
 20
1182.3013893411
 30
0.0
 11
342.0027154585
 21
1182.3013893411
 31
0.0
  0
LINE
  5
1BB
330
1F
100
AcDbEntity
  8
0
  6
Continuous
 62
     7
370
    25
100
AcDbLine
 10
342.0027154585
 20
1182.3013893411
 30
0.0
 11
342.0686881231
 21
1182.1867723302
 31
0.0
  0
LINE
  5
1BC
330
1F
100
AcDbEntity
  8
0
  6
Continuous
 62
     7
370
    25
100
AcDbLine
 10
342.0904991523
 20
1182.1488384219
 30
0.0
 11
342.0686881231
 21
1182.1867723302
 31
0.0
  0
SPLINE
  5
1BD
330
1F
100
AcDbEntity
  8
0
  6
Continuous
 62
     7
370
    25
100
AcDbSpline
210
0.0
220
0.0
230
1.0
 70
     8
 71
     3
 72
    13
 73
     9
 74
     0
 42
0.00000001
 43
0.00000001
 40
0.0
 40
0.0
 40
0.0
 40
0.0
 40
0.1421166978323014
 40
0.2860202338337817
 40
0.5510761480913726
 40
0.816655457806476
 40
0.9604895185149985
 40
1.0
 40
1.0
 40
1.0
 40
1.0
 10
342.1388711239999
 20
1182.23289824845
 30
0.0
 10
342.2004183042584
 20
1182.238624808219
 30
0.0
 10
342.3242864996064
 20
1182.250149927991
 30
0.0
 10
342.5419590637461
 20
1182.146670866498
 30
0.0
 10
342.7461652214608
 20
1181.953121126512
 30
0.0
 10
342.9652218837504
 20
1181.763538496955
 30
0.0
 10
343.139371235404
 20
1181.747917641831
 30
0.0
 10
343.2058062654946
 20
1181.757398218421
 30
0.0
 10
343.2201229176018
 20
1181.759441268852
 30
0.0
  0
LINE
  5
1BE
330
1F
100
AcDbEntity
  8
0
  6
Continuous
 62
     7
370
    25
100
AcDbLine
 10
342.1390089321
 20
1182.537755102
 30
0.0
 11
342.138871124
 21
1182.2328982485
 31
0.0
  0
LINE
  5
1BF
330
1F
100
AcDbEntity
  8
0
  6
Continuous
 62
     7
370
    25
100
AcDbLine
 10
343.2201229176
 20
1181.7594412689
 30
0.0
 11
343.2200052726
 21
1182.0647809271
 31
0.0
  0
LINE
  5
1C0
330
1F
100
AcDbEntity
  8
0
  6
Continuous
 62
     7
370
    25
100
AcDbLine
 10
342.0904992589
 20
1182.1488384768
 30
0.0
 11
342.138871124
 21
1182.2328982485
 31
0.0
  0
LINE
  5
1C1
330
1F
100
AcDbEntity
  8
0
  6
Continuous
 62
     7
370
    25
100
AcDbLine
 10
342.1873324643
 20
1181.9962893411
 30
0.0
 11
342.4350415753
 21
1181.9962893411
 31
0.0
  0
LINE
  5
1C2
330
1F
100
AcDbEntity
  8
0
  6
Continuous
 62
     7
370
    25
100
AcDbLine
 10
339.0579326464
 20
1182.2328982485
 30
0.0
 11
339.2631011101
 21
1182.1488385299
 31
0.0
  0
SPLINE
  5
1C3
330
1F
100
AcDbEntity
  8
0
  6
Continuous
 62
     7
370
    25
100
AcDbSpline
210
0.0
220
0.0
230
1.0
 70
     8
 71
     3
 72
    13
 73
     9
 74
     0
 42
0.00000001
 43
0.00000001
 40
0.0
 40
0.0
 40
0.0
 40
0.0
 40
0.1421166978324312
 40
0.2860202338337854
 40
0.5510761480916325
 40
0.8166554578070591
 40
0.9604895185156032
 40
1.0
 40
1.0
 40
1.0
 40
1.0
 10
339.0579326464387
 20
1182.23289824845
 30
0.0
 10
339.0939447009795
 20
1182.238624808219
 30
0.0
 10
339.1664215908716
 20
1182.250149927991
 30
0.0
 10
339.3112313661896
 20
1182.146670866498
 30
0.0
 10
339.4624096327868
 20
1181.953121126511
 30
0.0
 10
339.6436450135705
 20
1181.763538496955
 30
0.0
 10
339.8062336580639
 20
1181.747917641831
 30
0.0
 10
339.8722992401293
 20
1181.757398218421
 30
0.0
 10
339.8865362767257
 20
1181.759441268852
 30
0.0
  0
LINE
  5
1C4
330
1F
100
AcDbEntity
  8
0
  6
Continuous
 62
     7
370
    25
100
AcDbLine
 10
339.8865362767
 20
1181.7594412689
 30
0.0
 11
340.2719930327
 21
1181.9962893411
 31
0.0
  0
LINE
  5
1C5
330
1F
100
AcDbEntity
  8
0
  6
Continuous
 62
     7
370
    25
100
AcDbLine
 10
339.2631142342
 20
1182.1488405734
 30
0.0
 11
339.3083549568
 21
1182.1303064141
 31
0.0
  0
LINE
  5
1C6
330
1F
100
AcDbEntity
  8
0
  6
Continuous
 62
     7
370
    25
100
AcDbLine
 10
339.0580108263
 20
1182.537755102
 30
0.0
 11
339.0579326464
 21
1182.2328982485
 31
0.0
  0
SPLINE
  5
1C7
330
1F
100
AcDbEntity
  8
0
  6
Continuous
 62
     7
370
    25
100
AcDbSpline
210
0.0
220
0.0
230
1.0
 70
     8
 71
     3
 72
    13
 73
     9
 74
     0
 42
0.00000001
 43
0.00000001
 40
0.0
 40
0.0
 40
0.0
 40
0.0
 40
0.1419103113865068
 40
0.285608015229121
 40
0.5502065457856743
 40
0.815296496403687
 40
0.9369116823971135
 40
1.0
 40
1.0
 40
1.0
 40
1.0
 10
339.886418489774
 20
1182.064780927142
 30
0.0
 10
339.8347308798957
 20
1182.059032991812
 30
0.0
 10
339.7307046430068
 20
1182.047464724606
 30
0.0
 10
339.555057754456
 20
1182.150608109964
 30
0.0
 10
339.3964953212561
 20
1182.344230290837
 30
0.0
 10
339.2398172342203
 20
1182.525487172813
 30
0.0
 10
339.118709377142
 20
1182.550594908075
 30
0.0
 10
339.0734648047002
 20
1182.541024143598
 30
0.0
 10
339.0580108262945
 20
1182.537755102041
 30
0.0
  0
LINE
  5
1C8
330
1F
100
AcDbEntity
  8
0
  6
Continuous
 62
     7
370
    25
100
AcDbLine
 10
339.8865362767
 20
1181.7594412689
 30
0.0
 11
339.8864184898
 21
1182.0647809271
 31
0.0
  0
LINE
  5
1C9
330
1F
100
AcDbEntity
  8
0
  6
Continuous
 62
     7
370
    25
100
AcDbLine
 10
340.023401109
 20
1182.1488405231
 30
0.0
 11
339.8864184898
 21
1182.0647809271
 31
0.0
  0
LINE
  5
1CA
330
1F
100
AcDbEntity
  8
0
  6
Continuous
 62
     7
370
    25
100
AcDbLine
 10
343.2199762006
 20
1182.2328982485
 30
0.0
 11
343.0826353439
 21
1182.1488385299
 31
0.0
  0
SPLINE
  5
1CB
330
1F
100
AcDbEntity
  8
0
  6
Continuous
 62
     7
370
    25
100
AcDbSpline
210
0.0
220
0.0
230
1.0
 70
     8
 71
     3
 72
    13
 73
     9
 74
     0
 42
0.00000001
 43
0.00000001
 40
0.0
 40
0.0
 40
0.0
 40
0.0
 40
0.1421166978323319
 40
0.2860202338337043
 40
0.5510761480914796
 40
0.8166554578068794
 40
0.9604895185152755
 40
1.0
 40
1.0
 40
1.0
 40
1.0
 10
343.2199762005744
 20
1182.23289824845
 30
0.0
 10
343.2716777070365
 20
1182.238624808219
 30
0.0
 10
343.3757307647937
 20
1182.250149927991
 30
0.0
 10
343.5513556775348
 20
1182.146670866498
 30
0.0
 10
343.7097667415371
 20
1181.953121126512
 30
0.0
 10
343.8718018115189
 20
1181.763538496955
 30
0.0
 10
343.9929532897976
 20
1181.747917641831
 30
0.0
 10
344.0374967880962
 20
1181.757398218421
 30
0.0
 10
344.047095847025
 20
1181.759441268852
 30
0.0
  0
LINE
  5
1CC
330
1F
100
AcDbEntity
  8
0
  6
Continuous
 62
     7
370
    25
100
AcDbLine
 10
343.2200929798
 20
1182.537755102
 30
0.0
 11
343.2199762006
 21
1182.2328982485
 31
0.0
  0
SPLINE
  5
1CD
330
1F
100
AcDbEntity
  8
0
  6
Continuous
 62
     7
370
    25
100
AcDbSpline
210
0.0
220
0.0
230
1.0
 70
     8
 71
     3
 72
    12
 73
     8
 74
     0
 42
0.00000001
 43
0.00000001
 40
0.0
 40
0.0
 40
0.0
 40
0.0
 40
0.1591001189661824
 40
0.3202041399010458
 40
0.6168538849302131
 40
0.9140545764652815
 40
1.0
 40
1.0
 40
1.0
 40
1.0
 10
344.0470172979033
 20
1182.064780927142
 30
0.0
 10
344.0111454146213
 20
1182.059001586686
 30
0.0
 10
343.9389498335771
 20
1182.047370113675
 30
0.0
 10
343.7947884220747
 20
1182.151126910681
 30
0.0
 10
343.6432995046951
 20
1182.340386736332
 30
0.0
 10
343.4832132428339
 20
1182.522821819231
 30
0.0
 10
343.3621202044732
 20
1182.535019074613
 30
0.0
 10
343.3349572187096
 20
1182.537755102041
 30
0.0
  0
LINE
  5
1CE
330
1F
100
AcDbEntity
  8
0
  6
Continuous
 62
     7
370
    25
100
AcDbLine
 10
344.047095847
 20
1181.7594412689
 30
0.0
 11
344.0470172979
 21
1182.0647809271
 31
0.0
  0
LINE
  5
1CF
330
1F
100
AcDbEntity
  8
0
  6
Continuous
 62
     7
370
    25
100
AcDbLine
 10
343.2200929798
 20
1182.537755102
 30
0.0
 11
342.8333930597
 21
1182.3013893411
 31
0.0
  0
LINE
  5
1D0
330
1F
100
AcDbEntity
  8
0
  6
Continuous
 62
     7
370
    25
100
AcDbLine
 10
343.8416092947
 20
1182.1488405231
 30
0.0
 11
344.0470172979
 21
1182.0647809271
 31
0.0
  0
SPLINE
  5
1D1
330
1F
100
AcDbEntity
  8
0
  6
Continuous
 62
     7
370
    25
100
AcDbSpline
210
0.0
220
0.0
230
1.0
 70
     8
 71
     3
 72
    13
 73
     9
 74
     0
 42
0.00000001
 43
0.00000001
 40
0.0
 40
0.0
 40
0.0
 40
0.0
 40
0.1421166978323347
 40
0.2860202338336913
 40
0.5510761480911862
 40
0.8166554578063973
 40
0.9604895185145715
 40
1.0
 40
1.0
 40
1.0
 40
1.0
 10
338.6090259206386
 20
1182.23289824845
 30
0.0
 10
338.6225114108013
 20
1182.238624808219
 30
0.0
 10
338.649651944662
 20
1182.250149927991
 30
0.0
 10
338.7162299877688
 20
1182.146670866498
 30
0.0
 10
338.7952792043417
 20
1181.953121126512
 30
0.0
 10
338.9007107264699
 20
1181.763538496955
 30
0.0
 10
339.0045603837925
 20
1181.747917641831
 30
0.0
 10
339.0485509640478
 20
1181.757398218421
 30
0.0
 10
339.0580308699446
 20
1181.759441268852
 30
0.0
  0
LINE
  5
1D2
330
1F
100
AcDbEntity
  8
0
  6
Continuous
 62
     7
370
    25
100
AcDbLine
 10
338.6090534599
 20
1182.537755102
 30
0.0
 11
338.6090259206
 21
1182.2328982485
 31
0.0
  0
SPLINE
  5
1D3
330
1F
100
AcDbEntity
  8
0
  6
Continuous
 62
     7
370
    25
100
AcDbSpline
210
0.0
220
0.0
230
1.0
 70
     8
 71
     3
 72
    11
 73
     7
 74
     0
 42
0.00000001
 43
0.00000001
 40
0.0
 40
0.0
 40
0.0
 40
0.0
 40
0.1965526436526475
 40
0.39558091229015
 40
0.7620626723493652
 40
1.0
 40
1.0
 40
1.0
 40
1.0
 10
339.0579521084385
 20
1182.064780927142
 30
0.0
 10
339.0239176052762
 20
1182.059146878056
 30
0.0
 10
338.9554199266894
 20
1182.047807817761
 30
0.0
 10
338.8484864313729
 20
1182.148726752559
 30
0.0
 10
338.7711595404842
 20
1182.329149514783
 30
0.0
 10
338.7196480405546
 20
1182.42367710266
 30
0.0
 10
338.6993698777935
 20
1182.460889100272
 30
0.0
  0
LINE
  5
1D4
330
1F
100
AcDbEntity
  8
0
  6
Continuous
 62
     7
370
    25
100
AcDbLine
 10
339.0580308699
 20
1181.7594412689
 30
0.0
 11
339.0579521084
 21
1182.0647809271
 31
0.0
  0
LINE
  5
1D5
330
1F
100
AcDbEntity
  8
0
  6
Continuous
 62
     7
370
    25
100
AcDbLine
 10
339.0580308699
 20
1181.7594412689
 30
0.0
 11
339.4897459377
 21
1181.9365284679
 31
0.0
  0
LINE
  5
1D6
330
1F
100
AcDbEntity
  8
0
  6
Continuous
 62
     7
370
    25
100
AcDbLine
 10
339.0579521084
 20
1182.0647809271
 30
0.0
 11
339.2631136582
 21
1182.1488404706
 31
0.0
  0
LINE
  5
1D7
330
1F
100
AcDbEntity
  8
0
  6
Continuous
 62
     7
370
    25
100
AcDbLine
 10
338.6664403842
 20
1182.2129640727
 30
0.0
 11
338.6090259206
 21
1182.2328982485
 31
0.0
  0
LINE
  5
1D8
330
1F
100
AcDbEntity
  8
0
  6
Continuous
 62
     7
370
    25
100
AcDbLine
 10
339.057970895
 20
1182.3820458311
 30
0.0
 11
338.6701932275
 21
1182.5165484661
 31
0.0
  0
LINE
  5
1D9
330
1F
100
AcDbEntity
  8
0
  6
Continuous
 62
     7
370
    25
100
AcDbLine
 10
343.8415967787
 20
1182.1488384768
 30
0.0
 11
344.0469978867
 21
1182.2328982485
 31
0.0
  0
SPLINE
  5
1DA
330
1F
100
AcDbEntity
  8
0
  6
Continuous
 62
     7
370
    25
100
AcDbSpline
210
0.0
220
0.0
230
1.0
 70
     8
 71
     3
 72
    13
 73
     9
 74
     0
 42
0.00000001
 43
0.00000001
 40
0.0
 40
0.0
 40
0.0
 40
0.0
 40
0.1421166978323463
 40
0.2860202338338744
 40
0.5510761480916787
 40
0.8166554578071868
 40
0.9604895185157717
 40
1.0
 40
1.0
 40
1.0
 40
1.0
 10
344.0469978866746
 20
1182.23289824845
 30
0.0
 10
344.0809826336566
 20
1182.238624808219
 30
0.0
 10
344.1493794190227
 20
1182.250149927991
 30
0.0
 10
344.2562193794448
 20
1182.146670866498
 30
0.0
 10
344.3447187012392
 20
1181.953121126511
 30
0.0
 10
344.4250638083605
 20
1181.763538496955
 30
0.0
 10
344.4747731989369
 20
1181.747917641831
 30
0.0
 10
344.4906438216159
 20
1181.757398218421
 30
0.0
 10
344.4940639176602
 20
1181.759441268852
 30
0.0
  0
LINE
  5
1DB
330
1F
100
AcDbEntity
  8
0
  6
Continuous
 62
     7
370
    25
100
AcDbLine
 10
344.4335799431
 20
1181.7804542551
 30
0.0
 11
344.0470558966
 21
1181.9147381635
 31
0.0
  0
LINE
  5
1DC
330
1F
100
AcDbEntity
  8
0
  6
Continuous
 62
     7
370
    25
100
AcDbLine
 10
343.615563194
 20
1182.3613651344
 30
0.0
 11
344.0470758585
 21
1182.537755102
 31
0.0
  0
LINE
  5
1DD
330
1F
100
AcDbEntity
  8
0
  6
Continuous
 62
     7
370
    25
100
AcDbLine
 10
344.0470758585
 20
1182.537755102
 30
0.0
 11
344.0469978867
 21
1182.2328982485
 31
0.0
  0
SPLINE
  5
1DE
330
1F
100
AcDbEntity
  8
0
  6
Continuous
 62
     7
370
    25
100
AcDbSpline
210
0.0
220
0.0
230
1.0
 70
     8
 71
     3
 72
    13
 73
     9
 74
     0
 42
0.00000001
 43
0.00000001
 40
0.0
 40
0.0
 40
0.0
 40
0.0
 40
0.1419103113864686
 40
0.2856080152290555
 40
0.5502065457857863
 40
0.8152964964039775
 40
0.9369116823976616
 40
0.9999999999999999
 40
0.9999999999999999
 40
0.9999999999999999
 40
0.9999999999999999
 10
344.494036422849
 20
1182.064780927142
 30
0.0
 10
344.4806805147823
 20
1182.059032991812
 30
0.0
 10
344.4538004779674
 20
1182.047464724606
 30
0.0
 10
344.3877244055204
 20
1182.150608109964
 30
0.0
 10
344.3091960268051
 20
1182.344230290837
 30
0.0
 10
344.2077603840368
 20
1182.525487172813
 30
0.0
 10
344.1061783564555
 20
1182.550594908075
 30
0.0
 10
344.0621234784726
 20
1182.541024143598
 30
0.0
 10
344.0470758584762
 20
1182.537755102041
 30
0.0
  0
LINE
  5
1DF
330
1F
100
AcDbEntity
  8
0
  6
Continuous
 62
     7
370
    25
100
AcDbLine
 10
344.4940639177
 20
1181.7594412689
 30
0.0
 11
344.4940364228
 21
1182.0647809271
 31
0.0
  0
LINE
  5
1E0
330
1F
100
AcDbEntity
  8
0
  6
Continuous
 62
     7
370
    25
100
AcDbLine
 10
344.4940364228
 20
1182.0647809271
 30
0.0
 11
344.4371543823
 21
1182.0845233509
 31
0.0
  0
SPLINE
  5
1E1
330
1F
100
AcDbEntity
  8
0
  6
Continuous
 62
     7
370
    25
100
AcDbSpline
210
0.0
220
0.0
230
1.0
 70
     8
 71
     3
 72
    10
 73
     6
 74
     0
 42
0.00000001
 43
0.00000001
 40
0.0
 40
0.0
 40
0.0
 40
0.0
 40
0.4156288886462868
 40
0.8364834937191435
 40
1.0
 40
1.0
 40
1.0
 40
1.0
 10
338.6080111861163
 20
1182.23289824845
 30
0.0
 10
338.5971338979809
 20
1182.238165795039
 30
0.0
 10
338.5752425611891
 20
1182.248767117263
 30
0.0
 10
338.5590944243324
 20
1182.190123999801
 30
0.0
 10
338.5578895860447
 20
1182.135352811464
 30
0.0
 10
338.5575524527682
 20
1182.120026945439
 30
0.0
  0
SPLINE
  5
1E2
330
1F
100
AcDbEntity
  8
0
  6
Continuous
 62
     7
370
    25
100
AcDbSpline
210
0.0
220
0.0
230
1.0
 70
     8
 71
     3
 72
    11
 73
     7
 74
     0
 42
0.00000001
 43
0.00000001
 40
0.0
 40
0.0
 40
0.0
 40
0.0
 40
0.1030913913741844
 40
0.6336944505424922
 40
0.9210616882474132
 40
1.0
 40
1.0
 40
1.0
 40
1.0
 10
338.5528864909603
 20
1181.99499656176
 30
0.0
 10
338.5522602944537
 20
1181.981434185168
 30
0.0
 10
338.5484111151398
 20
1181.89806735242
 30
0.0
 10
338.5620587575282
 20
1181.762435181504
 30
0.0
 10
338.5905307331457
 20
1181.747961723749
 30
0.0
 10
338.6057753322685
 20
1181.757406033807
 30
0.0
 10
338.6090605211496
 20
1181.759441268852
 30
0.0
  0
LINE
  5
1E3
330
1F
100
AcDbEntity
  8
0
  6
Continuous
 62
     7
370
    25
100
AcDbLine
 10
338.6090605211
 20
1181.7594412689
 30
0.0
 11
338.8746244904
 21
1181.8517423818
 31
0.0
  0
LINE
  5
1E4
330
1F
100
AcDbEntity
  8
0
  6
Continuous
 62
     7
370
    25
100
AcDbLine
 10
338.6090605211
 20
1181.7594412689
 30
0.0
 11
338.6090327758
 21
1182.0647809271
 31
0.0
  0
LINE
  5
1E5
330
1F
100
AcDbEntity
  8
0
  6
Continuous
 62
     7
370
    25
100
AcDbLine
 10
338.7287311225
 20
1182.1063402618
 30
0.0
 11
338.6090327758
 21
1182.0647809271
 31
0.0
  0
SPLINE
  5
1E6
330
1F
100
AcDbEntity
  8
0
  6
Continuous
 62
     7
370
    25
100
AcDbSpline
210
0.0
220
0.0
230
1.0
 70
     8
 71
     3
 72
    10
 73
     6
 74
     0
 42
0.00000001
 43
0.00000001
 40
0.0
 40
0.0
 40
0.0
 40
0.0
 40
0.2813095273738845
 40
0.5661622118459297
 40
1.0
 40
1.0
 40
1.0
 40
1.0
 10
338.6090327758139
 20
1182.064780927142
 30
0.0
 10
338.597896915669
 20
1182.059076643999
 30
0.0
 10
338.5754849367032
 20
1182.047596230976
 30
0.0
 10
338.5542208086609
 20
1182.141382696824
 30
0.0
 10
338.5532749672306
 20
1182.244400549652
 30
0.0
 10
338.552704009677
 20
1182.306587317272
 30
0.0
  0
LINE
  5
1E7
330
1F
100
AcDbEntity
  8
0
  6
Continuous
 62
     7
370
    25
100
AcDbLine
 10
338.6079838922
 20
1182.537755102
 30
0.0
 11
338.6090534264
 21
1182.5373842836
 31
0.0
  0
LINE
  5
1E8
330
1F
100
AcDbEntity
  8
0
  6
Continuous
 62
     7
370
    25
100
AcDbLine
 10
344.4940569214
 20
1182.537755102
 30
0.0
 11
344.2296172616
 21
1182.4460711735
 31
0.0
  0
LINE
  5
1E9
330
1F
100
AcDbEntity
  8
0
  6
Continuous
 62
     7
370
    25
100
AcDbLine
 10
344.4940569214
 20
1182.537755102
 30
0.0
 11
344.4940296276
 21
1182.2328982485
 31
0.0
  0
LINE
  5
1EA
330
1F
100
AcDbEntity
  8
0
  6
Continuous
 62
     7
370
    25
100
AcDbLine
 10
344.4940296276
 20
1182.2328982485
 30
0.0
 11
344.3749740913
 21
1182.1915763628
 31
0.0
  0
SPLINE
  5
1EB
330
1F
100
AcDbEntity
  8
0
  6
Continuous
 62
     7
370
    25
100
AcDbSpline
210
0.0
220
0.0
230
1.0
 70
     8
 71
     3
 72
    13
 73
     9
 74
     0
 42
0.00000001
 43
0.00000001
 40
0.0
 40
0.0
 40
0.0
 40
0.0
 40
0.1421166978324647
 40
0.2860202338338306
 40
0.5510761480919003
 40
0.816655457807582
 40
0.9604895185160572
 40
0.9999999999999999
 40
0.9999999999999999
 40
0.9999999999999999
 40
0.9999999999999999
 10
344.4940296275618
 20
1182.23289824845
 30
0.0
 10
344.5051237454085
 20
1182.238624808219
 30
0.0
 10
344.5274514678298
 20
1182.250149927991
 30
0.0
 10
344.5492410604652
 20
1182.146670866498
 30
0.0
 10
344.5543554205573
 20
1181.953121126511
 30
0.0
 10
344.5407787505878
 20
1181.763538496954
 30
0.0
 10
344.5114782493654
 20
1181.747917641831
 30
0.0
 10
344.4962598379882
 20
1181.757398218422
 30
0.0
 10
344.4929802925283
 20
1181.759441268852
 30
0.0
  0
LINE
  5
1EC
330
1F
100
AcDbEntity
  8
0
  6
Continuous
 62
     7
370
    25
100
AcDbLine
 10
344.4929802925
 20
1181.7594412689
 30
0.0
 11
344.047055976
 21
1181.9144295785
 31
0.0
  0
SPLINE
  5
1ED
330
1F
100
AcDbEntity
  8
0
  6
Continuous
 62
     7
370
    25
100
AcDbSpline
210
0.0
220
0.0
230
1.0
 70
     8
 71
     3
 72
    11
 73
     7
 74
     0
 42
0.00000001
 43
0.00000001
 40
0.0
 40
0.0
 40
0.0
 40
0.0
 40
0.0923106480574192
 40
0.6272657996453374
 40
0.8726869108820109
 40
1.0
 40
1.0
 40
1.0
 40
1.0
 10
344.5493368040012
 20
1182.306587317272
 30
0.0
 10
344.5499148136948
 20
1182.318617189397
 30
0.0
 10
344.553842483149
 20
1182.400362118251
 30
0.0
 10
344.5410553205497
 20
1182.52637299957
 30
0.0
 10
344.514201462068
 20
1182.550527431543
 30
0.0
 10
344.4991857637513
 20
1182.541006963932
 30
0.0
 10
344.4940569214391
 20
1182.537755102041
 30
0.0
  0
LINE
  5
1EE
330
1F
100
AcDbEntity
  8
0
  6
Continuous
 62
     7
370
    25
100
AcDbLine
 10
338.6080043908
 20
1182.0647809271
 30
0.0
 11
338.7285927438
 21
1182.1066343195
 31
0.0
  0
SPLINE
  5
1EF
330
1F
100
AcDbEntity
  8
0
  6
Continuous
 62
     7
370
    25
100
AcDbSpline
210
0.0
220
0.0
230
1.0
 70
     8
 71
     3
 72
    10
 73
     6
 74
     0
 42
0.00000001
 43
0.00000001
 40
0.0
 40
0.0
 40
0.0
 40
0.0
 40
0.3834427420120924
 40
0.7894054018744988
 40
1.0
 40
1.0
 40
1.0
 40
1.0
 10
338.8724235520428
 20
1182.446071173459
 30
0.0
 10
338.8898542057226
 20
1182.476709832463
 30
0.0
 10
338.9257392301745
 20
1182.539786584935
 30
0.0
 10
338.9961558584253
 20
1182.549891658699
 30
0.0
 10
339.039992035767
 20
1182.540845094832
 30
0.0
 10
339.0549649552015
 20
1182.537755102041
 30
0.0
  0
LINE
  5
1F0
330
1F
100
AcDbEntity
  8
0
  6
Continuous
 62
     7
370
    25
100
AcDbLine
 10
339.058010507
 20
1182.536510168
 30
0.0
 11
339.0549649552
 21
1182.537755102
 31
0.0
  0
SPLINE
  5
1F1
330
1F
100
AcDbEntity
  8
0
  6
Continuous
 62
     7
370
    25
100
AcDbSpline
210
0.0
220
0.0
230
1.0
 70
     8
 71
     3
 72
    10
 73
     6
 74
     0
 42
0.00000001
 43
0.00000001
 40
0.0
 40
0.0
 40
0.0
 40
0.0
 40
0.3886151440722915
 40
0.8682474550834858
 40
1.0
 40
1.0
 40
1.0
 40
1.0
 10
344.2274163233101
 20
1181.85174238177
 30
0.0
 10
344.2096225061915
 20
1181.820577208409
 30
0.0
 10
344.169867399719
 20
1181.750947697386
 30
0.0
 10
344.0972964630552
 20
1181.748369500426
 30
0.0
 10
344.0534572337261
 20
1181.757478329475
 30
0.0
 10
344.0440099437331
 20
1181.759441268852
 30
0.0
  0
LINE
  5
1F2
330
1F
100
AcDbEntity
  8
0
  6
Continuous
 62
     7
370
    25
100
AcDbLine
 10
344.2294252665
 20
1182.446337266
 30
0.0
 11
344.4929873537
 21
1182.537755102
 31
0.0
  0
LINE
  5
1F3
330
1F
100
AcDbEntity
  8
0
  6
Continuous
 62
     7
370
    25
100
AcDbLine
 10
339.8819478339
 20
1182.537755102
 30
0.0
 11
339.8865052338
 21
1182.5349694452
 31
0.0
  0
LINE
  5
1F4
330
1F
100
AcDbEntity
  8
0
  6
Continuous
 62
     7
370
    25
100
AcDbLine
 10
344.0440299874
 20
1182.537755102
 30
0.0
 11
343.6988372673
 21
1182.3964521527
 31
0.0
  0
LINE
  5
1F5
330
1F
100
AcDbEntity
  8
0
  6
Continuous
 62
     7
370
    25
100
AcDbLine
 10
344.0440299874
 20
1182.537755102
 30
0.0
 11
344.0440303066
 21
1182.536510168
 31
0.0
  0
LINE
  5
1F6
330
1F
100
AcDbEntity
  8
0
  6
Continuous
 62
     7
370
    25
100
AcDbLine
 10
343.2155345116
 20
1182.537755102
 30
0.0
 11
343.0510204082
 21
1182.4368813283
 31
0.0
  0
LINE
  5
1F7
330
1F
100
AcDbEntity
  8
0
  6
Continuous
 62
     7
370
    25
100
AcDbLine
 10
343.2155345116
 20
1182.537755102
 30
0.0
 11
343.2155355799
 21
1182.5349694452
 31
0.0
  0
LINE
  5
1F8
330
1F
100
AcDbEntity
  8
0
  6
Continuous
 62
     7
370
    25
100
AcDbLine
 10
772.0905213778
 20
1182.1488405231
 30
0.0
 11
772.1389054308
 21
1182.0647809271
 31
0.0
  0
SPLINE
  5
1F9
330
1F
100
AcDbEntity
  8
0
  6
Continuous
 62
     7
370
    25
100
AcDbSpline
210
0.0
220
0.0
230
1.0
 70
     8
 71
     3
 72
    12
 73
     8
 74
     0
 42
0.00000001
 43
0.00000001
 40
0.0
 40
0.0
 40
0.0
 40
0.0
 40
0.1591001189660098
 40
0.3202041399009222
 40
0.6168538849296831
 40
0.914054576464817
 40
1.0
 40
1.0
 40
1.0
 40
1.0
 10
772.1389054307983
 20
1182.064780927142
 30
0.0
 10
772.076993208538
 20
1182.059001586686
 30
0.0
 10
771.9523889655804
 20
1182.047370113675
 30
0.0
 10
771.726217355863
 20
1182.151126910681
 30
0.0
 10
771.5072125706707
 20
1182.340386736332
 30
0.0
 10
771.2901371300674
 20
1182.522821819231
 30
0.0
 10
771.1410971569253
 20
1182.535019074613
 30
0.0
 10
771.1076652542866
 20
1182.537755102041
 30
0.0
  0
LINE
  5
1FA
330
1F
100
AcDbEntity
  8
0
  6
Continuous
 62
     7
370
    25
100
AcDbLine
 10
771.5530311015
 20
1182.3013893411
 30
0.0
 11
772.0027154585
 21
1182.3013893411
 31
0.0
  0
LINE
  5
1FB
330
1F
100
AcDbEntity
  8
0
  6
Continuous
 62
     7
370
    25
100
AcDbLine
 10
772.0027154585
 20
1182.3013893411
 30
0.0
 11
772.0686881231
 21
1182.1867723302
 31
0.0
  0
LINE
  5
1FC
330
1F
100
AcDbEntity
  8
0
  6
Continuous
 62
     7
370
    25
100
AcDbLine
 10
772.0904991523
 20
1182.1488384219
 30
0.0
 11
772.0686881231
 21
1182.1867723302
 31
0.0
  0
LINE
  5
1FD
330
1F
100
AcDbEntity
  8
0
  6
Continuous
 62
     7
370
    25
100
AcDbLine
 10
770.9682711046
 20
1182.2328982485
 30
0.0
 11
771.0162324655
 21
1182.1488385299
 31
0.0
  0
SPLINE
  5
1FE
330
1F
100
AcDbEntity
  8
0
  6
Continuous
 62
     7
370
    25
100
AcDbSpline
210
0.0
220
0.0
230
1.0
 70
     8
 71
     3
 72
    13
 73
     9
 74
     0
 42
0.00000001
 43
0.00000001
 40
0.0
 40
0.0
 40
0.0
 40
0.0
 40
0.1421166978323767
 40
0.2860202338337224
 40
0.5510761480915676
 40
0.8166554578071474
 40
0.9604895185152829
 40
0.9999999999999999
 40
0.9999999999999999
 40
0.9999999999999999
 40
0.9999999999999999
 10
770.9682711046175
 20
1182.23289824845
 30
0.0
 10
771.0302939584047
 20
1182.238624808219
 30
0.0
 10
771.15511948147
 20
1182.250149927991
 30
0.0
 10
771.3817010223244
 20
1182.146670866498
 30
0.0
 10
771.6006137373744
 20
1181.953121126511
 30
0.0
 10
771.8433426008913
 20
1181.763538496955
 30
0.0
 10
772.0439771657983
 20
1181.747917641831
 30
0.0
 10
772.1221895965845
 20
1181.757398218421
 30
0.0
 10
772.1390442613674
 20
1181.759441268852
 30
0.0
  0
LINE
  5
1FF
330
1F
100
AcDbEntity
  8
0
  6
Continuous
 62
     7
370
    25
100
AcDbLine
 10
771.1032713804
 20
1181.9962893411
 30
0.0
 11
771.5530332846
 21
1181.9962893411
 31
0.0
  0
SPLINE
  5
200
330
1F
100
AcDbEntity
  8
0
  6
Continuous
 62
     7
370
    25
100
AcDbSpline
210
0.0
220
0.0
230
1.0
 70
     8
 71
     3
 72
    10
 73
     6
 74
     0
 42
0.00000001
 43
0.00000001
 40
0.0
 40
0.0
 40
0.0
 40
0.0
 40
0.322302354338094
 40
0.6611511742646271
 40
1.0
 40
1.0
 40
1.0
 40
1.0
 10
771.0162547265575
 20
1182.148840573363
 30
0.0
 10
771.025611067278
 20
1182.13245199577
 30
0.0
 10
771.0448040876544
 20
1182.09883347833
 30
0.0
 10
771.0738101619047
 20
1182.047982685037
 30
0.0
 10
771.0934509741834
 20
1182.013520455849
 30
0.0
 10
771.1032713804067
 20
1181.996289341107
 30
0.0
  0
LINE
  5
201
330
1F
100
AcDbEntity
  8
0
  6
Continuous
 62
     7
370
    25
100
AcDbLine
 10
770.0233823442
 20
1182.1488384768
 30
0.0
 11
769.8863893839
 21
1182.2328982485
 31
0.0
  0
SPLINE
  5
202
330
1F
100
AcDbEntity
  8
0
  6
Continuous
 62
     7
370
    25
100
AcDbSpline
210
0.0
220
0.0
230
1.0
 70
     8
 71
     3
 72
    13
 73
     9
 74
     0
 42
0.00000001
 43
0.00000001
 40
0.0
 40
0.0
 40
0.0
 40
0.0
 40
0.1421166978321653
 40
0.2860202338335895
 40
0.5510761480911966
 40
0.816655457806553
 40
0.9604895185151033
 40
1.0
 40
1.0
 40
1.0
 40
1.0
 10
769.8863893838633
 20
1182.23289824845
 30
0.0
 10
769.9394454939285
 20
1182.238624808219
 30
0.0
 10
770.0462247903704
 20
1182.250149927991
 30
0.0
 10
770.2472203223108
 20
1182.146670866498
 30
0.0
 10
770.4475121182774
 20
1181.953121126512
 30
0.0
 10
770.6769599138936
 20
1181.763538496955
 30
0.0
 10
770.8735348983047
 20
1181.747917641831
 30
0.0
 10
770.9516175961967
 20
1181.757398218421
 30
0.0
 10
770.9684443037302
 20
1181.759441268852
 30
0.0
  0
LINE
  5
203
330
1F
100
AcDbEntity
  8
0
  6
Continuous
 62
     7
370
    25
100
AcDbLine
 10
770.9684443037
 20
1181.7594412689
 30
0.0
 11
771.1032713804
 21
1181.9962893411
 31
0.0
  0
SPLINE
  5
204
330
1F
100
AcDbEntity
  8
0
  6
Continuous
 62
     7
370
    25
100
AcDbSpline
210
0.0
220
0.0
230
1.0
 70
     8
 71
     3
 72
    10
 73
     6
 74
     0
 42
0.00000001
 43
0.00000001
 40
0.0
 40
0.0
 40
0.0
 40
0.0
 40
0.3223023543357725
 40
0.6611511742598052
 40
1.0
 40
1.0
 40
1.0
 40
1.0
 10
770.2719930326858
 20
1181.996289341107
 30
0.0
 10
770.2452924749755
 20
1182.012679037446
 30
0.0
 10
770.1905205974324
 20
1182.046299849812
 30
0.0
 10
770.1076572385205
 20
1182.097150722957
 30
0.0
 10
770.0514866850156
 20
1182.131610623129
 30
0.0
 10
770.0234014080223
 20
1182.148840573363
 30
0.0
  0
SPLINE
  5
205
330
1F
100
AcDbEntity
  8
0
  6
Continuous
 62
     7
370
    25
100
AcDbSpline
210
0.0
220
0.0
230
1.0
 70
     8
 71
     3
 72
    13
 73
     9
 74
     0
 42
0.00000001
 43
0.00000001
 40
0.0
 40
0.0
 40
0.0
 40
0.0
 40
0.1421166978322925
 40
0.2860202338337637
 40
0.5510761480914008
 40
0.8166554578064874
 40
0.960489518515001
 40
1.0
 40
1.0
 40
1.0
 40
1.0
 10
772.1388711239998
 20
1182.23289824845
 30
0.0
 10
772.2004183042582
 20
1182.238624808219
 30
0.0
 10
772.3242864996065
 20
1182.250149927991
 30
0.0
 10
772.5419590637459
 20
1182.146670866498
 30
0.0
 10
772.746165221461
 20
1181.953121126512
 30
0.0
 10
772.9652218837501
 20
1181.763538496955
 30
0.0
 10
773.1393712354044
 20
1181.747917641831
 30
0.0
 10
773.2058062654946
 20
1181.757398218421
 30
0.0
 10
773.220122917602
 20
1181.759441268852
 30
0.0
  0
LINE
  5
206
330
1F
100
AcDbEntity
  8
0
  6
Continuous
 62
     7
370
    25
100
AcDbLine
 10
772.1390089321
 20
1182.537755102
 30
0.0
 11
772.138871124
 21
1182.2328982485
 31
0.0
  0
SPLINE
  5
207
330
1F
100
AcDbEntity
  8
0
  6
Continuous
 62
     7
370
    25
100
AcDbSpline
210
0.0
220
0.0
230
1.0
 70
     8
 71
     3
 72
    12
 73
     8
 74
     0
 42
0.00000001
 43
0.00000001
 40
0.0
 40
0.0
 40
0.0
 40
0.0
 40
0.1591001189660044
 40
0.3202041399008273
 40
0.6168538849294413
 40
0.9140545764646427
 40
1.0
 40
1.0
 40
1.0
 40
1.0
 10
773.2200052725615
 20
1182.064780927142
 30
0.0
 10
773.1670848959857
 20
1182.059001586686
 30
0.0
 10
773.0605775987264
 20
1182.047370113675
 30
0.0
 10
772.8601548118863
 20
1182.151126910681
 30
0.0
 10
772.6596450649265
 20
1182.340386736332
 30
0.0
 10
772.4555266224281
 20
1182.522821819231
 30
0.0
 10
772.3093316900814
 20
1182.535019074613
 30
0.0
 10
772.2765379727891
 20
1182.537755102041
 30
0.0
  0
LINE
  5
208
330
1F
100
AcDbEntity
  8
0
  6
Continuous
 62
     7
370
    25
100
AcDbLine
 10
773.2201229176
 20
1181.7594412689
 30
0.0
 11
773.2200052726
 21
1182.0647809271
 31
0.0
  0
LINE
  5
209
330
1F
100
AcDbEntity
  8
0
  6
Continuous
 62
     7
370
    25
100
AcDbLine
 10
773.2200052726
 20
1182.0647809271
 30
0.0
 11
773.0826540873
 21
1182.1488404706
 31
0.0
  0
LINE
  5
20A
330
1F
100
AcDbEntity
  8
0
  6
Continuous
 62
     7
370
    25
100
AcDbLine
 10
772.0027154585
 20
1182.3013893411
 30
0.0
 11
772.1390089321
 21
1182.537755102
 31
0.0
  0
LINE
  5
20B
330
1F
100
AcDbEntity
  8
0
  6
Continuous
 62
     7
370
    25
100
AcDbLine
 10
772.8333930597
 20
1182.3013893411
 30
0.0
 11
773.0206743802
 21
1182.1867723302
 31
0.0
  0
LINE
  5
20C
330
1F
100
AcDbEntity
  8
0
  6
Continuous
 62
     7
370
    25
100
AcDbLine
 10
773.0826349544
 20
1182.1488384219
 30
0.0
 11
773.0206743802
 21
1182.1867723302
 31
0.0
  0
LINE
  5
20D
330
1F
100
AcDbEntity
  8
0
  6
Continuous
 62
     7
370
    25
100
AcDbLine
 10
770.9684089615
 20
1182.537755102
 30
0.0
 11
770.9682711046
 21
1182.2328982485
 31
0.0
  0
LINE
  5
20E
330
1F
100
AcDbEntity
  8
0
  6
Continuous
 62
     7
370
    25
100
AcDbLine
 10
772.1390442614
 20
1181.7594412689
 30
0.0
 11
772.1389054308
 21
1182.0647809271
 31
0.0
  0
LINE
  5
20F
330
1F
100
AcDbEntity
  8
0
  6
Continuous
 62
     7
370
    25
100
AcDbLine
 10
770.9683054233
 20
1182.0647809271
 30
0.0
 11
771.0162545919
 21
1182.1488404706
 31
0.0
  0
SPLINE
  5
210
330
1F
100
AcDbEntity
  8
0
  6
Continuous
 62
     7
370
    25
100
AcDbSpline
210
0.0
220
0.0
230
1.0
 70
     8
 71
     3
 72
    12
 73
     8
 74
     0
 42
0.00000001
 43
0.00000001
 40
0.0
 40
0.0
 40
0.0
 40
0.0
 40
0.1591001189659151
 40
0.3202041399010204
 40
0.6168538849294805
 40
0.9140545764644872
 40
1.0
 40
1.0
 40
1.0
 40
1.0
 10
770.9683054233287
 20
1182.064780927142
 30
0.0
 10
770.9068269299873
 20
1182.059001586686
 30
0.0
 10
770.7830956077813
 20
1182.047370113675
 30
0.0
 10
770.5656077525144
 20
1182.15112691068
 30
0.0
 10
770.3614494223532
 20
1182.340386736332
 30
0.0
 10
770.1644647516837
 20
1182.522821819231
 30
0.0
 10
770.0352697226051
 20
1182.535019074613
 30
0.0
 10
770.0062893387357
 20
1182.537755102041
 30
0.0
  0
LINE
  5
211
330
1F
100
AcDbEntity
  8
0
  6
Continuous
 62
     7
370
    25
100
AcDbLine
 10
770.6707165337
 20
1182.3013893411
 30
0.0
 11
770.9103529815
 21
1182.3013893411
 31
0.0
  0
LINE
  5
212
330
1F
100
AcDbEntity
  8
0
  6
Continuous
 62
     7
370
    25
100
AcDbLine
 10
772.0904992589
 20
1182.1488384768
 30
0.0
 11
772.138871124
 21
1182.2328982485
 31
0.0
  0
LINE
  5
213
330
1F
100
AcDbEntity
  8
0
  6
Continuous
 62
     7
370
    25
100
AcDbLine
 10
772.1873324643
 20
1181.9962893411
 30
0.0
 11
772.4350415753
 21
1181.9962893411
 31
0.0
  0
LINE
  5
214
330
1F
100
AcDbEntity
  8
0
  6
Continuous
 62
     7
370
    25
100
AcDbLine
 10
769.8865063021
 20
1182.537755102
 30
0.0
 11
769.8863893839
 21
1182.2328982485
 31
0.0
  0
LINE
  5
215
330
1F
100
AcDbEntity
  8
0
  6
Continuous
 62
     7
370
    25
100
AcDbLine
 10
770.9684443037
 20
1181.7594412689
 30
0.0
 11
770.9683054233
 21
1182.0647809271
 31
0.0
  0
SPLINE
  5
216
330
1F
100
AcDbEntity
  8
0
  6
Continuous
 62
     7
370
    25
100
AcDbSpline
210
0.0
220
0.0
230
1.0
 70
     8
 71
     3
 72
    13
 73
     9
 74
     0
 42
0.00000001
 43
0.00000001
 40
0.0
 40
0.0
 40
0.0
 40
0.0
 40
0.1421166978324236
 40
0.2860202338337702
 40
0.5510761480916495
 40
0.816655457807035
 40
0.9604895185156052
 40
1.0
 40
1.0
 40
1.0
 40
1.0
 10
769.0579326464386
 20
1182.23289824845
 30
0.0
 10
769.0939447009797
 20
1182.238624808219
 30
0.0
 10
769.1664215908716
 20
1182.250149927991
 30
0.0
 10
769.3112313661899
 20
1182.146670866498
 30
0.0
 10
769.4624096327868
 20
1181.953121126511
 30
0.0
 10
769.6436450135706
 20
1181.763538496955
 30
0.0
 10
769.806233658064
 20
1181.747917641831
 30
0.0
 10
769.8722992401296
 20
1181.757398218421
 30
0.0
 10
769.8865362767258
 20
1181.759441268852
 30
0.0
  0
LINE
  5
217
330
1F
100
AcDbEntity
  8
0
  6
Continuous
 62
     7
370
    25
100
AcDbLine
 10
769.0580108263
 20
1182.537755102
 30
0.0
 11
769.0579326464
 21
1182.2328982485
 31
0.0
  0
SPLINE
  5
218
330
1F
100
AcDbEntity
  8
0
  6
Continuous
 62
     7
370
    25
100
AcDbSpline
210
0.0
220
0.0
230
1.0
 70
     8
 71
     3
 72
    13
 73
     9
 74
     0
 42
0.00000001
 43
0.00000001
 40
0.0
 40
0.0
 40
0.0
 40
0.0
 40
0.1419103113865395
 40
0.2856080152291521
 40
0.5502065457857024
 40
0.8152964964037119
 40
0.9369116823971622
 40
1.0
 40
1.0
 40
1.0
 40
1.0
 10
769.8864184897741
 20
1182.064780927142
 30
0.0
 10
769.834730879896
 20
1182.059032991812
 30
0.0
 10
769.730704643007
 20
1182.047464724606
 30
0.0
 10
769.5550577544559
 20
1182.150608109964
 30
0.0
 10
769.3964953212565
 20
1182.344230290837
 30
0.0
 10
769.2398172342201
 20
1182.525487172813
 30
0.0
 10
769.1187093771422
 20
1182.550594908075
 30
0.0
 10
769.0734648047003
 20
1182.541024143598
 30
0.0
 10
769.0580108262945
 20
1182.537755102041
 30
0.0
  0
LINE
  5
219
330
1F
100
AcDbEntity
  8
0
  6
Continuous
 62
     7
370
    25
100
AcDbLine
 10
769.8865362767
 20
1181.7594412689
 30
0.0
 11
769.8864184898
 21
1182.0647809271
 31
0.0
  0
LINE
  5
21A
330
1F
100
AcDbEntity
  8
0
  6
Continuous
 62
     7
370
    25
100
AcDbLine
 10
769.0579326464
 20
1182.2328982485
 30
0.0
 11
769.2631011101
 21
1182.1488385299
 31
0.0
  0
LINE
  5
21B
330
1F
100
AcDbEntity
  8
0
  6
Continuous
 62
     7
370
    25
100
AcDbLine
 10
769.8865362767
 20
1181.7594412689
 30
0.0
 11
770.2719930327
 21
1181.9962893411
 31
0.0
  0
LINE
  5
21C
330
1F
100
AcDbEntity
  8
0
  6
Continuous
 62
     7
370
    25
100
AcDbLine
 10
770.023401109
 20
1182.1488405231
 30
0.0
 11
769.8864184898
 21
1182.0647809271
 31
0.0
  0
LINE
  5
21D
330
1F
100
AcDbEntity
  8
0
  6
Continuous
 62
     7
370
    25
100
AcDbLine
 10
773.2199762006
 20
1182.2328982485
 30
0.0
 11
773.0826353439
 21
1182.1488385299
 31
0.0
  0
SPLINE
  5
21E
330
1F
100
AcDbEntity
  8
0
  6
Continuous
 62
     7
370
    25
100
AcDbSpline
210
0.0
220
0.0
230
1.0
 70
     8
 71
     3
 72
    13
 73
     9
 74
     0
 42
0.00000001
 43
0.00000001
 40
0.0
 40
0.0
 40
0.0
 40
0.0
 40
0.1421166978322673
 40
0.2860202338337048
 40
0.5510761480914877
 40
0.8166554578068479
 40
0.9604895185152982
 40
1.0
 40
1.0
 40
1.0
 40
1.0
 10
773.2199762005747
 20
1182.23289824845
 30
0.0
 10
773.2716777070368
 20
1182.238624808219
 30
0.0
 10
773.3757307647938
 20
1182.250149927991
 30
0.0
 10
773.5513556775347
 20
1182.146670866498
 30
0.0
 10
773.7097667415376
 20
1181.953121126512
 30
0.0
 10
773.8718018115187
 20
1181.763538496955
 30
0.0
 10
773.9929532897978
 20
1181.747917641831
 30
0.0
 10
774.0374967880962
 20
1181.757398218421
 30
0.0
 10
774.0470958470252
 20
1181.759441268852
 30
0.0
  0
LINE
  5
21F
330
1F
100
AcDbEntity
  8
0
  6
Continuous
 62
     7
370
    25
100
AcDbLine
 10
773.2200929798
 20
1182.537755102
 30
0.0
 11
773.2199762006
 21
1182.2328982485
 31
0.0
  0
SPLINE
  5
220
330
1F
100
AcDbEntity
  8
0
  6
Continuous
 62
     7
370
    25
100
AcDbSpline
210
0.0
220
0.0
230
1.0
 70
     8
 71
     3
 72
    12
 73
     8
 74
     0
 42
0.00000001
 43
0.00000001
 40
0.0
 40
0.0
 40
0.0
 40
0.0
 40
0.1591001189661208
 40
0.3202041399008942
 40
0.6168538849299209
 40
0.9140545764648744
 40
1.0
 40
1.0
 40
1.0
 40
1.0
 10
774.0470172979035
 20
1182.064780927142
 30
0.0
 10
774.0111454146214
 20
1182.059001586686
 30
0.0
 10
773.9389498335773
 20
1182.047370113675
 30
0.0
 10
773.7947884220745
 20
1182.151126910681
 30
0.0
 10
773.6432995046955
 20
1182.340386736332
 30
0.0
 10
773.4832132428337
 20
1182.522821819231
 30
0.0
 10
773.3621202044732
 20
1182.535019074613
 30
0.0
 10
773.3349572187094
 20
1182.537755102041
 30
0.0
  0
LINE
  5
221
330
1F
100
AcDbEntity
  8
0
  6
Continuous
 62
     7
370
    25
100
AcDbLine
 10
774.047095847
 20
1181.7594412689
 30
0.0
 11
774.0470172979
 21
1182.0647809271
 31
0.0
  0
LINE
  5
222
330
1F
100
AcDbEntity
  8
0
  6
Continuous
 62
     7
370
    25
100
AcDbLine
 10
773.2200929798
 20
1182.537755102
 30
0.0
 11
772.8333930597
 21
1182.3013893411
 31
0.0
  0
LINE
  5
223
330
1F
100
AcDbEntity
  8
0
  6
Continuous
 62
     7
370
    25
100
AcDbLine
 10
773.8416092947
 20
1182.1488405231
 30
0.0
 11
774.0470172979
 21
1182.0647809271
 31
0.0
  0
SPLINE
  5
224
330
1F
100
AcDbEntity
  8
0
  6
Continuous
 62
     7
370
    25
100
AcDbSpline
210
0.0
220
0.0
230
1.0
 70
     8
 71
     3
 72
    13
 73
     9
 74
     0
 42
0.00000001
 43
0.00000001
 40
0.0
 40
0.0
 40
0.0
 40
0.0
 40
0.1421166978323524
 40
0.2860202338337059
 40
0.5510761480911954
 40
0.816655457806401
 40
0.9604895185145724
 40
1.0
 40
1.0
 40
1.0
 40
1.0
 10
768.6090259206386
 20
1182.23289824845
 30
0.0
 10
768.6225114108014
 20
1182.238624808219
 30
0.0
 10
768.6496519446622
 20
1182.250149927991
 30
0.0
 10
768.716229987769
 20
1182.146670866498
 30
0.0
 10
768.7952792043419
 20
1181.953121126512
 30
0.0
 10
768.9007107264699
 20
1181.763538496955
 30
0.0
 10
769.0045603837926
 20
1181.747917641831
 30
0.0
 10
769.0485509640478
 20
1181.757398218421
 30
0.0
 10
769.0580308699447
 20
1181.759441268852
 30
0.0
  0
LINE
  5
225
330
1F
100
AcDbEntity
  8
0
  6
Continuous
 62
     7
370
    25
100
AcDbLine
 10
768.6090534599
 20
1182.537755102
 30
0.0
 11
768.6090259206
 21
1182.2328982485
 31
0.0
  0
SPLINE
  5
226
330
1F
100
AcDbEntity
  8
0
  6
Continuous
 62
     7
370
    25
100
AcDbSpline
210
0.0
220
0.0
230
1.0
 70
     8
 71
     3
 72
    11
 73
     7
 74
     0
 42
0.00000001
 43
0.00000001
 40
0.0
 40
0.0
 40
0.0
 40
0.0
 40
0.1965526436526257
 40
0.3955809122901063
 40
0.7620626723492809
 40
1.0
 40
1.0
 40
1.0
 40
1.0
 10
769.0579521084387
 20
1182.064780927142
 30
0.0
 10
769.0239176052764
 20
1182.059146878056
 30
0.0
 10
768.9554199266896
 20
1182.047807817761
 30
0.0
 10
768.8484864313733
 20
1182.148726752559
 30
0.0
 10
768.771159540484
 20
1182.329149514783
 30
0.0
 10
768.7196480405545
 20
1182.42367710266
 30
0.0
 10
768.6993698777934
 20
1182.460889100272
 30
0.0
  0
LINE
  5
227
330
1F
100
AcDbEntity
  8
0
  6
Continuous
 62
     7
370
    25
100
AcDbLine
 10
769.0580308699
 20
1181.7594412689
 30
0.0
 11
769.0579521084
 21
1182.0647809271
 31
0.0
  0
LINE
  5
228
330
1F
100
AcDbEntity
  8
0
  6
Continuous
 62
     7
370
    25
100
AcDbLine
 10
769.0580308699
 20
1181.7594412689
 30
0.0
 11
769.4897459377
 21
1181.9365284679
 31
0.0
  0
LINE
  5
229
330
1F
100
AcDbEntity
  8
0
  6
Continuous
 62
     7
370
    25
100
AcDbLine
 10
769.0579521084
 20
1182.0647809271
 30
0.0
 11
769.2631136582
 21
1182.1488404706
 31
0.0
  0
LINE
  5
22A
330
1F
100
AcDbEntity
  8
0
  6
Continuous
 62
     7
370
    25
100
AcDbLine
 10
768.6664403842
 20
1182.2129640727
 30
0.0
 11
768.6090259206
 21
1182.2328982485
 31
0.0
  0
LINE
  5
22B
330
1F
100
AcDbEntity
  8
0
  6
Continuous
 62
     7
370
    25
100
AcDbLine
 10
769.057970895
 20
1182.3820458311
 30
0.0
 11
768.6701932275
 21
1182.5165484661
 31
0.0
  0
LINE
  5
22C
330
1F
100
AcDbEntity
  8
0
  6
Continuous
 62
     7
370
    25
100
AcDbLine
 10
773.615563194
 20
1182.3613651344
 30
0.0
 11
774.0470758585
 21
1182.537755102
 31
0.0
  0
LINE
  5
22D
330
1F
100
AcDbEntity
  8
0
  6
Continuous
 62
     7
370
    25
100
AcDbLine
 10
774.0470758585
 20
1182.537755102
 30
0.0
 11
774.0469978867
 21
1182.2328982485
 31
0.0
  0
LINE
  5
22E
330
1F
100
AcDbEntity
  8
0
  6
Continuous
 62
     7
370
    25
100
AcDbLine
 10
773.8415967787
 20
1182.1488384768
 30
0.0
 11
774.0469978867
 21
1182.2328982485
 31
0.0
  0
SPLINE
  5
22F
330
1F
100
AcDbEntity
  8
0
  6
Continuous
 62
     7
370
    25
100
AcDbSpline
210
0.0
220
0.0
230
1.0
 70
     8
 71
     3
 72
    13
 73
     9
 74
     0
 42
0.00000001
 43
0.00000001
 40
0.0
 40
0.0
 40
0.0
 40
0.0
 40
0.1421166978323444
 40
0.2860202338338893
 40
0.5510761480916625
 40
0.8166554578071673
 40
0.9604895185157807
 40
1.0
 40
1.0
 40
1.0
 40
1.0
 10
774.0469978866746
 20
1182.23289824845
 30
0.0
 10
774.0809826336568
 20
1182.238624808219
 30
0.0
 10
774.1493794190229
 20
1182.250149927991
 30
0.0
 10
774.2562193794447
 20
1182.146670866498
 30
0.0
 10
774.3447187012389
 20
1181.953121126511
 30
0.0
 10
774.4250638083605
 20
1181.763538496955
 30
0.0
 10
774.4747731989369
 20
1181.747917641831
 30
0.0
 10
774.4906438216159
 20
1181.757398218421
 30
0.0
 10
774.49406391766
 20
1181.759441268852
 30
0.0
  0
LINE
  5
230
330
1F
100
AcDbEntity
  8
0
  6
Continuous
 62
     7
370
    25
100
AcDbLine
 10
774.4335799431
 20
1181.7804542551
 30
0.0
 11
774.0470558966
 21
1181.9147381635
 31
0.0
  0
SPLINE
  5
231
330
1F
100
AcDbEntity
  8
0
  6
Continuous
 62
     7
370
    25
100
AcDbSpline
210
0.0
220
0.0
230
1.0
 70
     8
 71
     3
 72
    13
 73
     9
 74
     0
 42
0.00000001
 43
0.00000001
 40
0.0
 40
0.0
 40
0.0
 40
0.0
 40
0.1419103113864662
 40
0.2856080152290823
 40
0.5502065457858085
 40
0.8152964964039793
 40
0.9369116823976401
 40
1.0
 40
1.0
 40
1.0
 40
1.0
 10
774.494036422849
 20
1182.064780927142
 30
0.0
 10
774.4806805147823
 20
1182.059032991812
 30
0.0
 10
774.4538004779673
 20
1182.047464724606
 30
0.0
 10
774.3877244055204
 20
1182.150608109964
 30
0.0
 10
774.309196026805
 20
1182.344230290837
 30
0.0
 10
774.2077603840368
 20
1182.525487172813
 30
0.0
 10
774.1061783564556
 20
1182.550594908075
 30
0.0
 10
774.0621234784728
 20
1182.541024143598
 30
0.0
 10
774.0470758584762
 20
1182.537755102041
 30
0.0
  0
LINE
  5
232
330
1F
100
AcDbEntity
  8
0
  6
Continuous
 62
     7
370
    25
100
AcDbLine
 10
774.4940639177
 20
1181.7594412689
 30
0.0
 11
774.4940364228
 21
1182.0647809271
 31
0.0
  0
LINE
  5
233
330
1F
100
AcDbEntity
  8
0
  6
Continuous
 62
     7
370
    25
100
AcDbLine
 10
774.4940364228
 20
1182.0647809271
 30
0.0
 11
774.4371543823
 21
1182.0845233509
 31
0.0
  0
SPLINE
  5
234
330
1F
100
AcDbEntity
  8
0
  6
Continuous
 62
     7
370
    25
100
AcDbSpline
210
0.0
220
0.0
230
1.0
 70
     8
 71
     3
 72
     9
 73
     5
 74
     0
 42
0.00000001
 43
0.00000001
 40
0.0
 40
0.0
 40
0.0
 40
0.0
 40
0.4968763780362724
 40
0.9999999999999999
 40
0.9999999999999999
 40
0.9999999999999999
 40
0.9999999999999999
 10
768.6080111861163
 20
1182.23289824845
 30
0.0
 10
768.5967847213304
 20
1182.239035456793
 30
0.0
 10
768.5741906410276
 20
1182.251387036811
 30
0.0
 10
768.5642232155033
 20
1182.193515729907
 30
0.0
 10
768.5592083682718
 20
1182.164399308369
 30
0.0
  0
SPLINE
  5
235
330
1F
100
AcDbEntity
  8
0
  6
Continuous
 62
     7
370
    25
100
AcDbSpline
210
0.0
220
0.0
230
1.0
 70
     8
 71
     3
 72
    11
 73
     7
 74
     0
 42
0.00000001
 43
0.00000001
 40
0.0
 40
0.0
 40
0.0
 40
0.0
 40
0.2577227064466313
 40
0.6968472715614695
 40
0.934671029086038
 40
1.0
 40
1.0
 40
1.0
 40
1.0
 10
768.5559746023207
 20
1182.077746435021
 30
0.0
 10
768.5536662903204
 20
1182.037091291458
 30
0.0
 10
768.5474249274946
 20
1181.927165292859
 30
0.0
 10
768.5616916728516
 20
1181.762711037888
 30
0.0
 10
768.5905453996644
 20
1181.74795070217
 30
0.0
 10
768.6057779325295
 20
1181.757404079765
 30
0.0
 10
768.6090605211496
 20
1181.759441268852
 30
0.0
  0
LINE
  5
236
330
1F
100
AcDbEntity
  8
0
  6
Continuous
 62
     7
370
    25
100
AcDbLine
 10
768.6090605211
 20
1181.7594412689
 30
0.0
 11
768.8746244904
 21
1181.8517423818
 31
0.0
  0
LINE
  5
237
330
1F
100
AcDbEntity
  8
0
  6
Continuous
 62
     7
370
    25
100
AcDbLine
 10
768.6090605211
 20
1181.7594412689
 30
0.0
 11
768.6090327758
 21
1182.0647809271
 31
0.0
  0
LINE
  5
238
330
1F
100
AcDbEntity
  8
0
  6
Continuous
 62
     7
370
    25
100
AcDbLine
 10
768.7287311225
 20
1182.1063402618
 30
0.0
 11
768.6090327758
 21
1182.0647809271
 31
0.0
  0
SPLINE
  5
239
330
1F
100
AcDbEntity
  8
0
  6
Continuous
 62
     7
370
    25
100
AcDbSpline
210
0.0
220
0.0
230
1.0
 70
     8
 71
     3
 72
    10
 73
     6
 74
     0
 42
0.00000001
 43
0.00000001
 40
0.0
 40
0.0
 40
0.0
 40
0.0
 40
0.281309527373922
 40
0.5661622118459357
 40
1.0
 40
1.0
 40
1.0
 40
1.0
 10
768.6090327758138
 20
1182.064780927142
 30
0.0
 10
768.597896915669
 20
1182.059076643999
 30
0.0
 10
768.5754849367031
 20
1182.047596230975
 30
0.0
 10
768.5542208086613
 20
1182.141382696824
 30
0.0
 10
768.5532749672308
 20
1182.244400549652
 30
0.0
 10
768.5527040096771
 20
1182.306587317272
 30
0.0
  0
LINE
  5
23A
330
1F
100
AcDbEntity
  8
0
  6
Continuous
 62
     7
370
    25
100
AcDbLine
 10
768.6079838922
 20
1182.537755102
 30
0.0
 11
768.6090534264
 21
1182.5373842836
 31
0.0
  0
LINE
  5
23B
330
1F
100
AcDbEntity
  8
0
  6
Continuous
 62
     7
370
    25
100
AcDbLine
 10
774.4940296276
 20
1182.2328982485
 30
0.0
 11
774.3749740913
 21
1182.1915763628
 31
0.0
  0
SPLINE
  5
23C
330
1F
100
AcDbEntity
  8
0
  6
Continuous
 62
     7
370
    25
100
AcDbSpline
210
0.0
220
0.0
230
1.0
 70
     8
 71
     3
 72
    13
 73
     9
 74
     0
 42
0.00000001
 43
0.00000001
 40
0.0
 40
0.0
 40
0.0
 40
0.0
 40
0.1421166978324868
 40
0.286020233833841
 40
0.5510761480918965
 40
0.8166554578075784
 40
0.9604895185160579
 40
1.0
 40
1.0
 40
1.0
 40
1.0
 10
774.4940296275618
 20
1182.23289824845
 30
0.0
 10
774.5051237454085
 20
1182.238624808219
 30
0.0
 10
774.5274514678299
 20
1182.250149927991
 30
0.0
 10
774.5492410604653
 20
1182.146670866498
 30
0.0
 10
774.5543554205573
 20
1181.953121126511
 30
0.0
 10
774.5407787505877
 20
1181.763538496954
 30
0.0
 10
774.5114782493656
 20
1181.747917641831
 30
0.0
 10
774.4962598379882
 20
1181.757398218421
 30
0.0
 10
774.4929802925283
 20
1181.759441268852
 30
0.0
  0
LINE
  5
23D
330
1F
100
AcDbEntity
  8
0
  6
Continuous
 62
     7
370
    25
100
AcDbLine
 10
774.4929802925
 20
1181.7594412689
 30
0.0
 11
774.047055976
 21
1181.9144295785
 31
0.0
  0
LINE
  5
23E
330
1F
100
AcDbEntity
  8
0
  6
Continuous
 62
     7
370
    25
100
AcDbLine
 10
774.4940569214
 20
1182.537755102
 30
0.0
 11
774.2296172616
 21
1182.4460711735
 31
0.0
  0
LINE
  5
23F
330
1F
100
AcDbEntity
  8
0
  6
Continuous
 62
     7
370
    25
100
AcDbLine
 10
774.4940569214
 20
1182.537755102
 30
0.0
 11
774.4940296276
 21
1182.2328982485
 31
0.0
  0
SPLINE
  5
240
330
1F
100
AcDbEntity
  8
0
  6
Continuous
 62
     7
370
    25
100
AcDbSpline
210
0.0
220
0.0
230
1.0
 70
     8
 71
     3
 72
    11
 73
     7
 74
     0
 42
0.00000001
 43
0.00000001
 40
0.0
 40
0.0
 40
0.0
 40
0.0
 40
0.0923106480574209
 40
0.627265799645367
 40
0.872686910882024
 40
1.0
 40
1.0
 40
1.0
 40
1.0
 10
774.5493368040013
 20
1182.306587317272
 30
0.0
 10
774.549914813695
 20
1182.318617189396
 30
0.0
 10
774.5538424831497
 20
1182.400362118251
 30
0.0
 10
774.5410553205496
 20
1182.52637299957
 30
0.0
 10
774.5142014620681
 20
1182.550527431543
 30
0.0
 10
774.4991857637514
 20
1182.541006963932
 30
0.0
 10
774.4940569214392
 20
1182.537755102041
 30
0.0
  0
LINE
  5
241
330
1F
100
AcDbEntity
  8
0
  6
Continuous
 62
     7
370
    25
100
AcDbLine
 10
768.6080043908
 20
1182.0647809271
 30
0.0
 11
768.7285927438
 21
1182.1066343195
 31
0.0
  0
SPLINE
  5
242
330
1F
100
AcDbEntity
  8
0
  6
Continuous
 62
     7
370
    25
100
AcDbSpline
210
0.0
220
0.0
230
1.0
 70
     8
 71
     3
 72
    10
 73
     6
 74
     0
 42
0.00000001
 43
0.00000001
 40
0.0
 40
0.0
 40
0.0
 40
0.0
 40
0.3834427420120197
 40
0.7894054018744532
 40
1.0
 40
1.0
 40
1.0
 40
1.0
 10
768.8724235520427
 20
1182.446071173458
 30
0.0
 10
768.8898542057226
 20
1182.476709832463
 30
0.0
 10
768.9257392301745
 20
1182.539786584935
 30
0.0
 10
768.9961558584251
 20
1182.549891658699
 30
0.0
 10
769.0399920357671
 20
1182.540845094832
 30
0.0
 10
769.0549649552015
 20
1182.537755102041
 30
0.0
  0
LINE
  5
243
330
1F
100
AcDbEntity
  8
0
  6
Continuous
 62
     7
370
    25
100
AcDbLine
 10
769.058010507
 20
1182.536510168
 30
0.0
 11
769.0549649552
 21
1182.537755102
 31
0.0
  0
SPLINE
  5
244
330
1F
100
AcDbEntity
  8
0
  6
Continuous
 62
     7
370
    25
100
AcDbSpline
210
0.0
220
0.0
230
1.0
 70
     8
 71
     3
 72
    10
 73
     6
 74
     0
 42
0.00000001
 43
0.00000001
 40
0.0
 40
0.0
 40
0.0
 40
0.0
 40
0.3886151440721742
 40
0.8682474550836418
 40
0.9999999999999999
 40
0.9999999999999999
 40
0.9999999999999999
 40
0.9999999999999999
 10
774.2274163233101
 20
1181.85174238177
 30
0.0
 10
774.2096225061917
 20
1181.820577208409
 30
0.0
 10
774.1698673997191
 20
1181.750947697385
 30
0.0
 10
774.0972964630549
 20
1181.748369500426
 30
0.0
 10
774.0534572337261
 20
1181.757478329475
 30
0.0
 10
774.0440099437332
 20
1181.759441268852
 30
0.0
  0
LINE
  5
245
330
1F
100
AcDbEntity
  8
0
  6
Continuous
 62
     7
370
    25
100
AcDbLine
 10
774.2294252665
 20
1182.446337266
 30
0.0
 11
774.4929873537
 21
1182.537755102
 31
0.0
  0
LINE
  5
246
330
1F
100
AcDbEntity
  8
0
  6
Continuous
 62
     7
370
    25
100
AcDbLine
 10
769.8819478339
 20
1182.537755102
 30
0.0
 11
769.8865052338
 21
1182.5349694452
 31
0.0
  0
LINE
  5
247
330
1F
100
AcDbEntity
  8
0
  6
Continuous
 62
     7
370
    25
100
AcDbLine
 10
774.0440299874
 20
1182.537755102
 30
0.0
 11
773.6988372673
 21
1182.3964521527
 31
0.0
  0
LINE
  5
248
330
1F
100
AcDbEntity
  8
0
  6
Continuous
 62
     7
370
    25
100
AcDbLine
 10
774.0440299874
 20
1182.537755102
 30
0.0
 11
774.0440303066
 21
1182.536510168
 31
0.0
  0
LINE
  5
249
330
1F
100
AcDbEntity
  8
0
  6
Continuous
 62
     7
370
    25
100
AcDbLine
 10
773.2155345116
 20
1182.537755102
 30
0.0
 11
773.0510204082
 21
1182.4368813283
 31
0.0
  0
LINE
  5
24A
330
1F
100
AcDbEntity
  8
0
  6
Continuous
 62
     7
370
    25
100
AcDbLine
 10
773.2155345116
 20
1182.537755102
 30
0.0
 11
773.2155355799
 21
1182.5349694452
 31
0.0
  0
LINE
  5
24B
330
1F
100
AcDbEntity
  8
0
  6
Continuous
 62
     7
370
    25
100
AcDbLine
 10
341.5510204082
 20
1181.7594412689
 30
0.0
 11
338.7510204082
 21
1181.7594412689
 31
0.0
  0
LINE
  5
24C
330
1F
100
AcDbEntity
  8
0
  6
Continuous
 62
     7
370
    25
100
AcDbLine
 10
344.3510204082
 20
1181.7594412689
 30
0.0
 11
341.5510204082
 21
1181.7594412689
 31
0.0
  0
LINE
  5
24D
330
1F
100
AcDbEntity
  8
0
  6
Continuous
 62
     7
370
    25
100
AcDbLine
 10
342.8573520296
 20
1179.5473110031
 30
0.0
 11
342.8635897054
 21
1179.5348001589
 31
0.0
  0
ARC
  5
24E
330
1F
100
AcDbEntity
  8
0
  6
Continuous
 62
     7
370
    25
100
AcDbCircle
 10
341.5510204082
 20
1184.3594412689
 30
0.0
 40
4.986291206899209
100
AcDbArc
 50
276.5034226004
 51
285.1878552918
  0
LINE
  5
24F
330
1F
100
AcDbEntity
  8
0
  6
Continuous
 62
     7
370
    25
100
AcDbLine
 10
342.1157805412
 20
1179.4052363889
 30
0.0
 11
341.9210204082
 21
1179.4052363889
 31
0.0
  0
LINE
  5
250
330
1F
100
AcDbEntity
  8
0
  6
Continuous
 62
     7
370
    25
100
AcDbLine
 10
341.9210204082
 20
1179.4052363889
 30
0.0
 11
341.9210204082
 21
1179.5473110031
 31
0.0
  0
ARC
  5
251
330
1F
100
AcDbEntity
  8
0
  6
Continuous
 62
     7
370
    25
100
AcDbCircle
 10
341.5510204082
 20
1185.0120498172
 30
0.0
 40
5.47725025053851
100
AcDbArc
 50
266.1265974981
 51
273.8734025019
  0
LINE
  5
252
330
1F
100
AcDbEntity
  8
0
  6
Continuous
 62
     7
370
    25
100
AcDbLine
 10
341.1810204082
 20
1179.5473110031
 30
0.0
 11
341.1810204082
 21
1179.4052363889
 31
0.0
  0
LINE
  5
253
330
1F
100
AcDbEntity
  8
0
  6
Continuous
 62
     7
370
    25
100
AcDbLine
 10
341.1810204082
 20
1179.4052363889
 30
0.0
 11
340.9862602751
 21
1179.4052363889
 31
0.0
  0
ARC
  5
254
330
1F
100
AcDbEntity
  8
0
  6
Continuous
 62
     7
370
    25
100
AcDbCircle
 10
341.5510204082
 20
1184.3594412689
 30
0.0
 40
4.98629120689924
100
AcDbArc
 50
254.8121447082
 51
263.4965773996
  0
LINE
  5
255
330
1F
100
AcDbEntity
  8
0
  6
Continuous
 62
     7
370
    25
100
AcDbLine
 10
340.2384511109
 20
1179.5348001589
 30
0.0
 11
340.2446887867
 21
1179.5473110031
 31
0.0
  0
LINE
  5
256
330
1F
100
AcDbEntity
  8
0
  6
Continuous
 62
     7
370
    25
100
AcDbLine
 10
771.5510204082
 20
1181.7594412689
 30
0.0
 11
768.7510204082
 21
1181.7594412689
 31
0.0
  0
LINE
  5
257
330
1F
100
AcDbEntity
  8
0
  6
Continuous
 62
     7
370
    25
100
AcDbLine
 10
774.3510204082
 20
1181.7594412689
 30
0.0
 11
771.5510204082
 21
1181.7594412689
 31
0.0
  0
LINE
  5
258
330
1F
100
AcDbEntity
  8
0
  6
Continuous
 62
     7
370
    25
100
AcDbLine
 10
772.8573520296
 20
1179.5473110031
 30
0.0
 11
772.8635897054
 21
1179.5348001589
 31
0.0
  0
ARC
  5
259
330
1F
100
AcDbEntity
  8
0
  6
Continuous
 62
     7
370
    25
100
AcDbCircle
 10
771.5510204082
 20
1184.3594412689
 30
0.0
 40
4.986291206899224
100
AcDbArc
 50
276.5034226004
 51
285.1878552918
  0
LINE
  5
25A
330
1F
100
AcDbEntity
  8
0
  6
Continuous
 62
     7
370
    25
100
AcDbLine
 10
772.1157805412
 20
1179.4052363889
 30
0.0
 11
771.9210204082
 21
1179.4052363889
 31
0.0
  0
LINE
  5
25B
330
1F
100
AcDbEntity
  8
0
  6
Continuous
 62
     7
370
    25
100
AcDbLine
 10
771.9210204082
 20
1179.4052363889
 30
0.0
 11
771.9210204082
 21
1179.5473110031
 31
0.0
  0
ARC
  5
25C
330
1F
100
AcDbEntity
  8
0
  6
Continuous
 62
     7
370
    25
100
AcDbCircle
 10
771.5510204082
 20
1185.0120498171
 30
0.0
 40
5.477250250414878
100
AcDbArc
 50
266.126597498
 51
273.873402502
  0
LINE
  5
25D
330
1F
100
AcDbEntity
  8
0
  6
Continuous
 62
     7
370
    25
100
AcDbLine
 10
771.1810204082
 20
1179.5473110031
 30
0.0
 11
771.1810204082
 21
1179.4052363889
 31
0.0
  0
LINE
  5
25E
330
1F
100
AcDbEntity
  8
0
  6
Continuous
 62
     7
370
    25
100
AcDbLine
 10
771.1810204082
 20
1179.4052363889
 30
0.0
 11
770.9862602751
 21
1179.4052363889
 31
0.0
  0
ARC
  5
25F
330
1F
100
AcDbEntity
  8
0
  6
Continuous
 62
     7
370
    25
100
AcDbCircle
 10
771.5510204082
 20
1184.3594412689
 30
0.0
 40
4.986291206899254
100
AcDbArc
 50
254.8121447082
 51
263.4965773996
  0
LINE
  5
260
330
1F
100
AcDbEntity
  8
0
  6
Continuous
 62
     7
370
    25
100
AcDbLine
 10
770.2384511109
 20
1179.5348001589
 30
0.0
 11
770.2446887867
 21
1179.5473110031
 31
0.0
  0
LINE
  5
261
330
1F
100
AcDbEntity
  8
0
  6
Continuous
 62
     7
370
    25
100
AcDbLine
 10
309.0510204082
 20
1208.987755102
 30
0.0
 11
309.0510204082
 21
1200.987755102
 31
0.0
  0
LINE
  5
262
330
1F
100
AcDbEntity
  8
0
  6
Continuous
 62
     7
370
    25
100
AcDbLine
 10
309.0510204082
 20
1197.487755102
 30
0.0
 11
309.0510204082
 21
1189.487755102
 31
0.0
  0
LINE
  5
263
330
1F
100
AcDbEntity
  8
0
  6
Continuous
 62
     7
370
    25
100
AcDbLine
 10
1072.6510204082
 20
1218.3496946343
 30
0.0
 11
1070.2390808759
 21
1218.3496946343
 31
0.0
  0
LINE
  5
264
330
1F
100
AcDbEntity
  8
0
  6
Continuous
 62
     7
370
    25
100
AcDbLine
 10
1072.9937489465
 20
1218.006966096
 30
0.0
 11
1072.6510204082
 21
1218.3496946343
 31
0.0
  0
ELLIPSE
  5
265
330
1F
100
AcDbEntity
  8
0
  6
Continuous
 62
     7
370
    25
100
AcDbEllipse
 10
1074.9934443368
 20
1218.0075753618
 30
0.0
 11
1.999999999999773
 21
0.0
 31
0.0
210
0.0
220
0.0
230
1.0
 40
0.0174550649
 41
3.159045946109149
 42
4.71238898038469
  0
LINE
  5
266
330
1F
100
AcDbEntity
  8
0
  6
Continuous
 62
     7
370
    25
100
AcDbLine
 10
1094.1085964795
 20
1217.9726652319
 30
0.0
 11
1074.9934443368
 21
1217.9726652319
 31
0.0
  0
ELLIPSE
  5
267
330
1F
100
AcDbEntity
  8
0
  6
Continuous
 62
     7
370
    25
100
AcDbEllipse
 10
1094.1085964795
 20
1218.0075753618
 30
0.0
 11
2.0
 21
0.0
 31
0.0
210
0.0
220
0.0
230
1.0
 40
0.0174550649
 41
4.71238898038469
 42
6.265732014661835
  0
LINE
  5
268
330
1F
100
AcDbEntity
  8
0
  6
Continuous
 62
     7
370
    25
100
AcDbLine
 10
1096.4510204082
 20
1218.3496946343
 30
0.0
 11
1096.1082918698
 21
1218.006966096
 31
0.0
  0
LINE
  5
269
330
1F
100
AcDbEntity
  8
0
  6
Continuous
 62
     7
370
    25
100
AcDbLine
 10
1098.8629599405
 20
1218.3496946343
 30
0.0
 11
1096.4510204082
 21
1218.3496946343
 31
0.0
  0
LINE
  5
26A
330
1F
100
AcDbEntity
  8
0
  6
Continuous
 62
     7
370
    25
100
AcDbLine
 10
1098.5196221363
 20
1218.0063568302
 30
0.0
 11
1098.8629599405
 21
1218.3496946343
 31
0.0
  0
ELLIPSE
  5
26B
330
1F
100
AcDbEntity
  8
0
  6
Continuous
 62
     7
370
    25
100
AcDbEllipse
 10
1094.5202313557
 20
1218.0075753618
 30
0.0
 11
4.0
 21
0.0
 31
0.0
210
0.0
220
0.0
230
1.0
 40
0.0174550649
 41
4.71238898038469
 42
6.265732014661892
  0
LINE
  5
26C
330
1F
100
AcDbEntity
  8
0
  6
Continuous
 62
     7
370
    25
100
AcDbLine
 10
1074.5818094606
 20
1217.937755102
 30
0.0
 11
1094.5202313557
 21
1217.937755102
 31
0.0
  0
ELLIPSE
  5
26D
330
1F
100
AcDbEntity
  8
0
  6
Continuous
 62
     7
370
    25
100
AcDbEllipse
 10
1074.5818094606
 20
1218.0075753618
 30
0.0
 11
4.0
 21
0.0
 31
0.0
210
0.0
220
0.0
230
1.0
 40
0.0174550649
 41
3.159045946109094
 42
4.71238898038469
  0
LINE
  5
26E
330
1F
100
AcDbEntity
  8
0
  6
Continuous
 62
     7
370
    25
100
AcDbLine
 10
1070.2390808759
 20
1218.3496946343
 30
0.0
 11
1070.58241868
 21
1218.0063568302
 31
0.0
  0
LINE
  5
26F
330
1F
100
AcDbEntity
  8
0
  6
Continuous
 62
     7
370
    25
100
AcDbLine
 10
1098.8629599405
 20
1215.937755102
 30
0.0
 11
1098.8629599405
 21
1218.3496946343
 31
0.0
  0
LINE
  5
270
330
1F
100
AcDbEntity
  8
0
  6
Continuous
 62
     7
370
    25
100
AcDbLine
 10
1070.2390808759
 20
1215.937755102
 30
0.0
 11
1070.2390808759
 21
1218.3496946343
 31
0.0
  0
ARC
  5
271
330
1F
100
AcDbEntity
  8
0
  6
Continuous
 62
     7
370
    25
100
AcDbCircle
 10
1094.4960414317
 20
1257.5078421119
 30
0.0
 40
39.443784935462
100
AcDbArc
 50
269.2969940893
 51
272.1769284222
  0
ARC
  5
272
330
1F
100
AcDbEntity
  8
0
  6
Continuous
 62
     7
370
    25
100
AcDbCircle
 10
1074.6059993846
 20
1257.5078421119
 30
0.0
 40
39.44378493545381
100
AcDbArc
 50
267.8230715778
 51
270.7030059107
  0
LINE
  5
273
330
1F
100
AcDbEntity
  8
0
  6
Continuous
 62
     7
370
    25
100
AcDbLine
 10
1075.0899533239
 20
1218.0670262149
 30
0.0
 11
1094.0120874925
 21
1218.0670262149
 31
0.0
  0
ELLIPSE
  5
274
330
1F
100
AcDbEntity
  8
0
  6
Continuous
 62
     7
370
    25
100
AcDbEllipse
 10
1096.1297055244
 20
1218.3440682828
 30
0.0
 11
0.2000315478082939
 21
8.116808203340043E-7
 31
0.0
210
0.0
220
0.0
230
1.0
 40
0.0130895241
 41
6.265731962481366
 42
7.85367163306778
  0
LINE
  5
275
330
1F
100
AcDbEntity
  8
0
  6
Continuous
 62
     7
370
    25
100
AcDbLine
 10
1096.3297066065
 20
1218.3440233982
 30
0.0
 11
1095.9943304763
 21
1218.092524024
 31
0.0
  0
LINE
  5
276
330
1F
100
AcDbEntity
  8
0
  6
Continuous
 62
     7
370
    25
100
AcDbLine
 10
1072.7723342099
 20
1218.3440233982
 30
0.0
 11
1073.10771034
 21
1218.092524024
 31
0.0
  0
ELLIPSE
  5
277
330
1F
100
AcDbEntity
  8
0
  6
Continuous
 62
     7
370
    25
100
AcDbEllipse
 10
1072.9723352919
 20
1218.3440682828
 30
0.0
 11
0.2000315478082939
 21
-8.116810477076798E-7
 31
0.0
210
0.0
220
0.0
230
1.0
 40
0.0130895241
 41
1.571106327701641
 42
3.159045998463775
  0
LINE
  5
278
330
1F
100
AcDbEntity
  8
0
  6
Continuous
 62
     7
370
    25
100
AcDbLine
 10
1072.9722732926
 20
1218.3466866007
 30
0.0
 11
1096.1297675238
 21
1218.3466866007
 31
0.0
  0
LINE
  5
279
330
1F
100
AcDbEntity
  8
0
  6
Continuous
 62
     7
370
    25
100
AcDbLine
 10
1096.3317254707
 20
1218.2303996969
 30
0.0
 11
1096.3297066065
 21
1218.3440233982
 31
0.0
  0
LINE
  5
27A
330
1F
100
AcDbEntity
  8
0
  6
Continuous
 62
     7
370
    25
100
AcDbLine
 10
1072.7723342099
 20
1218.3440233982
 30
0.0
 11
1072.7703153456
 21
1218.2303996969
 31
0.0
  0
CIRCLE
  5
27B
330
1F
100
AcDbEntity
  8
0
  6
Continuous
 62
     7
370
    25
100
AcDbCircle
 10
958.5510204082
 20
1199.337755102
 30
0.0
 40
4.327517831609384
  0
CIRCLE
  5
27C
330
1F
100
AcDbEntity
  8
0
  6
Continuous
 62
     7
370
    25
100
AcDbCircle
 10
958.5510204082
 20
1199.337755102
 30
0.0
 40
4.476605857119921
  0
LINE
  5
27D
330
1F
100
AcDbEntity
  8
0
  6
Continuous
 62
     7
370
    25
100
AcDbLine
 10
229.0510204082
 20
982.537755102
 30
0.0
 11
1189.0510204082
 21
982.537755102
 31
0.0
  0
LINE
  5
27E
330
1F
100
AcDbEntity
  8
0
  6
Continuous
 62
     7
370
    25
100
AcDbLine
 10
229.0510204082
 20
1172.537755102
 30
0.0
 11
229.0510204082
 21
1072.537755102
 31
0.0
  0
LINE
  5
27F
330
1F
100
AcDbEntity
  8
0
  6
Continuous
 62
     7
370
    25
100
AcDbLine
 10
229.0510204082
 20
987.537755102
 30
0.0
 11
229.0510204082
 21
982.537755102
 31
0.0
  0
LINE
  5
280
330
1F
100
AcDbEntity
  8
0
  6
Continuous
 62
     7
370
    25
100
AcDbLine
 10
1189.0510204082
 20
1172.537755102
 30
0.0
 11
426.0510204082
 21
1172.537755102
 31
0.0
  0
LINE
  5
281
330
1F
100
AcDbEntity
  8
0
  6
Continuous
 62
     7
370
    25
100
AcDbLine
 10
405.0510204082
 20
1172.537755102
 30
0.0
 11
229.0510204082
 21
1172.537755102
 31
0.0
  0
LINE
  5
282
330
1F
100
AcDbEntity
  8
0
  6
Continuous
 62
     7
370
    25
100
AcDbLine
 10
1189.0510204082
 20
982.537755102
 30
0.0
 11
1189.0510204082
 21
1172.537755102
 31
0.0
  0
LINE
  5
283
330
1F
100
AcDbEntity
  8
0
  6
Continuous
 62
     7
370
    25
100
AcDbLine
 10
226.5510204082
 20
1012.537755102
 30
0.0
 11
234.0510204082
 21
1012.537755102
 31
0.0
  0
LINE
  5
284
330
1F
100
AcDbEntity
  8
0
  6
Continuous
 62
     7
370
    25
100
AcDbLine
 10
219.0510204082
 20
1012.537755102
 30
0.0
 11
226.5510204082
 21
1012.537755102
 31
0.0
  0
LINE
  5
285
330
1F
100
AcDbEntity
  8
0
  6
Continuous
 62
     7
370
    25
100
AcDbLine
 10
226.5510204082
 20
1047.537755102
 30
0.0
 11
234.0510204082
 21
1047.537755102
 31
0.0
  0
LINE
  5
286
330
1F
100
AcDbEntity
  8
0
  6
Continuous
 62
     7
370
    25
100
AcDbLine
 10
219.0510204082
 20
1047.537755102
 30
0.0
 11
226.5510204082
 21
1047.537755102
 31
0.0
  0
LINE
  5
287
330
1F
100
AcDbEntity
  8
0
  6
Continuous
 62
     7
370
    25
100
AcDbLine
 10
159.0510204082
 20
1242.537755102
 30
0.0
 11
159.0510204082
 21
982.537755102
 31
0.0
  0
LINE
  5
288
330
1F
100
AcDbEntity
  8
0
  6
Continuous
 62
     7
370
    25
100
AcDbLine
 10
1259.0510204082
 20
1242.537755102
 30
0.0
 11
159.0510204082
 21
1242.537755102
 31
0.0
  0
LINE
  5
289
330
1F
100
AcDbEntity
  8
0
  6
Continuous
 62
     7
370
    25
100
AcDbLine
 10
1259.0510204082
 20
982.537755102
 30
0.0
 11
1259.0510204082
 21
1242.537755102
 31
0.0
  0
LINE
  5
28A
330
1F
100
AcDbEntity
  8
0
  6
Continuous
 62
     7
370
    25
100
AcDbLine
 10
1194.0510204082
 20
982.537755102
 30
0.0
 11
1259.0510204082
 21
982.537755102
 31
0.0
  0
LINE
  5
28B
330
1F
100
AcDbEntity
  8
0
  6
Continuous
 62
     7
370
    25
100
AcDbLine
 10
1194.0510204082
 20
982.537755102
 30
0.0
 11
1194.0510204082
 21
1177.537755102
 31
0.0
  0
LINE
  5
28C
330
1F
100
AcDbEntity
  8
0
  6
Continuous
 62
     7
370
    25
100
AcDbLine
 10
1194.0510204082
 20
1177.537755102
 30
0.0
 11
1109.5510204082
 21
1177.537755102
 31
0.0
  0
LINE
  5
28D
330
1F
100
AcDbEntity
  8
0
  6
Continuous
 62
     7
370
    25
100
AcDbLine
 10
311.0510204082
 20
1177.537755102
 30
0.0
 11
224.0510204082
 21
1177.537755102
 31
0.0
  0
LINE
  5
28E
330
1F
100
AcDbEntity
  8
0
  6
Continuous
 62
     7
370
    25
100
AcDbLine
 10
224.0510204082
 20
1177.537755102
 30
0.0
 11
224.0510204082
 21
1072.537755102
 31
0.0
  0
LINE
  5
28F
330
1F
100
AcDbEntity
  8
0
  6
Continuous
 62
     7
370
    25
100
AcDbLine
 10
224.0510204082
 20
987.537755102
 30
0.0
 11
224.0510204082
 21
982.537755102
 31
0.0
  0
LINE
  5
290
330
1F
100
AcDbEntity
  8
0
  6
Continuous
 62
     7
370
    25
100
AcDbLine
 10
159.0510204082
 20
982.537755102
 30
0.0
 11
224.0510204082
 21
982.537755102
 31
0.0
  0
LINE
  5
291
330
1F
100
AcDbEntity
  8
0
  6
Continuous
 62
     7
370
    25
100
AcDbLine
 10
224.0510204082
 20
982.537755102
 30
0.0
 11
229.0510204082
 21
982.537755102
 31
0.0
  0
LINE
  5
292
330
1F
100
AcDbEntity
  8
0
  6
Continuous
 62
     7
370
    25
100
AcDbLine
 10
1189.0510204082
 20
982.537755102
 30
0.0
 11
1194.0510204082
 21
982.537755102
 31
0.0
  0
LINE
  5
293
330
1F
100
AcDbEntity
  8
0
  6
Continuous
 62
     7
370
    25
100
AcDbLine
 10
226.5510204082
 20
987.537755102
 30
0.0
 11
234.0510204082
 21
987.537755102
 31
0.0
  0
LINE
  5
294
330
1F
100
AcDbEntity
  8
0
  6
Continuous
 62
     7
370
    25
100
AcDbLine
 10
219.0510204082
 20
987.537755102
 30
0.0
 11
226.5510204082
 21
987.537755102
 31
0.0
  0
LINE
  5
295
330
1F
100
AcDbEntity
  8
0
  6
Continuous
 62
     7
370
    25
100
AcDbLine
 10
226.5510204082
 20
1072.537755102
 30
0.0
 11
234.0510204082
 21
1072.537755102
 31
0.0
  0
LINE
  5
296
330
1F
100
AcDbEntity
  8
0
  6
Continuous
 62
     7
370
    25
100
AcDbLine
 10
219.0510204082
 20
1072.537755102
 30
0.0
 11
226.5510204082
 21
1072.537755102
 31
0.0
  0
LINE
  5
297
330
1F
100
AcDbEntity
  8
0
  6
Continuous
 62
     7
370
    25
100
AcDbLine
 10
745.0493797792
 20
1174.937755102
 30
0.0
 11
758.0493797792
 21
1174.937755102
 31
0.0
  0
LINE
  5
298
330
1F
100
AcDbEntity
  8
0
  6
HIDDEN
 62
     7
370
    25
100
AcDbLine
 10
415.5510204082
 20
1168.237755102
 30
0.0
 11
399.5510204082
 21
1168.237755102
 31
0.0
  0
LINE
  5
299
330
1F
100
AcDbEntity
  8
0
  6
HIDDEN
 62
     7
370
    25
100
AcDbLine
 10
431.5510204082
 20
1168.237755102
 30
0.0
 11
415.5510204082
 21
1168.237755102
 31
0.0
  0
LINE
  5
29A
330
1F
100
AcDbEntity
  8
0
  6
HIDDEN
 62
     7
370
    25
100
AcDbLine
 10
399.4010204082
 20
1101.837755102
 30
0.0
 11
431.7010204082
 21
1101.837755102
 31
0.0
  0
LINE
  5
29B
330
1F
100
AcDbEntity
  8
0
  6
Continuous
 62
     7
370
    25
100
AcDbLine
 10
341.5510204082
 20
1180.3629428014
 30
0.0
 11
338.7510204082
 21
1180.3629428014
 31
0.0
  0
LINE
  5
29C
330
1F
100
AcDbEntity
  8
0
  6
Continuous
 62
     7
370
    25
100
AcDbLine
 10
344.3510204082
 20
1180.3629428014
 30
0.0
 11
341.5510204082
 21
1180.3629428014
 31
0.0
  0
LINE
  5
29D
330
1F
100
AcDbEntity
  8
0
  6
Continuous
 62
     7
370
    25
100
AcDbLine
 10
341.5510204082
 20
1180.1348128678
 30
0.0
 11
338.8766018035
 21
1180.1348128678
 31
0.0
  0
LINE
  5
29E
330
1F
100
AcDbEntity
  8
0
  6
Continuous
 62
     7
370
    25
100
AcDbLine
 10
344.2254390128
 20
1180.1348128678
 30
0.0
 11
341.5510204082
 21
1180.1348128678
 31
0.0
  0
LINE
  5
29F
330
1F
100
AcDbEntity
  8
0
  6
Continuous
 62
     7
370
    25
100
AcDbLine
 10
342.1393597473
 20
1181.8594412689
 30
0.0
 11
342.6941020546
 21
1181.8594412689
 31
0.0
  0
LINE
  5
2A0
330
1F
100
AcDbEntity
  8
0
  6
Continuous
 62
     7
370
    25
100
AcDbLine
 10
340.0510204082
 20
1181.8594412689
 30
0.0
 11
340.5960968684
 21
1181.8594412689
 31
0.0
  0
LINE
  5
2A1
330
1F
100
AcDbEntity
  8
0
  6
Continuous
 62
     7
370
    25
100
AcDbLine
 10
341.0253698575
 20
1181.8594412689
 30
0.0
 11
341.5510204082
 21
1181.8594412689
 31
0.0
  0
LINE
  5
2A2
330
1F
100
AcDbEntity
  8
0
  6
Continuous
 62
     7
370
    25
100
AcDbLine
 10
771.5510204082
 20
1180.3629428014
 30
0.0
 11
768.7510204082
 21
1180.3629428014
 31
0.0
  0
LINE
  5
2A3
330
1F
100
AcDbEntity
  8
0
  6
Continuous
 62
     7
370
    25
100
AcDbLine
 10
774.3510204082
 20
1180.3629428014
 30
0.0
 11
771.5510204082
 21
1180.3629428014
 31
0.0
  0
LINE
  5
2A4
330
1F
100
AcDbEntity
  8
0
  6
Continuous
 62
     7
370
    25
100
AcDbLine
 10
771.5510204082
 20
1180.1348128678
 30
0.0
 11
768.8766018035
 21
1180.1348128678
 31
0.0
  0
LINE
  5
2A5
330
1F
100
AcDbEntity
  8
0
  6
Continuous
 62
     7
370
    25
100
AcDbLine
 10
774.2254390128
 20
1180.1348128678
 30
0.0
 11
771.5510204082
 21
1180.1348128678
 31
0.0
  0
LINE
  5
2A6
330
1F
100
AcDbEntity
  8
0
  6
Continuous
 62
     7
370
    25
100
AcDbLine
 10
772.1393597473
 20
1181.8594412689
 30
0.0
 11
772.6941020546
 21
1181.8594412689
 31
0.0
  0
LINE
  5
2A7
330
1F
100
AcDbEntity
  8
0
  6
Continuous
 62
     7
370
    25
100
AcDbLine
 10
770.0510204082
 20
1181.8594412689
 30
0.0
 11
770.0929903435
 21
1181.8594412689
 31
0.0
  0
LINE
  5
2A8
330
1F
100
AcDbEntity
  8
0
  6
Continuous
 62
     7
370
    25
100
AcDbLine
 10
771.0253698575
 20
1181.8594412689
 30
0.0
 11
771.5510204082
 21
1181.8594412689
 31
0.0
  0
LINE
  5
2A9
330
1F
100
AcDbEntity
  8
0
  6
Continuous
 62
     7
370
    25
100
AcDbLine
 10
310.0510204082
 20
1209.987755102
 30
0.0
 11
310.0510204082
 21
1199.987755102
 31
0.0
  0
LINE
  5
2AA
330
1F
100
AcDbEntity
  8
0
  6
Continuous
 62
     7
370
    25
100
AcDbLine
 10
310.0510204082
 20
1198.487755102
 30
0.0
 11
310.0510204082
 21
1188.487755102
 31
0.0
  0
LINE
  5
2AB
330
1F
100
AcDbEntity
  8
0
  6
Continuous
 62
     7
370
    25
100
AcDbLine
 10
1070.58241868
 20
1215.937755102
 30
0.0
 11
1070.58241868
 21
1218.0063568302
 31
0.0
  0
LINE
  5
2AC
330
1F
100
AcDbEntity
  8
0
  6
Continuous
 62
     7
370
    25
100
AcDbLine
 10
1074.5818094606
 20
1217.937755102
 30
0.0
 11
1074.5818094606
 21
1215.937755102
 31
0.0
  0
LINE
  5
2AD
330
1F
100
AcDbEntity
  8
0
  6
Continuous
 62
     7
370
    25
100
AcDbLine
 10
1094.5202313557
 20
1215.937755102
 30
0.0
 11
1094.5202313557
 21
1217.937755102
 31
0.0
  0
LINE
  5
2AE
330
1F
100
AcDbEntity
  8
0
  6
Continuous
 62
     7
370
    25
100
AcDbLine
 10
1098.5196221363
 20
1218.0063568302
 30
0.0
 11
1098.5196221363
 21
1215.937755102
 31
0.0
  0
LINE
  5
2AF
330
1F
100
AcDbEntity
  8
0
  6
Continuous
 62
     7
370
    25
100
AcDbLine
 10
1095.9943304763
 20
1218.092524024
 30
0.0
 11
1095.9960147033
 21
1217.9960279102
 31
0.0
  0
LINE
  5
2B0
330
1F
100
AcDbEntity
  8
0
  6
Continuous
 62
     7
370
    25
100
AcDbLine
 10
1094.0120874925
 20
1217.9726652319
 30
0.0
 11
1094.0120874925
 21
1218.0670262149
 31
0.0
  0
LINE
  5
2B1
330
1F
100
AcDbEntity
  8
0
  6
Continuous
 62
     7
370
    25
100
AcDbLine
 10
1073.106026113
 20
1217.9960279102
 30
0.0
 11
1073.10771034
 21
1218.092524024
 31
0.0
  0
LINE
  5
2B2
330
1F
100
AcDbEntity
  8
0
  6
Continuous
 62
     7
370
    25
100
AcDbLine
 10
1075.0899533239
 20
1218.0670262149
 30
0.0
 11
1075.0899533239
 21
1217.9726652319
 31
0.0
  0
DIMENSION
  5
2B3
330
1F
100
AcDbEntity
  8
FORMAT
100
AcDbDimension
  2
_D
 10
415.5510204082
 20
1013.0678393233
 30
0.0
 11
321.0510204082
 21
1013.0678393233
 31
0.0
 70
   160
  1
(<>)
 71
     2
 42
-1.0
  3
SLDDIMSTYLE0
100
AcDbAlignedDimension
 13
226.5510204082
 23
976.5339445623
 33
0.0
 14
415.5510204082
 24
1153.037755102
 34
0.0
100
AcDbRotatedDimension
  0
DIMENSION
  5
2BF
330
1F
100
AcDbEntity
  8
FORMAT
100
AcDbDimension
  2
_D_1
 10
311.0510204082
 20
1322.537755102
 30
0.0
 11
268.8010204082
 21
1322.537755102
 31
0.0
 70
   160
  1
<>
 71
     2
 42
-1.0
  3
SLDDIMSTYLE0
100
AcDbAlignedDimension
 13
226.5510204082
 23
1076.3855285775
 33
0.0
 14
311.0510204082
 24
1215.037755102
 34
0.0
100
AcDbRotatedDimension
  0
DIMENSION
  5
2C9
330
1F
100
AcDbEntity
  8
FORMAT
100
AcDbDimension
  2
_D_2
 10
1109.5510204082
 20
1322.537755102
 30
0.0
 11
710.3010204082
 21
1322.537755102
 31
0.0
 70
   160
  1
<>
 71
     2
 42
-1.0
  3
SLDDIMSTYLE0
100
AcDbAlignedDimension
 13
311.0510204082
 23
1215.037755102
 33
0.0
 14
1109.5510204082
 24
1215.037755102
 34
0.0
100
AcDbRotatedDimension
  0
LINE
  5
2D3
330
1F
100
AcDbEntity
  8
0
  6
CENTER
 62
     7
370
    18
100
AcDbLine
 10
471.498997436
 20
1273.737755102
 30
0.0
 11
471.498997436
 21
951.337755102
 31
0.0
  0
LINE
  5
2D4
330
1F
100
AcDbEntity
  8
0
  6
Continuous
 62
     7
370
    18
100
AcDbLine
 10
407.998997436
 20
1263.737755102
 30
0.0
 11
471.498997436
 21
1263.737755102
 31
0.0
  0
SOLID
  5
2D5
330
1F
100
AcDbEntity
  8
0
  6
Continuous
 62
     7
370
    18
100
AcDbTrace
 10
471.498997436
 20
1263.737755102
 30
0.0
 11
439.748997436
 21
1268.817755102
 31
0.0
 12
439.748997436
 22
1258.657755102
 32
0.0
 13
439.748997436
 23
1258.657755102
 33
0.0
  0
LINE
  5
2D6
330
1F
100
AcDbEntity
  8
0
  6
Continuous
 62
     7
370
    18
100
AcDbLine
 10
407.998997436
 20
961.337755102
 30
0.0
 11
471.498997436
 21
961.337755102
 31
0.0
  0
SOLID
  5
2D7
330
1F
100
AcDbEntity
  8
0
  6
Continuous
 62
     7
370
    18
100
AcDbTrace
 10
471.498997436
 20
961.337755102
 30
0.0
 11
439.748997436
 21
966.417755102
 31
0.0
 12
439.748997436
 22
956.257755102
 32
0.0
 13
439.748997436
 23
956.257755102
 33
0.0
  0
MTEXT
  5
2D8
330
1F
100
AcDbEntity
  8
0
  6
Continuous
 62
     7
100
AcDbMText
 10
407.998997436
 20
1302.0990334318
 30
0.0
 40
25.0
 41
0.0
 71
     1
 72
     1
  1
A
  7
SLDTEXTSTYLE0
 73
     1
 44
1.0
  0
MTEXT
  5
2D9
330
1F
100
AcDbEntity
  8
0
  6
Continuous
 62
     7
100
AcDbMText
 10
407.998997436
 20
948.5634494182
 30
0.0
 40
25.0
 41
0.0
 71
     1
 72
     1
  1
A
  7
SLDTEXTSTYLE0
 73
     1
 44
1.0
  0
LINE
  5
2DA
330
1F
100
AcDbEntity
  8
FORMAT
  6
CENTERX2
370
    18
100
AcDbLine
 10
226.5510204082
 20
1076.3855285775
 30
0.0
 11
226.5510204082
 21
976.5339445623
 31
0.0
  0
LINE
  5
2DB
330
1F
100
AcDbEntity
  8
0
  6
Continuous
 62
     7
370
    25
100
AcDbLine
 10
234.0510204082
 20
465.2091836735
 30
0.0
 11
234.0510204082
 21
500.2091836735
 31
0.0
  0
LINE
  5
2DC
330
1F
100
AcDbEntity
  8
0
  6
Continuous
 62
     7
370
    25
100
AcDbLine
 10
219.0510204082
 20
500.2091836735
 30
0.0
 11
219.0510204082
 21
465.2091836735
 31
0.0
  0
LINE
  5
2DD
330
1F
100
AcDbEntity
  8
0
  6
Continuous
 62
     7
370
    25
100
AcDbLine
 10
219.0510204082
 20
465.2091836735
 30
0.0
 11
219.0510204082
 21
440.2091836735
 31
0.0
  0
LINE
  5
2DE
330
1F
100
AcDbEntity
  8
0
  6
Continuous
 62
     7
370
    25
100
AcDbLine
 10
234.0510204082
 20
440.2091836735
 30
0.0
 11
234.0510204082
 21
465.2091836735
 31
0.0
  0
LINE
  5
2DF
330
1F
100
AcDbEntity
  8
0
  6
Continuous
 62
     7
370
    25
100
AcDbLine
 10
219.0510204082
 20
525.2091836735
 30
0.0
 11
219.0510204082
 21
500.2091836735
 31
0.0
  0
LINE
  5
2E0
330
1F
100
AcDbEntity
  8
0
  6
Continuous
 62
     7
370
    25
100
AcDbLine
 10
234.0510204082
 20
500.2091836735
 30
0.0
 11
234.0510204082
 21
525.2091836735
 31
0.0
  0
ARC
  5
2E1
330
1F
100
AcDbEntity
  8
0
  6
Continuous
 62
     7
370
    25
100
AcDbCircle
 10
1076.5510204082
 20
646.9091836735
 30
0.0
 40
6.0
100
AcDbArc
 50
180.0
 51
270.0
  0
LINE
  5
2E2
330
1F
100
AcDbEntity
  8
0
  6
Continuous
 62
     7
370
    25
100
AcDbLine
 10
1076.5510204082
 20
640.9091836735
 30
0.0
 11
1092.5510204082
 21
640.9091836735
 31
0.0
  0
ARC
  5
2E3
330
1F
100
AcDbEntity
  8
0
  6
Continuous
 62
     7
370
    25
100
AcDbCircle
 10
1092.5510204082
 20
646.9091836735
 30
0.0
 40
6.0
100
AcDbArc
 50
270.0
 51
0.0
  0
LINE
  5
2E4
330
1F
100
AcDbEntity
  8
0
  6
Continuous
 62
     7
370
    25
100
AcDbLine
 10
1098.5510204082
 20
646.9091836735
 30
0.0
 11
1098.5510204082
 21
657.2091836735
 31
0.0
  0
LINE
  5
2E5
330
1F
100
AcDbEntity
  8
0
  6
Continuous
 62
     7
370
    25
100
AcDbLine
 10
1099.5510204082
 20
658.2091836735
 30
0.0
 11
1098.5510204082
 21
657.2091836735
 31
0.0
  0
LINE
  5
2E6
330
1F
100
AcDbEntity
  8
0
  6
Continuous
 62
     7
370
    25
100
AcDbLine
 10
1109.5510204082
 20
658.2091836735
 30
0.0
 11
1099.5510204082
 21
658.2091836735
 31
0.0
  0
LINE
  5
2E7
330
1F
100
AcDbEntity
  8
0
  6
Continuous
 62
     7
370
    25
100
AcDbLine
 10
1109.5510204082
 20
628.2091836735
 30
0.0
 11
1109.5510204082
 21
658.2091836735
 31
0.0
  0
LINE
  5
2E8
330
1F
100
AcDbEntity
  8
0
  6
Continuous
 62
     7
370
    25
100
AcDbLine
 10
311.0510204082
 20
628.2091836735
 30
0.0
 11
1109.5510204082
 21
628.2091836735
 31
0.0
  0
LINE
  5
2E9
330
1F
100
AcDbEntity
  8
0
  6
Continuous
 62
     7
370
    25
100
AcDbLine
 10
311.0510204082
 20
658.2091836735
 30
0.0
 11
311.0510204082
 21
628.2091836735
 31
0.0
  0
LINE
  5
2EA
330
1F
100
AcDbEntity
  8
0
  6
Continuous
 62
     7
370
    25
100
AcDbLine
 10
1069.5510204082
 20
658.2091836735
 30
0.0
 11
311.0510204082
 21
658.2091836735
 31
0.0
  0
LINE
  5
2EB
330
1F
100
AcDbEntity
  8
0
  6
Continuous
 62
     7
370
    25
100
AcDbLine
 10
1070.5510204082
 20
657.2091836735
 30
0.0
 11
1069.5510204082
 21
658.2091836735
 31
0.0
  0
LINE
  5
2EC
330
1F
100
AcDbEntity
  8
0
  6
Continuous
 62
     7
370
    25
100
AcDbLine
 10
1070.5510204082
 20
657.2091836735
 30
0.0
 11
1070.5510204082
 21
646.9091836735
 31
0.0
  0
CIRCLE
  5
2ED
330
1F
100
AcDbEntity
  8
0
  6
Continuous
 62
     7
370
    25
100
AcDbCircle
 10
775.0510204082
 20
635.2091836735
 30
0.0
 40
5.249999999999886
  0
CIRCLE
  5
2EE
330
1F
100
AcDbEntity
  8
0
  6
Continuous
 62
     7
370
    25
100
AcDbCircle
 10
346.5510204082
 20
635.2091836735
 30
0.0
 40
5.25
  0
CIRCLE
  5
2EF
330
1F
100
AcDbEntity
  8
0
  6
Continuous
 62
     7
370
    25
100
AcDbCircle
 10
326.5510204082
 20
648.2091836735
 30
0.0
 40
2.099999999999966
  0
CIRCLE
  5
2F0
330
1F
100
AcDbEntity
  8
0
  6
Continuous
 62
     7
370
    25
100
AcDbCircle
 10
786.5510204082
 20
648.2091836735
 30
0.0
 40
2.099999999999795
  0
CIRCLE
  5
2F1
330
1F
100
AcDbEntity
  8
0
  6
Continuous
 62
     7
370
    25
100
AcDbCircle
 10
346.5510204082
 20
635.2091836735
 30
0.0
 40
2.75
  0
CIRCLE
  5
2F2
330
1F
100
AcDbEntity
  8
0
  6
Continuous
 62
     7
370
    25
100
AcDbCircle
 10
775.0510204082
 20
635.2091836735
 30
0.0
 40
2.749999999999886
  0
CIRCLE
  5
2F3
330
1F
100
AcDbEntity
  8
0
  6
Continuous
 62
     7
370
    25
100
AcDbCircle
 10
528.5510204082
 20
583.2091836735
 30
0.0
 40
2.099999999999909
  0
CIRCLE
  5
2F4
330
1F
100
AcDbEntity
  8
0
  6
Continuous
 62
     7
370
    25
100
AcDbCircle
 10
528.5510204082
 20
567.2091836735
 30
0.0
 40
2.099999999999909
  0
CIRCLE
  5
2F5
330
1F
100
AcDbEntity
  8
0
  6
Continuous
 62
     7
370
    25
100
AcDbCircle
 10
368.5510204082
 20
567.2091836735
 30
0.0
 40
2.100000000000023
  0
CIRCLE
  5
2F6
330
1F
100
AcDbEntity
  8
0
  6
Continuous
 62
     7
370
    25
100
AcDbCircle
 10
368.5510204082
 20
583.2091836735
 30
0.0
 40
2.100000000000023
  0
LINE
  5
2F7
330
1F
100
AcDbEntity
  8
0
  6
Continuous
 62
     7
370
    25
100
AcDbLine
 10
1189.0510204082
 20
625.2091836735
 30
0.0
 11
229.0510204082
 21
625.2091836735
 31
0.0
  0
LINE
  5
2F8
330
1F
100
AcDbEntity
  8
0
  6
Continuous
 62
     7
370
    25
100
AcDbLine
 10
1189.0510204082
 20
435.2091836735
 30
0.0
 11
1189.0510204082
 21
625.2091836735
 31
0.0
  0
LINE
  5
2F9
330
1F
100
AcDbEntity
  8
0
  6
Continuous
 62
     7
370
    25
100
AcDbLine
 10
229.0510204082
 20
625.2091836735
 30
0.0
 11
229.0510204082
 21
525.2091836735
 31
0.0
  0
LINE
  5
2FA
330
1F
100
AcDbEntity
  8
0
  6
Continuous
 62
     7
370
    25
100
AcDbLine
 10
229.0510204082
 20
440.2091836735
 30
0.0
 11
229.0510204082
 21
435.2091836735
 31
0.0
  0
LINE
  5
2FB
330
1F
100
AcDbEntity
  8
0
  6
Continuous
 62
     7
370
    25
100
AcDbLine
 10
229.0510204082
 20
435.2091836735
 30
0.0
 11
1189.0510204082
 21
435.2091836735
 31
0.0
  0
LINE
  5
2FC
330
1F
100
AcDbEntity
  8
0
  6
Continuous
 62
     7
370
    25
100
AcDbLine
 10
226.5510204082
 20
465.2091836735
 30
0.0
 11
234.0510204082
 21
465.2091836735
 31
0.0
  0
LINE
  5
2FD
330
1F
100
AcDbEntity
  8
0
  6
Continuous
 62
     7
370
    25
100
AcDbLine
 10
219.0510204082
 20
465.2091836735
 30
0.0
 11
226.5510204082
 21
465.2091836735
 31
0.0
  0
LINE
  5
2FE
330
1F
100
AcDbEntity
  8
0
  6
Continuous
 62
     7
370
    25
100
AcDbLine
 10
226.5510204082
 20
500.2091836735
 30
0.0
 11
234.0510204082
 21
500.2091836735
 31
0.0
  0
LINE
  5
2FF
330
1F
100
AcDbEntity
  8
0
  6
Continuous
 62
     7
370
    25
100
AcDbLine
 10
219.0510204082
 20
500.2091836735
 30
0.0
 11
226.5510204082
 21
500.2091836735
 31
0.0
  0
LINE
  5
300
330
1F
100
AcDbEntity
  8
0
  6
Continuous
 62
     7
370
    25
100
AcDbLine
 10
159.0510204082
 20
695.2091836735
 30
0.0
 11
159.0510204082
 21
435.2091836735
 31
0.0
  0
LINE
  5
301
330
1F
100
AcDbEntity
  8
0
  6
Continuous
 62
     7
370
    25
100
AcDbLine
 10
1259.0510204082
 20
695.2091836735
 30
0.0
 11
159.0510204082
 21
695.2091836735
 31
0.0
  0
LINE
  5
302
330
1F
100
AcDbEntity
  8
0
  6
Continuous
 62
     7
370
    25
100
AcDbLine
 10
1259.0510204082
 20
435.2091836735
 30
0.0
 11
1259.0510204082
 21
695.2091836735
 31
0.0
  0
LINE
  5
303
330
1F
100
AcDbEntity
  8
0
  6
Continuous
 62
     7
370
    25
100
AcDbLine
 10
1194.0510204082
 20
435.2091836735
 30
0.0
 11
1259.0510204082
 21
435.2091836735
 31
0.0
  0
LINE
  5
304
330
1F
100
AcDbEntity
  8
0
  6
Continuous
 62
     7
370
    25
100
AcDbLine
 10
1194.0510204082
 20
435.2091836735
 30
0.0
 11
1194.0510204082
 21
630.2091836735
 31
0.0
  0
LINE
  5
305
330
1F
100
AcDbEntity
  8
0
  6
Continuous
 62
     7
370
    25
100
AcDbLine
 10
1194.0510204082
 20
630.2091836735
 30
0.0
 11
1109.5510204082
 21
630.2091836735
 31
0.0
  0
LINE
  5
306
330
1F
100
AcDbEntity
  8
0
  6
Continuous
 62
     7
370
    25
100
AcDbLine
 10
311.0510204082
 20
630.2091836735
 30
0.0
 11
224.0510204082
 21
630.2091836735
 31
0.0
  0
LINE
  5
307
330
1F
100
AcDbEntity
  8
0
  6
Continuous
 62
     7
370
    25
100
AcDbLine
 10
224.0510204082
 20
630.2091836735
 30
0.0
 11
224.0510204082
 21
525.2091836735
 31
0.0
  0
LINE
  5
308
330
1F
100
AcDbEntity
  8
0
  6
Continuous
 62
     7
370
    25
100
AcDbLine
 10
224.0510204082
 20
440.2091836735
 30
0.0
 11
224.0510204082
 21
435.2091836735
 31
0.0
  0
LINE
  5
309
330
1F
100
AcDbEntity
  8
0
  6
Continuous
 62
     7
370
    25
100
AcDbLine
 10
159.0510204082
 20
435.2091836735
 30
0.0
 11
224.0510204082
 21
435.2091836735
 31
0.0
  0
CIRCLE
  5
30A
330
1F
100
AcDbEntity
  8
0
  6
Continuous
 62
     7
370
    25
100
AcDbCircle
 10
1076.5510204082
 20
661.9091836735
 30
0.0
 40
5.999999999999773
  0
CIRCLE
  5
30B
330
1F
100
AcDbEntity
  8
0
  6
Continuous
 62
     7
370
    25
100
AcDbCircle
 10
1092.5510204082
 20
661.9091836735
 30
0.0
 40
6.0
  0
ARC
  5
30C
330
1F
100
AcDbEntity
  8
0
  6
Continuous
 62
     7
370
    25
100
AcDbCircle
 10
1092.5510204082
 20
646.9091836735
 30
0.0
 40
6.0
100
AcDbArc
 50
0.0
 51
270.0
  0
ARC
  5
30D
330
1F
100
AcDbEntity
  8
0
  6
Continuous
 62
     7
370
    25
100
AcDbCircle
 10
1076.5510204082
 20
646.9091836735
 30
0.0
 40
6.000000000000227
100
AcDbArc
 50
0.0
 51
180.0
  0
ARC
  5
30E
330
1F
100
AcDbEntity
  8
0
  6
Continuous
 62
     7
370
    25
100
AcDbCircle
 10
1076.5510204082
 20
646.9091836735
 30
0.0
 40
5.999999999999886
100
AcDbArc
 50
270.0
 51
0.0
  0
LINE
  5
30F
330
1F
100
AcDbEntity
  8
0
  6
Continuous
 62
     7
370
    25
100
AcDbLine
 10
224.0510204082
 20
435.2091836735
 30
0.0
 11
229.0510204082
 21
435.2091836735
 31
0.0
  0
LINE
  5
310
330
1F
100
AcDbEntity
  8
0
  6
Continuous
 62
     7
370
    25
100
AcDbLine
 10
1189.0510204082
 20
435.2091836735
 30
0.0
 11
1194.0510204082
 21
435.2091836735
 31
0.0
  0
LINE
  5
311
330
1F
100
AcDbEntity
  8
0
  6
Continuous
 62
     7
370
    25
100
AcDbLine
 10
226.5510204082
 20
440.2091836735
 30
0.0
 11
234.0510204082
 21
440.2091836735
 31
0.0
  0
LINE
  5
312
330
1F
100
AcDbEntity
  8
0
  6
Continuous
 62
     7
370
    25
100
AcDbLine
 10
219.0510204082
 20
440.2091836735
 30
0.0
 11
226.5510204082
 21
440.2091836735
 31
0.0
  0
LINE
  5
313
330
1F
100
AcDbEntity
  8
0
  6
Continuous
 62
     7
370
    25
100
AcDbLine
 10
226.5510204082
 20
525.2091836735
 30
0.0
 11
234.0510204082
 21
525.2091836735
 31
0.0
  0
LINE
  5
314
330
1F
100
AcDbEntity
  8
0
  6
Continuous
 62
     7
370
    25
100
AcDbLine
 10
219.0510204082
 20
525.2091836735
 30
0.0
 11
226.5510204082
 21
525.2091836735
 31
0.0
  0
DIMENSION
  5
315
330
1F
100
AcDbEntity
  8
FORMAT
100
AcDbDimension
  2
_D_3
 10
368.5510204082
 20
481.5773790702
 30
0.0
 11
297.5510204082
 21
481.5773790702
 31
0.0
 70
   160
  1
<>
 71
     2
 42
-1.0
  3
SLDDIMSTYLE1
100
AcDbAlignedDimension
 13
226.5510204082
 23
533.827013771
 33
0.0
 14
368.5510204082
 24
562.6091836735
 34
0.0
100
AcDbRotatedDimension
  0
DIMENSION
  5
31F
330
1F
100
AcDbEntity
  8
FORMAT
100
AcDbDimension
  2
_D_4
 10
528.5510204082
 20
481.5773790702
 30
0.0
 11
448.5510204082
 21
481.5773790702
 31
0.0
 70
   160
  1
<>
 71
     2
 42
-1.0
  3
SLDDIMSTYLE2
100
AcDbAlignedDimension
 13
368.5510204082
 23
562.6091836735
 33
0.0
 14
528.5510204082
 24
562.6091836735
 34
0.0
100
AcDbRotatedDimension
  0
DIMENSION
  5
32A
330
1F
100
AcDbEntity
  8
FORMAT
100
AcDbDimension
  2
_D_5
 10
570.2571412624
 20
583.2091836735
 30
0.0
 11
570.2571412624
 21
503.3617850615
 31
0.0
 70
   160
  1
<>
 71
     2
 42
-1.0
  3
SLDDIMSTYLE3
100
AcDbAlignedDimension
 13
533.1510204082
 23
567.2091836735
 33
0.0
 14
533.1510204082
 24
583.2091836735
 34
0.0
 50
90.0
100
AcDbRotatedDimension
  0
DIMENSION
  5
337
330
1F
100
AcDbEntity
  8
FORMAT
100
AcDbDimension
  2
_D_6
 10
635.1848657731
 20
625.2091836735
 30
0.0
 11
635.1848657731
 21
503.3617850615
 31
0.0
 70
   160
  1
<>
 71
     2
 42
-1.0
  3
SLDDIMSTYLE4
100
AcDbAlignedDimension
 13
533.1510204082
 23
583.2091836735
 33
0.0
 14
229.0510204082
 24
625.2091836735
 34
0.0
 50
90.0
100
AcDbRotatedDimension
  0
DIMENSION
  5
343
330
1F
100
AcDbEntity
  8
FORMAT
100
AcDbDimension
  2
_D_7
 10
1092.5510204082
 20
718.4990950422
 30
0.0
 11
1126.6844281546
 21
718.4990950422
 31
0.0
 70
   160
  1
<>
 71
     2
 42
-1.0
  3
SLDDIMSTYLE5
100
AcDbAlignedDimension
 13
1076.5510204082
 23
655.4091836735
 33
0.0
 14
1092.5510204082
 24
655.4091836735
 34
0.0
100
AcDbRotatedDimension
  0
DIMENSION
  5
350
330
1F
100
AcDbEntity
  8
FORMAT
100
AcDbDimension
  2
_D_8
 10
1187.2808205578
 20
661.9091836735
 30
0.0
 11
1187.2808205578
 21
718.4990950422
 31
0.0
 70
   160
  1
<>
 71
     2
 42
-1.0
  3
SLDDIMSTYLE5
100
AcDbAlignedDimension
 13
1101.0510204082
 23
646.9091836735
 33
0.0
 14
1101.0510204082
 24
661.9091836735
 34
0.0
 50
90.0
100
AcDbRotatedDimension
  0
DIMENSION
  5
35C
330
1F
100
AcDbEntity
  8
FORMAT
100
AcDbDimension
  2
_D_9
 10
1319.2278748411
 20
646.9091836735
 30
0.0
 11
1319.2278748411
 21
576.7958164332
 31
0.0
 70
   160
  1
<>
 71
     2
 42
-1.0
  3
SLDDIMSTYLE5
100
AcDbAlignedDimension
 13
1189.0510204082
 23
625.2091836735
 33
0.0
 14
1101.0510204082
 24
646.9091836735
 34
0.0
 50
90.0
100
AcDbRotatedDimension
  0
DIMENSION
  5
368
330
1F
100
AcDbEntity
  8
FORMAT
100
AcDbDimension
  2
_D_10
 10
1076.5510204082
 20
790.1466081004
 30
0.0
 11
651.5510204082
 21
790.1466081004
 31
0.0
 70
   160
  1
<>
 71
     2
 42
-1.0
  3
SLDDIMSTYLE0
100
AcDbAlignedDimension
 13
226.5510204082
 23
533.827013771
 33
0.0
 14
1076.5510204082
 24
670.4091836735
 34
0.0
100
AcDbRotatedDimension
  0
DIMENSION
  5
372
330
1F
100
AcDbEntity
  8
FORMAT
100
AcDbDimension
  2
_D_11
 10
1082.5510204082
 20
584.2696323745
 30
0.0
 11
1022.1536338947
 21
584.2696323745
 31
0.0
 70
   160
  1
%%c<>
 71
     2
 42
-1.0
  3
SLDDIMSTYLE5
100
AcDbAlignedDimension
 13
1070.5510204082
 23
646.9091836735
 33
0.0
 14
1082.5510204082
 24
646.9091836735
 34
0.0
100
AcDbRotatedDimension
  0
DIMENSION
  5
37F
330
1F
100
AcDbEntity
  8
FORMAT
100
AcDbDimension
  2
_D_12
 10
346.5510204082
 20
736.4883677104
 30
0.0
 11
286.5510204082
 21
736.4883677104
 31
0.0
 70
   160
  1
<>
 71
     2
 42
-1.0
  3
SLDDIMSTYLE1
100
AcDbAlignedDimension
 13
226.5510204082
 23
533.827013771
 33
0.0
 14
346.5510204082
 24
642.9591836735
 34
0.0
100
AcDbRotatedDimension
  0
DIMENSION
  5
389
330
1F
100
AcDbEntity
  8
FORMAT
100
AcDbDimension
  2
_D_13
 10
775.0510204082
 20
736.4883677104
 30
0.0
 11
560.8010204082
 21
736.4883677104
 31
0.0
 70
   160
  1
<>
 71
     2
 42
-1.0
  3
SLDDIMSTYLE2
100
AcDbAlignedDimension
 13
346.5510204082
 23
642.9591836735
 33
0.0
 14
775.0510204082
 24
642.9591836735
 34
0.0
100
AcDbRotatedDimension
  0
DIMENSION
  5
393
330
1F
100
AcDbEntity
  8
FORMAT
100
AcDbDimension
  2
_D_14
 10
829.8188793654
 20
635.2091836735
 30
0.0
 11
829.8188793654
 21
568.0012575828
 31
0.0
 70
   160
  1
<>
 71
     2
 42
-1.0
  3
SLDDIMSTYLE4
100
AcDbAlignedDimension
 13
1189.0510204082
 23
625.2091836735
 33
0.0
 14
782.8010204082
 24
635.2091836735
 34
0.0
 50
90.0
100
AcDbRotatedDimension
  0
INSERT
  5
3A9
330
1F
100
AcDbEntity
  8
FORMAT
100
AcDbBlockReference
  2
SW_CENTERMARKSYMBOL_0
 10
528.5510204082
 20
567.2091836735
 30
0.0
  0
INSERT
  5
3B5
330
1F
100
AcDbEntity
  8
FORMAT
100
AcDbBlockReference
  2
SW_CENTERMARKSYMBOL_1
 10
528.5510204082
 20
583.2091836735
 30
0.0
  0
INSERT
  5
3C1
330
1F
100
AcDbEntity
  8
FORMAT
100
AcDbBlockReference
  2
SW_CENTERMARKSYMBOL_2
 10
368.5510204082
 20
567.2091836735
 30
0.0
  0
INSERT
  5
3CD
330
1F
100
AcDbEntity
  8
FORMAT
100
AcDbBlockReference
  2
SW_CENTERMARKSYMBOL_3
 10
368.5510204082
 20
583.2091836735
 30
0.0
  0
INSERT
  5
3D9
330
1F
100
AcDbEntity
  8
FORMAT
100
AcDbBlockReference
  2
SW_CENTERMARKSYMBOL_4
 10
1092.5510204082
 20
646.9091836735
 30
0.0
  0
INSERT
  5
3E5
330
1F
100
AcDbEntity
  8
FORMAT
100
AcDbBlockReference
  2
SW_CENTERMARKSYMBOL_5
 10
1076.5510204082
 20
646.9091836735
 30
0.0
  0
INSERT
  5
3F1
330
1F
100
AcDbEntity
  8
FORMAT
100
AcDbBlockReference
  2
SW_CENTERMARKSYMBOL_6
 10
1076.5510204082
 20
661.9091836735
 30
0.0
  0
INSERT
  5
3FD
330
1F
100
AcDbEntity
  8
FORMAT
100
AcDbBlockReference
  2
SW_CENTERMARKSYMBOL_7
 10
1092.5510204082
 20
661.9091836735
 30
0.0
  0
INSERT
  5
409
330
1F
100
AcDbEntity
  8
FORMAT
100
AcDbBlockReference
  2
SW_CENTERMARKSYMBOL_8
 10
775.0510204082
 20
635.2091836735
 30
0.0
  0
INSERT
  5
415
330
1F
100
AcDbEntity
  8
FORMAT
100
AcDbBlockReference
  2
SW_CENTERMARKSYMBOL_9
 10
346.5510204082
 20
635.2091836735
 30
0.0
  0
LINE
  5
416
330
1F
100
AcDbEntity
  8
FORMAT
  6
CENTERX2
370
    18
100
AcDbLine
 10
226.5510204082
 20
533.827013771
 30
0.0
 11
226.5510204082
 21
427.6483393739
 31
0.0
  0
LINE
  5
417
330
1F
100
AcDbEntity
  8
0
  6
Continuous
 62
     7
370
    25
100
AcDbLine
 10
1660.1997711912
 20
1179.537755102
 30
0.0
 11
1660.1997711912
 21
1181.9219238625
 31
0.0
  0
LINE
  5
418
330
1F
100
AcDbEntity
  8
0
  6
Continuous
 62
     7
370
    25
100
AcDbLine
 10
1650.1997711912
 20
1181.9219238625
 30
0.0
 11
1650.1997711912
 21
1179.537755102
 31
0.0
  0
LINE
  5
419
330
1F
100
AcDbEntity
  8
0
  6
HIDDEN
 62
     7
370
    25
100
AcDbLine
 10
1630.0697711956
 20
1163.487755102
 30
0.0
 11
1630.0697711956
 21
1109.087755102
 31
0.0
  0
ARC
  5
41A
330
1F
100
AcDbEntity
  8
0
  6
HIDDEN
 62
     7
370
    25
100
AcDbCircle
 10
1642.2497711912
 20
1168.237755102
 30
0.0
 40
2.0
100
AcDbArc
 50
90.0
 51
180.0
  0
ARC
  5
41B
330
1F
100
AcDbEntity
  8
0
  6
HIDDEN
 62
     7
370
    25
100
AcDbCircle
 10
1670.2497711912
 20
1168.237755102
 30
0.0
 40
2.0
100
AcDbArc
 50
0.0
 51
90.0
  0
LINE
  5
41C
330
1F
100
AcDbEntity
  8
0
  6
HIDDEN
 62
     7
370
    25
100
AcDbLine
 10
1640.2497711912
 20
1168.237755102
 30
0.0
 11
1640.2497711912
 21
1166.737755102
 31
0.0
  0
LINE
  5
41D
330
1F
100
AcDbEntity
  8
0
  6
HIDDEN
 62
     7
370
    25
100
AcDbLine
 10
1672.2497711912
 20
1166.737755102
 30
0.0
 11
1672.2497711912
 21
1168.237755102
 31
0.0
  0
LINE
  5
41E
330
1F
100
AcDbEntity
  8
0
  6
Continuous
 62
     7
370
    25
100
AcDbLine
 10
1645.7497711912
 20
1175.537755102
 30
0.0
 11
1645.7497711912
 21
1170.237755102
 31
0.0
  0
LINE
  5
41F
330
1F
100
AcDbEntity
  8
0
  6
Continuous
 62
     7
370
    25
100
AcDbLine
 10
1666.7497711912
 20
1170.237755102
 30
0.0
 11
1666.7497711912
 21
1175.537755102
 31
0.0
  0
ARC
  5
420
330
1F
100
AcDbEntity
  8
0
  6
HIDDEN
 62
     7
370
    25
100
AcDbCircle
 10
1642.0997711912
 20
1101.837755102
 30
0.0
 40
2.0
100
AcDbArc
 50
180.0
 51
270.0
  0
ARC
  5
421
330
1F
100
AcDbEntity
  8
0
  6
HIDDEN
 62
     7
370
    25
100
AcDbCircle
 10
1670.3997711912
 20
1101.837755102
 30
0.0
 40
2.0
100
AcDbArc
 50
270.0
 51
0.0
  0
LINE
  5
422
330
1F
100
AcDbEntity
  8
0
  6
HIDDEN
 62
     7
370
    25
100
AcDbLine
 10
1672.3997711912
 20
1101.837755102
 30
0.0
 11
1672.3997711912
 21
1104.337755102
 31
0.0
  0
LINE
  5
423
330
1F
100
AcDbEntity
  8
0
  6
HIDDEN
 62
     7
370
    25
100
AcDbLine
 10
1640.0997711912
 20
1104.337755102
 30
0.0
 11
1640.0997711912
 21
1101.837755102
 31
0.0
  0
LINE
  5
424
330
1F
100
AcDbEntity
  8
0
  6
Continuous
 62
     7
370
    25
100
AcDbLine
 10
1647.9997711912
 20
1183.437755102
 30
0.0
 11
1647.9997711912
 21
1183.337755102
 31
0.0
  0
LINE
  5
425
330
1F
100
AcDbEntity
  8
0
  6
Continuous
 62
     7
370
    25
100
AcDbLine
 10
1647.9997711912
 20
1182.537755102
 30
0.0
 11
1647.9997711912
 21
1182.087755102
 31
0.0
  0
LINE
  5
426
330
1F
100
AcDbEntity
  8
0
  6
Continuous
 62
     7
370
    25
100
AcDbLine
 10
1662.3997711912
 20
1182.087755102
 30
0.0
 11
1662.3997711912
 21
1182.537755102
 31
0.0
  0
LINE
  5
427
330
1F
100
AcDbEntity
  8
0
  6
Continuous
 62
     7
370
    25
100
AcDbLine
 10
1662.3997711912
 20
1183.337755102
 30
0.0
 11
1662.3997711912
 21
1183.437755102
 31
0.0
  0
ARC
  5
428
330
1F
100
AcDbEntity
  8
0
  6
Continuous
 62
     7
370
    25
100
AcDbCircle
 10
1659.9497711912
 20
1182.087755102
 30
0.0
 40
0.3000000000002306
100
AcDbArc
 50
326.4426902382
 51
0.0
  0
ARC
  5
429
330
1F
100
AcDbEntity
  8
0
  6
Continuous
 62
     7
370
    25
100
AcDbCircle
 10
1650.4497711912
 20
1182.087755102
 30
0.0
 40
0.3000000000001819
100
AcDbArc
 50
180.0
 51
213.557309762
  0
LINE
  5
42A
330
1F
100
AcDbEntity
  8
0
  6
Continuous
 62
     7
370
    25
100
AcDbLine
 10
1643.9863821744
 20
1182.3013893411
 30
0.0
 11
1643.5645384565
 21
1182.4197124063
 31
0.0
  0
LINE
  5
42B
330
1F
100
AcDbEntity
  8
0
  6
Continuous
 62
     7
370
    25
100
AcDbLine
 10
1644.8517452949
 20
1181.9962893411
 30
0.0
 11
1644.8528488117
 21
1181.9959135362
 31
0.0
  0
LINE
  5
42C
330
1F
100
AcDbEntity
  8
0
  6
Continuous
 62
     7
370
    25
100
AcDbLine
 10
1645.7168060517
 20
1181.9962893411
 30
0.0
 11
1646.1397793804
 21
1181.8776704993
 31
0.0
  0
LINE
  5
42D
330
1F
100
AcDbEntity
  8
0
  6
Continuous
 62
     7
370
    25
100
AcDbLine
 10
1643.2524641811
 20
1182.3013893411
 30
0.0
 11
1642.5788398748
 21
1182.460713294
 31
0.0
  0
LINE
  5
42E
330
1F
100
AcDbEntity
  8
0
  6
Continuous
 62
     7
370
    25
100
AcDbLine
 10
1646.5236487316
 20
1181.9788246973
 30
0.0
 11
1647.1236664589
 21
1181.8367932681
 31
0.0
  0
LINE
  5
42F
330
1F
100
AcDbEntity
  8
0
  6
Continuous
 62
     7
370
    25
100
AcDbLine
 10
1642.3567150135
 20
1182.3560265042
 30
0.0
 11
1641.980733104
 21
1182.4816065675
 31
0.0
  0
LINE
  5
430
330
1F
100
AcDbEntity
  8
0
  6
Continuous
 62
     7
370
    25
100
AcDbLine
 10
1647.345799919
 20
1181.9410496851
 30
0.0
 11
1647.7196619093
 21
1181.8159042604
 31
0.0
  0
LINE
  5
431
330
1F
100
AcDbEntity
  8
0
  6
Continuous
 62
     7
370
    25
100
AcDbLine
 10
1641.8496211979
 20
1182.3065873173
 30
0.0
 11
1641.8496211979
 21
1181.9949965618
 31
0.0
  0
LINE
  5
432
330
1F
100
AcDbEntity
  8
0
  6
Continuous
 62
     7
370
    25
100
AcDbLine
 10
1647.8499211979
 20
1181.9949965618
 30
0.0
 11
1647.8499211979
 21
1182.3065873173
 31
0.0
  0
LINE
  5
433
330
1F
100
AcDbEntity
  8
0
  6
Continuous
 62
     7
370
    25
100
AcDbLine
 10
1642.5758759369
 20
1181.8367932681
 30
0.0
 11
1642.8432765669
 21
1181.9000902207
 31
0.0
  0
LINE
  5
434
330
1F
100
AcDbEntity
  8
0
  6
Continuous
 62
     7
370
    25
100
AcDbLine
 10
1647.1207025211
 20
1182.460713294
 30
0.0
 11
1646.8532400549
 21
1182.3974537338
 31
0.0
  0
ARC
  5
435
330
1F
100
AcDbEntity
  8
0
  6
Continuous
 62
     7
370
    25
100
AcDbCircle
 10
1647.3797711912
 20
1180.3629428014
 30
0.0
 40
0.270000000000035
100
AcDbArc
 50
302.3360259976
 51
0.0
  0
ARC
  5
436
330
1F
100
AcDbEntity
  8
0
  6
Continuous
 62
     7
370
    25
100
AcDbCircle
 10
1642.3197711912
 20
1180.3629428014
 30
0.0
 40
0.2699999999999818
100
AcDbArc
 50
180.0
 51
237.6639740025
  0
LINE
  5
437
330
1F
100
AcDbEntity
  8
0
  6
Continuous
 62
     7
370
    25
100
AcDbLine
 10
1647.6497711912
 20
1180.3629428014
 30
0.0
 11
1647.6497711912
 21
1181.7594412689
 31
0.0
  0
LINE
  5
438
330
1F
100
AcDbEntity
  8
0
  6
Continuous
 62
     7
370
    25
100
AcDbLine
 10
1642.0497711912
 20
1181.7594412689
 30
0.0
 11
1642.0497711912
 21
1180.3629428014
 31
0.0
  0
ARC
  5
439
330
1F
100
AcDbEntity
  8
0
  6
Continuous
 62
     7
370
    25
100
AcDbCircle
 10
1644.8497711912
 20
1184.3594412689
 30
0.0
 40
5.000000000000021
100
AcDbArc
 50
285.2192781064
 51
302.3360259976
  0
ARC
  5
43A
330
1F
100
AcDbEntity
  8
0
  6
Continuous
 62
     7
370
    25
100
AcDbCircle
 10
1644.8497711912
 20
1184.3594412689
 30
0.0
 40
5.000000000000081
100
AcDbArc
 50
237.6639740024
 51
254.7807218936
  0
ARC
  5
43B
330
1F
100
AcDbEntity
  8
0
  6
Continuous
 62
     7
370
    25
100
AcDbCircle
 10
1643.2497711912
 20
1181.8594412689
 30
0.0
 40
0.1000000000001364
100
AcDbArc
 50
270.0
 51
0.0
  0
LINE
  5
43C
330
1F
100
AcDbEntity
  8
0
  6
Continuous
 62
     7
370
    25
100
AcDbLine
 10
1646.3497711912
 20
1182.4344114837
 30
0.0
 11
1646.3497711912
 21
1182.537755102
 31
0.0
  0
LINE
  5
43D
330
1F
100
AcDbEntity
  8
0
  6
Continuous
 62
     7
370
    25
100
AcDbLine
 10
1646.3497711912
 20
1183.337755102
 30
0.0
 11
1646.3497711912
 21
1183.387755102
 31
0.0
  0
LINE
  5
43E
330
1F
100
AcDbEntity
  8
0
  6
Continuous
 62
     7
370
    25
100
AcDbLine
 10
1643.3497711912
 20
1183.387755102
 30
0.0
 11
1643.3497711912
 21
1183.337755102
 31
0.0
  0
ARC
  5
43F
330
1F
100
AcDbEntity
  8
0
  6
Continuous
 62
     7
370
    25
100
AcDbCircle
 10
1682.8497711912
 20
1195.0611492449
 30
0.0
 40
0.2000000000000455
100
AcDbArc
 50
180.0
 51
270.0
  0
ARC
  5
440
330
1F
100
AcDbEntity
  8
0
  6
Continuous
 62
     7
370
    25
100
AcDbCircle
 10
1682.8497711912
 20
1203.6143609592
 30
0.0
 40
0.1999999999998181
100
AcDbArc
 50
90.0
 51
180.0000000001
  0
LINE
  5
441
330
1F
100
AcDbEntity
  8
0
  6
Continuous
 62
     7
370
    25
100
AcDbLine
 10
1682.9963290526
 20
1203.8143609592
 30
0.0
 11
1682.8497711912
 21
1203.8143609592
 31
0.0
  0
LINE
  5
442
330
1F
100
AcDbEntity
  8
0
  6
Continuous
 62
     7
370
    25
100
AcDbLine
 10
1682.8497711912
 20
1194.8611492449
 30
0.0
 11
1682.9963290526
 21
1194.8611492449
 31
0.0
  0
ARC
  5
443
330
1F
100
AcDbEntity
  8
0
  6
Continuous
 62
     7
370
    25
100
AcDbCircle
 10
1682.9963290526
 20
1195.0611492449
 30
0.0
 40
0.2000000000001112
100
AcDbArc
 50
270.0
 51
345.2524929008
  0
ARC
  5
444
330
1F
100
AcDbEntity
  8
0
  6
Continuous
 62
     7
370
    25
100
AcDbCircle
 10
1682.9963290526
 20
1203.6143609592
 30
0.0
 40
0.2000000000001112
100
AcDbArc
 50
14.7475070992
 51
90.0
  0
ARC
  5
445
330
1F
100
AcDbEntity
  8
0
  6
Continuous
 62
     7
370
    25
100
AcDbCircle
 10
1666.7497711912
 20
1199.337755102
 30
0.0
 40
17.0
100
AcDbArc
 50
345.2524929007
 51
0.0
  0
ARC
  5
446
330
1F
100
AcDbEntity
  8
0
  6
Continuous
 62
     7
370
    25
100
AcDbCircle
 10
1666.7497711912
 20
1199.337755102
 30
0.0
 40
17.00000000000012
100
AcDbArc
 50
0.0
 51
14.7475070993
  0
LINE
  5
447
330
1F
100
AcDbEntity
  8
0
  6
Continuous
 62
     7
370
    25
100
AcDbLine
 10
1629.6497711912
 20
1205.537755102
 30
0.0
 11
1629.6497711912
 21
1175.537755102
 31
0.0
  0
LINE
  5
448
330
1F
100
AcDbEntity
  8
0
  6
Continuous
 62
     7
370
    25
100
AcDbLine
 10
1634.6497711912
 20
1175.537755102
 30
0.0
 11
1629.6497711912
 21
1175.537755102
 31
0.0
  0
LINE
  5
449
330
1F
100
AcDbEntity
  8
0
  6
Continuous
 62
     7
370
    25
100
AcDbLine
 10
1629.6497711912
 20
1205.537755102
 30
0.0
 11
1634.6497711912
 21
1205.537755102
 31
0.0
  0
LINE
  5
44A
330
1F
100
AcDbEntity
  8
0
  6
Continuous
 62
     7
370
    25
100
AcDbLine
 10
1634.6497711912
 20
1183.437755102
 30
0.0
 11
1634.6497711912
 21
1183.337755102
 31
0.0
  0
LINE
  5
44B
330
1F
100
AcDbEntity
  8
0
  6
Continuous
 62
     7
370
    25
100
AcDbLine
 10
1634.6497711912
 20
1182.537755102
 30
0.0
 11
1634.6497711912
 21
1175.537755102
 31
0.0
  0
LINE
  5
44C
330
1F
100
AcDbEntity
  8
0
  6
Continuous
 62
     7
370
    25
100
AcDbLine
 10
1629.6497711912
 20
1172.537755102
 30
0.0
 11
1629.6497711912
 21
1163.337755102
 31
0.0
  0
LINE
  5
44D
330
1F
100
AcDbEntity
  8
0
  6
Continuous
 62
     7
370
    25
100
AcDbLine
 10
1629.6497711912
 20
1107.737755102
 30
0.0
 11
1629.6497711912
 21
982.537755102
 31
0.0
  0
LINE
  5
44E
330
1F
100
AcDbEntity
  8
0
  6
Continuous
 62
     7
370
    25
100
AcDbLine
 10
1574.6497711912
 20
982.537755102
 30
0.0
 11
1629.6497711912
 21
982.537755102
 31
0.0
  0
LINE
  5
44F
330
1F
100
AcDbEntity
  8
0
  6
Continuous
 62
     7
370
    25
100
AcDbLine
 10
1574.6497711912
 20
1172.537755102
 30
0.0
 11
1574.6497711912
 21
982.537755102
 31
0.0
  0
LINE
  5
450
330
1F
100
AcDbEntity
  8
0
  6
Continuous
 62
     7
370
    25
100
AcDbLine
 10
1629.6497711912
 20
1172.537755102
 30
0.0
 11
1574.6497711912
 21
1172.537755102
 31
0.0
  0
LINE
  5
451
330
1F
100
AcDbEntity
  8
0
  6
Continuous
 62
     7
370
    25
100
AcDbLine
 10
1629.6497711912
 20
1177.537755102
 30
0.0
 11
1569.6497711912
 21
1177.537755102
 31
0.0
  0
LINE
  5
452
330
1F
100
AcDbEntity
  8
0
  6
Continuous
 62
     7
370
    25
100
AcDbLine
 10
1569.6497711912
 20
1157.537755102
 30
0.0
 11
1554.6497711912
 21
1157.537755102
 31
0.0
  0
LINE
  5
453
330
1F
100
AcDbEntity
  8
0
  6
Continuous
 62
     7
370
    25
100
AcDbLine
 10
1629.6497711912
 20
1242.537755102
 30
0.0
 11
1554.6497711912
 21
1242.537755102
 31
0.0
  0
LINE
  5
454
330
1F
100
AcDbEntity
  8
0
  6
Continuous
 62
     7
370
    25
100
AcDbLine
 10
1629.6497711912
 20
1242.537755102
 30
0.0
 11
1629.6497711912
 21
1177.537755102
 31
0.0
  0
LINE
  5
455
330
1F
100
AcDbEntity
  8
0
  6
Continuous
 62
     7
370
    25
100
AcDbLine
 10
1569.6497711912
 20
1177.537755102
 30
0.0
 11
1569.6497711912
 21
1157.537755102
 31
0.0
  0
LINE
  5
456
330
1F
100
AcDbEntity
  8
0
  6
Continuous
 62
     7
370
    25
100
AcDbLine
 10
1554.6497711912
 20
1242.537755102
 30
0.0
 11
1554.6497711912
 21
1157.537755102
 31
0.0
  0
LINE
  5
457
330
1F
100
AcDbEntity
  8
0
  6
Continuous
 62
     7
370
    25
100
AcDbLine
 10
1554.6497711912
 20
982.537755102
 30
0.0
 11
1569.6497711912
 21
982.537755102
 31
0.0
  0
LINE
  5
458
330
1F
100
AcDbEntity
  8
0
  6
Continuous
 62
     7
370
    25
100
AcDbLine
 10
1569.6497711912
 20
982.537755102
 30
0.0
 11
1569.6497711912
 21
1157.537755102
 31
0.0
  0
LINE
  5
459
330
1F
100
AcDbEntity
  8
0
  6
Continuous
 62
     7
370
    25
100
AcDbLine
 10
1554.6497711912
 20
982.537755102
 30
0.0
 11
1554.6497711912
 21
1157.537755102
 31
0.0
  0
LINE
  5
45A
330
1F
100
AcDbEntity
  8
0
  6
Continuous
 62
     7
370
    25
100
AcDbLine
 10
1569.6497711912
 20
982.537755102
 30
0.0
 11
1574.6497711912
 21
982.537755102
 31
0.0
  0
LINE
  5
45B
330
1F
100
AcDbEntity
  8
0
  6
Continuous
 62
     7
370
    25
100
AcDbLine
 10
1629.6497711912
 20
1172.537755102
 30
0.0
 11
1629.6497711912
 21
1175.537755102
 31
0.0
  0
LINE
  5
45C
330
1F
100
AcDbEntity
  8
0
  6
Continuous
 62
     7
370
    25
100
AcDbLine
 10
1660.1997711912
 20
1182.037755102
 30
0.0
 11
1650.1997711912
 21
1182.037755102
 31
0.0
  0
LINE
  5
45D
330
1F
100
AcDbEntity
  8
0
  6
HIDDEN
 62
     7
370
    25
100
AcDbLine
 10
1630.0697711956
 20
1163.487755102
 30
0.0
 11
1630.9697711956
 21
1163.487755102
 31
0.0
  0
LINE
  5
45E
330
1F
100
AcDbEntity
  8
0
  6
HIDDEN
 62
     7
370
    25
100
AcDbLine
 10
1630.9697711956
 20
1163.487755102
 30
0.0
 11
1630.9697711956
 21
1109.087755102
 31
0.0
  0
LINE
  5
45F
330
1F
100
AcDbEntity
  8
0
  6
HIDDEN
 62
     7
370
    25
100
AcDbLine
 10
1630.0697711956
 20
1109.087755102
 30
0.0
 11
1630.9697711956
 21
1109.087755102
 31
0.0
  0
LINE
  5
460
330
1F
100
AcDbEntity
  8
0
  6
HIDDEN
 62
     7
370
    25
100
AcDbLine
 10
1635.0697711956
 20
1109.087755102
 30
0.0
 11
1635.0697711956
 21
1107.587755102
 31
0.0
  0
LINE
  5
461
330
1F
100
AcDbEntity
  8
0
  6
HIDDEN
 62
     7
370
    25
100
AcDbLine
 10
1630.9697711956
 20
1163.487755102
 30
0.0
 11
1676.6497711956
 21
1163.487755102
 31
0.0
  0
LINE
  5
462
330
1F
100
AcDbEntity
  8
0
  6
HIDDEN
 62
     7
370
    25
100
AcDbLine
 10
1676.6497711956
 20
1107.587755102
 30
0.0
 11
1676.6497711956
 21
1163.487755102
 31
0.0
  0
LINE
  5
463
330
1F
100
AcDbEntity
  8
0
  6
HIDDEN
 62
     7
370
    25
100
AcDbLine
 10
1635.0697711956
 20
1107.587755102
 30
0.0
 11
1676.6497711956
 21
1107.587755102
 31
0.0
  0
LINE
  5
464
330
1F
100
AcDbEntity
  8
0
  6
HIDDEN
 62
     7
370
    25
100
AcDbLine
 10
1630.9697711956
 20
1109.087755102
 30
0.0
 11
1635.0697711956
 21
1109.087755102
 31
0.0
  0
LINE
  5
465
330
1F
100
AcDbEntity
  8
0
  6
HIDDEN
 62
     7
370
    25
100
AcDbLine
 10
1678.4497711956
 20
1163.487755102
 30
0.0
 11
1678.4497711956
 21
1107.587755102
 31
0.0
  0
LINE
  5
466
330
1F
100
AcDbEntity
  8
0
  6
HIDDEN
 62
     7
370
    25
100
AcDbLine
 10
1676.6497711956
 20
1163.487755102
 30
0.0
 11
1678.4497711956
 21
1163.487755102
 31
0.0
  0
LINE
  5
467
330
1F
100
AcDbEntity
  8
0
  6
HIDDEN
 62
     7
370
    25
100
AcDbLine
 10
1678.4497711956
 20
1107.587755102
 30
0.0
 11
1676.6497711956
 21
1107.587755102
 31
0.0
  0
LINE
  5
468
330
1F
100
AcDbEntity
  8
0
  6
HIDDEN
 62
     7
370
    25
100
AcDbLine
 10
1642.2497713646
 20
1170.237755102
 30
0.0
 11
1670.2497711912
 21
1170.237755102
 31
0.0
  0
LINE
  5
469
330
1F
100
AcDbEntity
  8
0
  6
Continuous
 62
     7
370
    25
100
AcDbLine
 10
1667.2497174801
 20
1179.537755102
 30
0.0
 11
1667.2497174801
 21
1175.537755102
 31
0.0
  0
LINE
  5
46A
330
1F
100
AcDbEntity
  8
0
  6
Continuous
 62
     7
370
    25
100
AcDbLine
 10
1645.2498249023
 20
1175.537755102
 30
0.0
 11
1667.2497174801
 21
1175.537755102
 31
0.0
  0
LINE
  5
46B
330
1F
100
AcDbEntity
  8
0
  6
Continuous
 62
     7
370
    25
100
AcDbLine
 10
1646.1731541701
 20
1179.537755102
 30
0.0
 11
1667.2497174801
 21
1179.537755102
 31
0.0
  0
LINE
  5
46C
330
1F
100
AcDbEntity
  8
0
  6
Continuous
 62
     7
370
    25
100
AcDbLine
 10
1644.1998249023
 20
1179.4156906864
 30
0.0
 11
1644.1998249023
 21
1175.537755102
 31
0.0
  0
LINE
  5
46D
330
1F
100
AcDbEntity
  8
0
  6
Continuous
 62
     7
370
    25
100
AcDbLine
 10
1644.1998249023
 20
1175.537755102
 30
0.0
 11
1645.2498249023
 21
1175.537755102
 31
0.0
  0
LINE
  5
46E
330
1F
100
AcDbEntity
  8
0
  6
Continuous
 62
     7
370
    25
100
AcDbLine
 10
1644.4797711912
 20
1179.537755102
 30
0.0
 11
1644.6698552594
 21
1179.537755102
 31
0.0
  0
LINE
  5
46F
330
1F
100
AcDbEntity
  8
0
  6
Continuous
 62
     7
370
    25
100
AcDbLine
 10
1645.029687123
 20
1179.537755102
 30
0.0
 11
1645.2197711912
 21
1179.537755102
 31
0.0
  0
LINE
  5
470
330
1F
100
AcDbEntity
  8
0
  6
HIDDEN
 62
     7
370
    25
100
AcDbLine
 10
1670.3997711697
 20
1099.837755102
 30
0.0
 11
1642.0997711912
 21
1099.837755102
 31
0.0
  0
LINE
  5
471
330
1F
100
AcDbEntity
  8
0
  6
HIDDEN
 62
     7
370
    25
100
AcDbLine
 10
1629.8497711957
 20
1166.737755102
 30
0.0
 11
1629.8497711957
 21
1163.737755102
 31
0.0
  0
ARC
  5
472
330
1F
100
AcDbEntity
  8
0
  6
HIDDEN
 62
     7
370
    25
100
AcDbCircle
 10
1637.7497711912
 20
1166.737755102
 30
0.0
 40
1.400000000000091
100
AcDbArc
 50
180.0
 51
0.0
  0
LINE
  5
473
330
1F
100
AcDbEntity
  8
0
  6
HIDDEN
 62
     7
370
    25
100
AcDbLine
 10
1639.1497711912
 20
1166.737755102
 30
0.0
 11
1641.8497711912
 21
1166.737755102
 31
0.0
  0
ARC
  5
474
330
1F
100
AcDbEntity
  8
0
  6
HIDDEN
 62
     7
370
    25
100
AcDbCircle
 10
1643.2497711912
 20
1166.737755102
 30
0.0
 40
1.400000000000091
100
AcDbArc
 50
180.0
 51
0.0
  0
LINE
  5
475
330
1F
100
AcDbEntity
  8
0
  6
HIDDEN
 62
     7
370
    25
100
AcDbLine
 10
1644.6497711912
 20
1166.737755102
 30
0.0
 11
1647.3497711912
 21
1166.737755102
 31
0.0
  0
ARC
  5
476
330
1F
100
AcDbEntity
  8
0
  6
HIDDEN
 62
     7
370
    25
100
AcDbCircle
 10
1648.7497711912
 20
1166.737755102
 30
0.0
 40
1.400000000000091
100
AcDbArc
 50
180.0
 51
0.0
  0
LINE
  5
477
330
1F
100
AcDbEntity
  8
0
  6
HIDDEN
 62
     7
370
    25
100
AcDbLine
 10
1650.1497711912
 20
1166.737755102
 30
0.0
 11
1652.8497711912
 21
1166.737755102
 31
0.0
  0
ARC
  5
478
330
1F
100
AcDbEntity
  8
0
  6
HIDDEN
 62
     7
370
    25
100
AcDbCircle
 10
1654.2497711912
 20
1166.737755102
 30
0.0
 40
1.400000000000091
100
AcDbArc
 50
180.0
 51
0.0
  0
LINE
  5
479
330
1F
100
AcDbEntity
  8
0
  6
HIDDEN
 62
     7
370
    25
100
AcDbLine
 10
1655.6497711912
 20
1166.737755102
 30
0.0
 11
1658.3497711912
 21
1166.737755102
 31
0.0
  0
ARC
  5
47A
330
1F
100
AcDbEntity
  8
0
  6
HIDDEN
 62
     7
370
    25
100
AcDbCircle
 10
1659.7497711912
 20
1166.737755102
 30
0.0
 40
1.400000000000091
100
AcDbArc
 50
180.0
 51
0.0
  0
LINE
  5
47B
330
1F
100
AcDbEntity
  8
0
  6
HIDDEN
 62
     7
370
    25
100
AcDbLine
 10
1661.1497711912
 20
1166.737755102
 30
0.0
 11
1663.8497711912
 21
1166.737755102
 31
0.0
  0
ARC
  5
47C
330
1F
100
AcDbEntity
  8
0
  6
HIDDEN
 62
     7
370
    25
100
AcDbCircle
 10
1665.2497711912
 20
1166.737755102
 30
0.0
 40
1.400000000000091
100
AcDbArc
 50
180.0
 51
0.0
  0
LINE
  5
47D
330
1F
100
AcDbEntity
  8
0
  6
HIDDEN
 62
     7
370
    25
100
AcDbLine
 10
1666.6497711912
 20
1166.737755102
 30
0.0
 11
1669.3497711912
 21
1166.737755102
 31
0.0
  0
ARC
  5
47E
330
1F
100
AcDbEntity
  8
0
  6
HIDDEN
 62
     7
370
    25
100
AcDbCircle
 10
1670.7497711912
 20
1166.737755102
 30
0.0
 40
1.400000000000091
100
AcDbArc
 50
180.0
 51
0.0
  0
LINE
  5
47F
330
1F
100
AcDbEntity
  8
0
  6
HIDDEN
 62
     7
370
    25
100
AcDbLine
 10
1672.1497711912
 20
1166.737755102
 30
0.0
 11
1674.8497711912
 21
1166.737755102
 31
0.0
  0
ARC
  5
480
330
1F
100
AcDbEntity
  8
0
  6
HIDDEN
 62
     7
370
    25
100
AcDbCircle
 10
1676.2497711912
 20
1166.737755102
 30
0.0
 40
1.400000000000275
100
AcDbArc
 50
180.0
 51
304.8499048028
  0
LINE
  5
481
330
1F
100
AcDbEntity
  8
0
  6
HIDDEN
 62
     7
370
    25
100
AcDbLine
 10
1677.0497711957
 20
1163.737755102
 30
0.0
 11
1677.0497711957
 21
1165.5888425759
 31
0.0
  0
LINE
  5
482
330
1F
100
AcDbEntity
  8
0
  6
HIDDEN
 62
     7
370
    25
100
AcDbLine
 10
1677.0497711957
 20
1163.737755102
 30
0.0
 11
1629.8497711957
 21
1163.737755102
 31
0.0
  0
LINE
  5
483
330
1F
100
AcDbEntity
  8
0
  6
HIDDEN
 62
     7
370
    25
100
AcDbLine
 10
1629.8497711957
 20
1166.737755102
 30
0.0
 11
1636.3497711912
 21
1166.737755102
 31
0.0
  0
LINE
  5
484
330
1F
100
AcDbEntity
  8
0
  6
HIDDEN
 62
     7
370
    25
100
AcDbLine
 10
1674.8497711912
 20
1104.337755102
 30
0.0
 11
1672.1497711912
 21
1104.337755102
 31
0.0
  0
ARC
  5
485
330
1F
100
AcDbEntity
  8
0
  6
HIDDEN
 62
     7
370
    25
100
AcDbCircle
 10
1670.7497711912
 20
1104.337755102
 30
0.0
 40
1.400000000000091
100
AcDbArc
 50
0.0
 51
180.0
  0
LINE
  5
486
330
1F
100
AcDbEntity
  8
0
  6
HIDDEN
 62
     7
370
    25
100
AcDbLine
 10
1669.3497711912
 20
1104.337755102
 30
0.0
 11
1666.6497711912
 21
1104.337755102
 31
0.0
  0
ARC
  5
487
330
1F
100
AcDbEntity
  8
0
  6
HIDDEN
 62
     7
370
    25
100
AcDbCircle
 10
1665.2497711912
 20
1104.337755102
 30
0.0
 40
1.400000000000091
100
AcDbArc
 50
0.0
 51
180.0
  0
LINE
  5
488
330
1F
100
AcDbEntity
  8
0
  6
HIDDEN
 62
     7
370
    25
100
AcDbLine
 10
1663.8497711912
 20
1104.337755102
 30
0.0
 11
1661.1497711912
 21
1104.337755102
 31
0.0
  0
ARC
  5
489
330
1F
100
AcDbEntity
  8
0
  6
HIDDEN
 62
     7
370
    25
100
AcDbCircle
 10
1659.7497711912
 20
1104.337755102
 30
0.0
 40
1.400000000000091
100
AcDbArc
 50
0.0
 51
180.0
  0
LINE
  5
48A
330
1F
100
AcDbEntity
  8
0
  6
HIDDEN
 62
     7
370
    25
100
AcDbLine
 10
1658.3497711912
 20
1104.337755102
 30
0.0
 11
1655.6497711912
 21
1104.337755102
 31
0.0
  0
ARC
  5
48B
330
1F
100
AcDbEntity
  8
0
  6
HIDDEN
 62
     7
370
    25
100
AcDbCircle
 10
1654.2497711912
 20
1104.337755102
 30
0.0
 40
1.400000000000318
100
AcDbArc
 50
0.0
 51
180.0
  0
LINE
  5
48C
330
1F
100
AcDbEntity
  8
0
  6
HIDDEN
 62
     7
370
    25
100
AcDbLine
 10
1652.8497711912
 20
1104.337755102
 30
0.0
 11
1650.1497711912
 21
1104.337755102
 31
0.0
  0
ARC
  5
48D
330
1F
100
AcDbEntity
  8
0
  6
HIDDEN
 62
     7
370
    25
100
AcDbCircle
 10
1648.7497711912
 20
1104.337755102
 30
0.0
 40
1.400000000000091
100
AcDbArc
 50
0.0
 51
180.0
  0
LINE
  5
48E
330
1F
100
AcDbEntity
  8
0
  6
HIDDEN
 62
     7
370
    25
100
AcDbLine
 10
1647.3497711912
 20
1104.337755102
 30
0.0
 11
1644.6497711912
 21
1104.337755102
 31
0.0
  0
ARC
  5
48F
330
1F
100
AcDbEntity
  8
0
  6
HIDDEN
 62
     7
370
    25
100
AcDbCircle
 10
1643.2497711912
 20
1104.337755102
 30
0.0
 40
1.400000000000091
100
AcDbArc
 50
0.0
 51
180.0
  0
LINE
  5
490
330
1F
100
AcDbEntity
  8
0
  6
HIDDEN
 62
     7
370
    25
100
AcDbLine
 10
1641.8497711912
 20
1104.337755102
 30
0.0
 11
1639.1497711912
 21
1104.337755102
 31
0.0
  0
ARC
  5
491
330
1F
100
AcDbEntity
  8
0
  6
HIDDEN
 62
     7
370
    25
100
AcDbCircle
 10
1637.7497711912
 20
1104.337755102
 30
0.0
 40
1.400000000000091
100
AcDbArc
 50
0.0
 51
180.0
  0
LINE
  5
492
330
1F
100
AcDbEntity
  8
0
  6
HIDDEN
 62
     7
370
    25
100
AcDbLine
 10
1636.3497711912
 20
1104.337755102
 30
0.0
 11
1629.8497711912
 21
1104.337755102
 31
0.0
  0
LINE
  5
493
330
1F
100
AcDbEntity
  8
0
  6
HIDDEN
 62
     7
370
    25
100
AcDbLine
 10
1629.8497711912
 20
1107.337755102
 30
0.0
 11
1629.8497711912
 21
1104.337755102
 31
0.0
  0
LINE
  5
494
330
1F
100
AcDbEntity
  8
0
  6
HIDDEN
 62
     7
370
    25
100
AcDbLine
 10
1677.0497711912
 20
1105.4866676313
 30
0.0
 11
1677.0497711912
 21
1107.337755102
 31
0.0
  0
ARC
  5
495
330
1F
100
AcDbEntity
  8
0
  6
HIDDEN
 62
     7
370
    25
100
AcDbCircle
 10
1676.2497711912
 20
1104.337755102
 30
0.0
 40
1.399999999999976
100
AcDbArc
 50
55.150095421
 51
180.0
  0
LINE
  5
496
330
1F
100
AcDbEntity
  8
0
  6
HIDDEN
 62
     7
370
    25
100
AcDbLine
 10
1629.8497711912
 20
1107.337755102
 30
0.0
 11
1677.0497711912
 21
1107.337755102
 31
0.0
  0
LINE
  5
497
330
1F
100
AcDbEntity
  8
0
  6
HIDDEN
 62
     7
370
    25
100
AcDbLine
 10
1677.6497711912
 20
1166.737755102
 30
0.0
 11
1679.0497711957
 21
1166.737755102
 31
0.0
  0
LINE
  5
498
330
1F
100
AcDbEntity
  8
0
  6
HIDDEN
 62
     7
370
    25
100
AcDbLine
 10
1679.0497711957
 20
1166.737755102
 30
0.0
 11
1679.0497711957
 21
1163.737755102
 31
0.0
  0
SPLINE
  5
499
330
1F
100
AcDbEntity
  8
0
  6
HIDDEN
 62
     7
370
    25
100
AcDbSpline
210
0.0
220
0.0
230
1.0
 70
     8
 71
     3
 72
    10
 73
     6
 74
     0
 42
0.00000001
 43
0.00000001
 40
0.0
 40
0.0
 40
0.0
 40
0.0
 40
0.3434322050965701
 40
0.6861644016760157
 40
1.0
 40
1.0
 40
1.0
 40
1.0
 10
1677.04977119568
 20
1165.588842575856
 30
0.0
 10
1677.167508843193
 20
1165.689467640756
 30
0.0
 10
1677.402744156776
 20
1165.890512669223
 30
0.0
 10
1677.609991330716
 20
1166.302266249534
 30
0.0
 10
1677.636906091585
 20
1166.596914802487
 30
0.0
 10
1677.649771191194
 20
1166.73775510204
 30
0.0
  0
LINE
  5
49A
330
1F
100
AcDbEntity
  8
0
  6
HIDDEN
 62
     7
370
    25
100
AcDbLine
 10
1679.0497711957
 20
1163.737755102
 30
0.0
 11
1677.0497711957
 21
1163.737755102
 31
0.0
  0
LINE
  5
49B
330
1F
100
AcDbEntity
  8
0
  6
HIDDEN
 62
     7
370
    25
100
AcDbLine
 10
1679.0497711912
 20
1107.337755102
 30
0.0
 11
1679.0497711912
 21
1104.337755102
 31
0.0
  0
LINE
  5
49C
330
1F
100
AcDbEntity
  8
0
  6
HIDDEN
 62
     7
370
    25
100
AcDbLine
 10
1679.0497711912
 20
1104.337755102
 30
0.0
 11
1677.6497711912
 21
1104.337755102
 31
0.0
  0
SPLINE
  5
49D
330
1F
100
AcDbEntity
  8
0
  6
HIDDEN
 62
     7
370
    25
100
AcDbSpline
210
0.0
220
0.0
230
1.0
 70
     8
 71
     3
 72
    10
 73
     6
 74
     0
 42
0.00000001
 43
0.00000001
 40
0.0
 40
0.0
 40
0.0
 40
0.0
 40
0.3436774998516928
 40
0.6868902570680331
 40
1.0
 40
1.0
 40
1.0
 40
1.0
 10
1677.649771191194
 20
1104.33775510204
 30
0.0
 10
1677.634421137343
 20
1104.492103789599
 30
0.0
 10
1677.603741786963
 20
1104.800592444576
 30
0.0
 10
1677.383933568964
 20
1105.205728960473
 30
0.0
 10
1677.157699823595
 20
1105.395929329992
 30
0.0
 10
1677.049771191193
 20
1105.486667631348
 30
0.0
  0
LINE
  5
49E
330
1F
100
AcDbEntity
  8
0
  6
HIDDEN
 62
     7
370
    25
100
AcDbLine
 10
1677.0497711912
 20
1107.337755102
 30
0.0
 11
1679.0497711912
 21
1107.337755102
 31
0.0
  0
LINE
  5
49F
330
1F
100
AcDbEntity
  8
0
  6
HIDDEN
 62
     7
370
    25
100
AcDbLine
 10
1676.6497711957
 20
1107.337755102
 30
0.0
 11
1676.6497711957
 21
1107.587755102
 31
0.0
  0
ARC
  5
4A0
330
1F
100
AcDbEntity
  8
0
  6
HIDDEN
 62
     7
370
    25
100
AcDbCircle
 10
1633.6497711912
 20
1108.337755102
 30
0.0
 40
1.0
100
AcDbArc
 50
270.0
 51
0.0
  0
LINE
  5
4A1
330
1F
100
AcDbEntity
  8
0
  6
HIDDEN
 62
     7
370
    25
100
AcDbLine
 10
1634.6497711912
 20
1109.087755102
 30
0.0
 11
1634.6497711912
 21
1108.337755102
 31
0.0
  0
ARC
  5
4A2
330
1F
100
AcDbEntity
  8
0
  6
HIDDEN
 62
     7
370
    25
100
AcDbCircle
 10
1633.6497711957
 20
1162.737755102
 30
0.0
 40
1.000000000000227
100
AcDbArc
 50
48.5903778908
 51
90.0
  0
LINE
  5
4A3
330
1F
100
AcDbEntity
  8
0
  6
HIDDEN
 62
     7
370
    25
100
AcDbLine
 10
1676.6497711957
 20
1163.487755102
 30
0.0
 11
1676.6497711957
 21
1163.737755102
 31
0.0
  0
LINE
  5
4A4
330
1F
100
AcDbEntity
  8
0
  6
HIDDEN
 62
     7
370
    25
100
AcDbLine
 10
1677.6497711957
 20
1163.737755102
 30
0.0
 11
1677.6497711957
 21
1163.487755102
 31
0.0
  0
LINE
  5
4A5
330
1F
100
AcDbEntity
  8
0
  6
HIDDEN
 62
     7
370
    25
100
AcDbLine
 10
1677.6497711957
 20
1107.587755102
 30
0.0
 11
1677.6497711957
 21
1107.337755102
 31
0.0
  0
LINE
  5
4A6
330
1F
100
AcDbEntity
  8
0
  6
Continuous
 62
     7
370
    25
100
AcDbLine
 10
1634.1497711912
 20
1107.737755102
 30
0.0
 11
1634.6441809121
 21
1108.2321648229
 31
0.0
  0
LINE
  5
4A7
330
1F
100
AcDbEntity
  8
0
  6
Continuous
 62
     7
370
    25
100
AcDbLine
 10
1629.6497711912
 20
1107.737755102
 30
0.0
 11
1634.1497711912
 21
1107.737755102
 31
0.0
  0
LINE
  5
4A8
330
1F
100
AcDbEntity
  8
0
  6
Continuous
 62
     7
370
    25
100
AcDbLine
 10
1629.6497711912
 20
1163.337755102
 30
0.0
 11
1629.6497711912
 21
1107.737755102
 31
0.0
  0
LINE
  5
4A9
330
1F
100
AcDbEntity
  8
0
  6
Continuous
 62
     7
370
    25
100
AcDbLine
 10
1630.0697711956
 20
1163.337755102
 30
0.0
 11
1629.6497711912
 21
1163.337755102
 31
0.0
  0
LINE
  5
4AA
330
1F
100
AcDbEntity
  8
0
  6
Continuous
 62
     7
370
    25
100
AcDbLine
 10
1662.3997711912
 20
1182.087755102
 30
0.0
 11
1647.9997711912
 21
1182.087755102
 31
0.0
  0
LINE
  5
4AB
330
1F
100
AcDbEntity
  8
0
  6
Continuous
 62
     7
370
    25
100
AcDbLine
 10
1639.6497711912
 20
1208.987755102
 30
0.0
 11
1639.6497711912
 21
1207.987755102
 31
0.0
  0
LINE
  5
4AC
330
1F
100
AcDbEntity
  8
0
  6
Continuous
 62
     7
370
    25
100
AcDbLine
 10
1639.6497711912
 20
1190.487755102
 30
0.0
 11
1639.6497711912
 21
1189.487755102
 31
0.0
  0
LINE
  5
4AD
330
1F
100
AcDbEntity
  8
0
  6
Continuous
 62
     7
370
    25
100
AcDbLine
 10
1634.6497711912
 20
1208.987755102
 30
0.0
 11
1634.6497711912
 21
1207.987755102
 31
0.0
  0
LINE
  5
4AE
330
1F
100
AcDbEntity
  8
0
  6
Continuous
 62
     7
370
    25
100
AcDbLine
 10
1634.6497711912
 20
1190.487755102
 30
0.0
 11
1634.6497711912
 21
1189.487755102
 31
0.0
  0
LINE
  5
4AF
330
1F
100
AcDbEntity
  8
0
  6
Continuous
 62
     7
370
    25
100
AcDbLine
 10
1650.5727802404
 20
1201.887755102
 30
0.0
 11
1650.6497711912
 21
1201.887755102
 31
0.0
  0
LINE
  5
4B0
330
1F
100
AcDbEntity
  8
0
  6
Continuous
 62
     7
370
    25
100
AcDbLine
 10
1642.6497711912
 20
1189.487755102
 30
0.0
 11
1642.6497711912
 21
1190.487755102
 31
0.0
  0
LINE
  5
4B1
330
1F
100
AcDbEntity
  8
0
  6
Continuous
 62
     7
370
    25
100
AcDbLine
 10
1647.5497711912
 20
1183.387755102
 30
0.0
 11
1647.5497711912
 21
1183.437755102
 31
0.0
  0
LINE
  5
4B2
330
1F
100
AcDbEntity
  8
0
  6
Continuous
 62
     7
370
    25
100
AcDbLine
 10
1641.6497711912
 20
1183.387755102
 30
0.0
 11
1647.5497711912
 21
1183.387755102
 31
0.0
  0
LWPOLYLINE
  5
4B3
330
1F
100
AcDbEntity
  8
0
  6
Continuous
 62
     7
370
    25
100
AcDbPolyline
 90
        3
 70
   128
 43
0.0
 10
1668.9497711912
 20
1183.387755102
 10
1669.3399518352
 20
1183.4261845412
 10
1669.3941809121
 20
1183.437755102
  0
LINE
  5
4B4
330
1F
100
AcDbEntity
  8
0
  6
Continuous
 62
     7
370
    25
100
AcDbLine
 10
1663.0497711912
 20
1183.387755102
 30
0.0
 11
1668.9497711912
 21
1183.387755102
 31
0.0
  0
LINE
  5
4B5
330
1F
100
AcDbEntity
  8
0
  6
Continuous
 62
     7
370
    25
100
AcDbLine
 10
1663.0497711912
 20
1183.437755102
 30
0.0
 11
1663.0497711912
 21
1183.387755102
 31
0.0
  0
LWPOLYLINE
  5
4B6
330
1F
100
AcDbEntity
  8
0
  6
Continuous
 62
     7
370
    25
100
AcDbPolyline
 90
        3
 70
   128
 43
0.0
 10
1641.2053614703
 20
1183.437755102
 10
1641.2595905472
 20
1183.4261845412
 10
1641.6497711912
 20
1183.387755102
  0
LINE
  5
4B7
330
1F
100
AcDbEntity
  8
0
  6
Continuous
 62
     7
370
    25
100
AcDbLine
 10
1642.8800644899
 20
1189.487755102
 30
0.0
 11
1642.8673227837
 21
1190.2177269608
 31
0.0
  0
LINE
  5
4B8
330
1F
100
AcDbEntity
  8
0
  6
Continuous
 62
     7
370
    25
100
AcDbLine
 10
1634.6497711912
 20
1215.937755102
 30
0.0
 11
1634.6497711912
 21
1215.137755102
 31
0.0
  0
LINE
  5
4B9
330
1F
100
AcDbEntity
  8
0
  6
Continuous
 62
     7
370
    25
100
AcDbLine
 10
1680.8497711912
 20
1215.937755102
 30
0.0
 11
1680.8497711912
 21
1215.137755102
 31
0.0
  0
LINE
  5
4BA
330
1F
100
AcDbEntity
  8
0
  6
Continuous
 62
     7
370
    25
100
AcDbLine
 10
1680.8497711912
 20
1215.137755102
 30
0.0
 11
1634.6497711912
 21
1215.137755102
 31
0.0
  0
LINE
  5
4BB
330
1F
100
AcDbEntity
  8
0
  6
Continuous
 62
     7
370
    25
100
AcDbLine
 10
1680.8497711912
 20
1215.937755102
 30
0.0
 11
1634.6497711912
 21
1215.937755102
 31
0.0
  0
LINE
  5
4BC
330
1F
100
AcDbEntity
  8
0
  6
Continuous
 62
     7
370
    25
100
AcDbLine
 10
1680.8497711912
 20
1215.037755102
 30
0.0
 11
1634.6497711912
 21
1215.037755102
 31
0.0
  0
LINE
  5
4BD
330
1F
100
AcDbEntity
  8
0
  6
Continuous
 62
     7
370
    25
100
AcDbLine
 10
1680.8497711912
 20
1215.037755102
 30
0.0
 11
1680.8497711912
 21
1183.437755102
 31
0.0
  0
LINE
  5
4BE
330
1F
100
AcDbEntity
  8
0
  6
Continuous
 62
     7
370
    25
100
AcDbLine
 10
1634.6497711912
 20
1189.487755102
 30
0.0
 11
1634.6497711912
 21
1183.437755102
 31
0.0
  0
LINE
  5
4BF
330
1F
100
AcDbEntity
  8
0
  6
Continuous
 62
     7
370
    25
100
AcDbLine
 10
1634.6497711912
 20
1189.487755102
 30
0.0
 11
1640.3497711912
 21
1189.487755102
 31
0.0
  0
LINE
  5
4C0
330
1F
100
AcDbEntity
  8
0
  6
Continuous
 62
     7
370
    25
100
AcDbLine
 10
1640.3497711912
 20
1189.487755102
 30
0.0
 11
1640.1734442105
 21
1190.487755102
 31
0.0
  0
LINE
  5
4C1
330
1F
100
AcDbEntity
  8
0
  6
Continuous
 62
     7
370
    25
100
AcDbLine
 10
1640.1734442105
 20
1190.487755102
 30
0.0
 11
1634.6497711912
 21
1190.487755102
 31
0.0
  0
LINE
  5
4C2
330
1F
100
AcDbEntity
  8
0
  6
Continuous
 62
     7
370
    25
100
AcDbLine
 10
1634.6497711912
 20
1207.987755102
 30
0.0
 11
1634.6497711912
 21
1190.487755102
 31
0.0
  0
LINE
  5
4C3
330
1F
100
AcDbEntity
  8
0
  6
Continuous
 62
     7
370
    25
100
AcDbLine
 10
1634.6497711912
 20
1207.987755102
 30
0.0
 11
1640.1734442105
 21
1207.987755102
 31
0.0
  0
LINE
  5
4C4
330
1F
100
AcDbEntity
  8
0
  6
Continuous
 62
     7
370
    25
100
AcDbLine
 10
1640.1734442105
 20
1207.987755102
 30
0.0
 11
1640.3497711912
 21
1208.987755102
 31
0.0
  0
LINE
  5
4C5
330
1F
100
AcDbEntity
  8
0
  6
Continuous
 62
     7
370
    25
100
AcDbLine
 10
1640.3497711912
 20
1208.987755102
 30
0.0
 11
1634.6497711912
 21
1208.987755102
 31
0.0
  0
LINE
  5
4C6
330
1F
100
AcDbEntity
  8
0
  6
Continuous
 62
     7
370
    25
100
AcDbLine
 10
1634.6497711912
 20
1215.037755102
 30
0.0
 11
1634.6497711912
 21
1208.987755102
 31
0.0
  0
LINE
  5
4C7
330
1F
100
AcDbEntity
  8
0
  6
Continuous
 62
     7
370
    25
100
AcDbLine
 10
1640.9497711912
 20
1208.987755102
 30
0.0
 11
1641.1260981719
 21
1207.987755102
 31
0.0
  0
LINE
  5
4C8
330
1F
100
AcDbEntity
  8
0
  6
Continuous
 62
     7
370
    25
100
AcDbLine
 10
1641.1260981719
 20
1207.987755102
 30
0.0
 11
1642.6497711912
 21
1207.987755102
 31
0.0
  0
LINE
  5
4C9
330
1F
100
AcDbEntity
  8
0
  6
Continuous
 62
     7
370
    25
100
AcDbLine
 10
1649.6497711912
 20
1200.987755102
 30
0.0
 11
1649.6497711912
 21
1197.487755102
 31
0.0
  0
LINE
  5
4CA
330
1F
100
AcDbEntity
  8
0
  6
Continuous
 62
     7
370
    25
100
AcDbLine
 10
1642.6497711912
 20
1190.487755102
 30
0.0
 11
1641.1260981719
 21
1190.487755102
 31
0.0
  0
LINE
  5
4CB
330
1F
100
AcDbEntity
  8
0
  6
Continuous
 62
     7
370
    25
100
AcDbLine
 10
1641.1260981719
 20
1190.487755102
 30
0.0
 11
1640.9497711912
 21
1189.487755102
 31
0.0
  0
LINE
  5
4CC
330
1F
100
AcDbEntity
  8
0
  6
Continuous
 62
     7
370
    25
100
AcDbLine
 10
1640.9497711912
 20
1189.487755102
 30
0.0
 11
1643.6497711912
 21
1189.487755102
 31
0.0
  0
LINE
  5
4CD
330
1F
100
AcDbEntity
  8
0
  6
Continuous
 62
     7
370
    25
100
AcDbLine
 10
1650.6497711912
 20
1196.487755102
 30
0.0
 11
1650.6497711912
 21
1201.987755102
 31
0.0
  0
LINE
  5
4CE
330
1F
100
AcDbEntity
  8
0
  6
Continuous
 62
     7
370
    25
100
AcDbLine
 10
1643.6497711912
 20
1208.987755102
 30
0.0
 11
1640.9497711912
 21
1208.987755102
 31
0.0
  0
LINE
  5
4CF
330
1F
100
AcDbEntity
  8
0
  6
Continuous
 62
     7
370
    25
100
AcDbLine
 10
1680.8497711912
 20
1183.437755102
 30
0.0
 11
1634.6497711912
 21
1183.437755102
 31
0.0
  0
SPLINE
  5
4D0
330
1F
100
AcDbEntity
  8
0
  6
Continuous
 62
     7
370
    25
100
AcDbSpline
210
0.0
220
0.0
230
1.0
 70
     8
 71
     3
 72
    10
 73
     6
 74
     0
 42
0.00000001
 43
0.00000001
 40
0.0
 40
0.0
 40
0.0
 40
0.0
 40
0.0771276747866066
 40
0.5385638373933672
 40
1.0
 40
1.0
 40
1.0
 40
1.0
 10
1681.593110889569
 20
1214.790635490568
 30
0.0
 10
1681.581449160523
 20
1214.809034831906
 30
0.0
 10
1681.500018136404
 20
1214.937512967727
 30
0.0
 10
1681.235854523819
 20
1215.088103211614
 30
0.0
 10
1680.978465635403
 20
1215.121204471899
 30
0.0
 10
1680.849771191195
 20
1215.137755102041
 30
0.0
  0
SPLINE
  5
4D1
330
1F
100
AcDbEntity
  8
0
  6
Continuous
 62
     7
370
    25
100
AcDbSpline
210
0.0
220
0.0
230
1.0
 70
     8
 71
     3
 72
    11
 73
     7
 74
     0
 42
0.00000001
 43
0.00000001
 40
0.0
 40
0.0
 40
0.0
 40
0.0
 40
0.2499999999999826
 40
0.4999999999999972
 40
0.7500000000000178
 40
1.0
 40
1.0
 40
1.0
 40
1.0
 10
1682.649771191196
 20
1214.137755102041
 30
0.0
 10
1682.622714360178
 20
1214.373621780892
 30
0.0
 10
1682.568600698144
 20
1214.845355138595
 30
0.0
 10
1682.152352114524
 20
1215.440336025369
 30
0.0
 10
1681.557371227749
 20
1215.85658460899
 30
0.0
 10
1681.085637870047
 20
1215.910698271024
 30
0.0
 10
1680.849771191195
 20
1215.937755102041
 30
0.0
  0
SPLINE
  5
4D2
330
1F
100
AcDbEntity
  8
0
  6
Continuous
 62
     7
370
    25
100
AcDbSpline
210
0.0
220
0.0
230
1.0
 70
     8
 71
     3
 72
    12
 73
     8
 74
     0
 42
0.00000001
 43
0.00000001
 40
0.0
 40
0.0
 40
0.0
 40
0.0
 40
0.2253337478803797
 40
0.4507151390691128
 40
0.6760967232121969
 40
0.901478093511571
 40
1.0
 40
1.0
 40
1.0
 40
1.0
 10
1682.649771191196
 20
1184.337755102041
 30
0.0
 10
1682.627833062962
 20
1184.270131439108
 30
0.0
 10
1682.583952168021
 20
1184.134869815274
 30
0.0
 10
1682.242952303338
 20
1183.931938093215
 30
0.0
 10
1681.745459848042
 20
1183.729119365895
 30
0.0
 10
1681.246214928947
 20
1183.563963786547
 30
0.0
 10
1680.942233464765
 20
1183.467190658218
 30
0.0
 10
1680.849771191195
 20
1183.437755102041
 30
0.0
  0
SPLINE
  5
4D3
330
1F
100
AcDbEntity
  8
0
  6
Continuous
 62
     7
370
    25
100
AcDbSpline
210
0.0
220
0.0
230
1.0
 70
     8
 71
     3
 72
    12
 73
     8
 74
     0
 42
0.00000001
 43
0.00000001
 40
0.0
 40
0.0
 40
0.0
 40
0.0
 40
0.225334301687443
 40
0.450715694699535
 40
0.676097280297002
 40
0.9014786520556319
 40
1.0
 40
1.0
 40
1.0
 40
1.0
 10
1680.849771191195
 20
1215.037755102041
 30
0.0
 10
1681.062167978533
 20
1214.970131271331
 30
0.0
 10
1681.487005940795
 20
1214.834869477594
 30
0.0
 10
1682.045861057592
 20
1214.631937591147
 30
0.0
 10
1682.45368084986
 20
1214.429118863746
 30
0.0
 10
1682.631196779782
 20
1214.26396345126
 30
0.0
 10
1682.645439108367
 20
1214.167190490882
 30
0.0
 10
1682.649771191196
 20
1214.137755102041
 30
0.0
  0
LINE
  5
4D4
330
1F
100
AcDbEntity
  8
0
  6
Continuous
 62
     7
370
    25
100
AcDbLine
 10
1682.6497711912
 20
1214.137755102
 30
0.0
 11
1682.6497711912
 21
1184.337755102
 31
0.0
  0
LINE
  5
4D5
330
1F
100
AcDbEntity
  8
0
  6
Continuous
 62
     7
370
    25
100
AcDbLine
 10
1680.8497711912
 20
1182.537755102
 30
0.0
 11
1680.8497711912
 21
1183.337755102
 31
0.0
  0
LINE
  5
4D6
330
1F
100
AcDbEntity
  8
0
  6
Continuous
 62
     7
370
    25
100
AcDbLine
 10
1634.6497711912
 20
1182.537755102
 30
0.0
 11
1634.6497711912
 21
1183.337755102
 31
0.0
  0
LINE
  5
4D7
330
1F
100
AcDbEntity
  8
0
  6
Continuous
 62
     7
370
    25
100
AcDbLine
 10
1680.8497711912
 20
1182.537755102
 30
0.0
 11
1634.6497711912
 21
1182.537755102
 31
0.0
  0
LINE
  5
4D8
330
1F
100
AcDbEntity
  8
0
  6
Continuous
 62
     7
370
    25
100
AcDbLine
 10
1680.8497711912
 20
1183.337755102
 30
0.0
 11
1634.6497711912
 21
1183.337755102
 31
0.0
  0
SPLINE
  5
4D9
330
1F
100
AcDbEntity
  8
0
  6
Continuous
 62
     7
370
    25
100
AcDbSpline
210
0.0
220
0.0
230
1.0
 70
     8
 71
     3
 72
    11
 73
     7
 74
     0
 42
0.00000001
 43
0.00000001
 40
0.0
 40
0.0
 40
0.0
 40
0.0
 40
0.2500000000000015
 40
0.5000000000000036
 40
0.7500000000000007
 40
1.0
 40
1.0
 40
1.0
 40
1.0
 10
1680.849771191195
 20
1182.537755102041
 30
0.0
 10
1681.085637870047
 20
1182.564811933058
 30
0.0
 10
1681.557371227749
 20
1182.618925595093
 30
0.0
 10
1682.152352114524
 20
1183.035174178713
 30
0.0
 10
1682.568600698144
 20
1183.630155065487
 30
0.0
 10
1682.622714360178
 20
1184.10188842319
 30
0.0
 10
1682.649771191196
 20
1184.337755102041
 30
0.0
  0
SPLINE
  5
4DA
330
1F
100
AcDbEntity
  8
0
  6
Continuous
 62
     7
370
    25
100
AcDbSpline
210
0.0
220
0.0
230
1.0
 70
     8
 71
     3
 72
    10
 73
     6
 74
     0
 42
0.00000001
 43
0.00000001
 40
0.0
 40
0.0
 40
0.0
 40
0.0
 40
0.4621036406115822
 40
0.9242072812231553
 40
1.0
 40
1.0
 40
1.0
 40
1.0
 10
1680.849771191195
 20
1183.337755102041
 30
0.0
 10
1680.978454422823
 20
1183.354314463636
 30
0.0
 10
1681.235820886077
 20
1183.387433186824
 30
0.0
 10
1681.499724252935
 20
1183.537711438071
 30
0.0
 10
1681.580982558947
 20
1183.665809421811
 30
0.0
 10
1681.592432325855
 20
1183.683859171151
 30
0.0
  0
LINE
  5
4DB
330
1F
100
AcDbEntity
  8
0
  6
Continuous
 62
     7
370
    25
100
AcDbLine
 10
1644.2670562144
 20
1182.0647809271
 30
0.0
 11
1644.315005383
 21
1182.1488404706
 31
0.0
  0
SPLINE
  5
4DC
330
1F
100
AcDbEntity
  8
0
  6
Continuous
 62
     7
370
    25
100
AcDbSpline
210
0.0
220
0.0
230
1.0
 70
     8
 71
     3
 72
    12
 73
     8
 74
     0
 42
0.00000001
 43
0.00000001
 40
0.0
 40
0.0
 40
0.0
 40
0.0
 40
0.1591001189662758
 40
0.320204139901327
 40
0.6168538849306435
 40
0.9140545764661384
 40
1.0
 40
1.0
 40
1.0
 40
1.0
 10
1644.267056214399
 20
1182.064780927142
 30
0.0
 10
1644.205577721058
 20
1182.059001586686
 30
0.0
 10
1644.081846398852
 20
1182.047370113675
 30
0.0
 10
1643.864358543585
 20
1182.151126910681
 30
0.0
 10
1643.660200213423
 20
1182.340386736332
 30
0.0
 10
1643.463215542754
 20
1182.522821819231
 30
0.0
 10
1643.334020513676
 20
1182.535019074613
 30
0.0
 10
1643.305040129807
 20
1182.537755102041
 30
0.0
  0
LINE
  5
4DD
330
1F
100
AcDbEntity
  8
0
  6
Continuous
 62
     7
370
    25
100
AcDbLine
 10
1643.9694673248
 20
1182.3013893411
 30
0.0
 11
1644.2091037726
 21
1182.3013893411
 31
0.0
  0
LINE
  5
4DE
330
1F
100
AcDbEntity
  8
0
  6
Continuous
 62
     7
370
    25
100
AcDbLine
 10
1644.3149833926
 20
1182.1488384219
 30
0.0
 11
1644.3150083578
 21
1182.1488821462
 31
0.0
  0
SPLINE
  5
4DF
330
1F
100
AcDbEntity
  8
0
  6
Continuous
 62
     7
370
    25
100
AcDbSpline
210
0.0
220
0.0
230
1.0
 70
     8
 71
     3
 72
    13
 73
     9
 74
     0
 42
0.00000001
 43
0.00000001
 40
0.0
 40
0.0
 40
0.0
 40
0.0
 40
0.1421166978323456
 40
0.2860202338336956
 40
0.5510761480916263
 40
0.8166554578072645
 40
0.9604895185157158
 40
1.0
 40
1.0
 40
1.0
 40
1.0
 10
1643.185140174934
 20
1182.23289824845
 30
0.0
 10
1643.238196284999
 20
1182.238624808219
 30
0.0
 10
1643.344975581441
 20
1182.250149927991
 30
0.0
 10
1643.545971113381
 20
1182.146670866498
 30
0.0
 10
1643.746262909348
 20
1181.953121126511
 30
0.0
 10
1643.975710704965
 20
1181.763538496955
 30
0.0
 10
1644.172285689375
 20
1181.747917641831
 30
0.0
 10
1644.250368387267
 20
1181.757398218422
 30
0.0
 10
1644.2671950948
 20
1181.759441268852
 30
0.0
  0
LINE
  5
4E0
330
1F
100
AcDbEntity
  8
0
  6
Continuous
 62
     7
370
    25
100
AcDbLine
 10
1643.1852570932
 20
1182.537755102
 30
0.0
 11
1643.1851401749
 21
1182.2328982485
 31
0.0
  0
LINE
  5
4E1
330
1F
100
AcDbEntity
  8
0
  6
Continuous
 62
     7
370
    25
100
AcDbLine
 10
1644.2671950948
 20
1181.7594412689
 30
0.0
 11
1644.2670562144
 21
1182.0647809271
 31
0.0
  0
LINE
  5
4E2
330
1F
100
AcDbEntity
  8
0
  6
Continuous
 62
     7
370
    25
100
AcDbLine
 10
1644.2670218957
 20
1182.2328982485
 30
0.0
 11
1644.3149832566
 21
1182.1488385299
 31
0.0
  0
SPLINE
  5
4E3
330
1F
100
AcDbEntity
  8
0
  6
Continuous
 62
     7
370
    25
100
AcDbSpline
210
0.0
220
0.0
230
1.0
 70
     8
 71
     3
 72
    13
 73
     9
 74
     0
 42
0.00000001
 43
0.00000001
 40
0.0
 40
0.0
 40
0.0
 40
0.0
 40
0.1421166978324387
 40
0.2860202338338307
 40
0.5510761480913209
 40
0.8166554578064104
 40
0.9604895185146743
 40
1.0
 40
1.0
 40
1.0
 40
1.0
 10
1644.267021895688
 20
1182.23289824845
 30
0.0
 10
1644.329044749475
 20
1182.238624808219
 30
0.0
 10
1644.45387027254
 20
1182.250149927991
 30
0.0
 10
1644.680451813394
 20
1182.146670866498
 30
0.0
 10
1644.899364528444
 20
1181.953121126512
 30
0.0
 10
1645.142093391961
 20
1181.763538496956
 30
0.0
 10
1645.342727956868
 20
1181.747917641831
 30
0.0
 10
1645.420940387654
 20
1181.757398218422
 30
0.0
 10
1645.437795052438
 20
1181.759441268852
 30
0.0
  0
LINE
  5
4E4
330
1F
100
AcDbEntity
  8
0
  6
Continuous
 62
     7
370
    25
100
AcDbLine
 10
1644.4020221715
 20
1181.9962893411
 30
0.0
 11
1644.8517840756
 21
1181.9962893411
 31
0.0
  0
SPLINE
  5
4E5
330
1F
100
AcDbEntity
  8
0
  6
Continuous
 62
     7
370
    25
100
AcDbSpline
210
0.0
220
0.0
230
1.0
 70
     8
 71
     3
 72
    10
 73
     6
 74
     0
 42
0.00000001
 43
0.00000001
 40
0.0
 40
0.0
 40
0.0
 40
0.0
 40
0.3223023543379612
 40
0.6611511742649953
 40
1.0
 40
1.0
 40
1.0
 40
1.0
 10
1644.315005517627
 20
1182.148840573363
 30
0.0
 10
1644.324361858348
 20
1182.13245199577
 30
0.0
 10
1644.343554878725
 20
1182.09883347833
 30
0.0
 10
1644.372560952975
 20
1182.047982685037
 30
0.0
 10
1644.392201765254
 20
1182.013520455849
 30
0.0
 10
1644.402022171477
 20
1181.996289341107
 30
0.0
  0
SPLINE
  5
4E6
330
1F
100
AcDbEntity
  8
0
  6
Continuous
 62
     7
370
    25
100
AcDbSpline
210
0.0
220
0.0
230
1.0
 70
     8
 71
     3
 72
    13
 73
     9
 74
     0
 42
0.00000001
 43
0.00000001
 40
0.0
 40
0.0
 40
0.0
 40
0.0
 40
0.1421166978323347
 40
0.2860202338336913
 40
0.5510761480911862
 40
0.8166554578063973
 40
0.9604895185145715
 40
1.0
 40
1.0
 40
1.0
 40
1.0
 10
1645.43762191507
 20
1182.23289824845
 30
0.0
 10
1645.499169095329
 20
1182.238624808219
 30
0.0
 10
1645.623037290677
 20
1182.250149927991
 30
0.0
 10
1645.840709854816
 20
1182.146670866498
 30
0.0
 10
1646.044916012531
 20
1181.953121126512
 30
0.0
 10
1646.263972674821
 20
1181.763538496956
 30
0.0
 10
1646.438122026474
 20
1181.747917641831
 30
0.0
 10
1646.504557056565
 20
1181.757398218422
 30
0.0
 10
1646.518873708673
 20
1181.759441268852
 30
0.0
  0
LINE
  5
4E7
330
1F
100
AcDbEntity
  8
0
  6
Continuous
 62
     7
370
    25
100
AcDbLine
 10
1645.4377597231
 20
1182.537755102
 30
0.0
 11
1645.4376219151
 21
1182.2328982485
 31
0.0
  0
SPLINE
  5
4E8
330
1F
100
AcDbEntity
  8
0
  6
Continuous
 62
     7
370
    25
100
AcDbSpline
210
0.0
220
0.0
230
1.0
 70
     8
 71
     3
 72
    12
 73
     8
 74
     0
 42
0.00000001
 43
0.00000001
 40
0.0
 40
0.0
 40
0.0
 40
0.0
 40
0.1591001189662001
 40
0.3202041399012905
 40
0.616853884930442
 40
0.9140545764659052
 40
1.0
 40
1.0
 40
1.0
 40
1.0
 10
1646.518756063632
 20
1182.064780927142
 30
0.0
 10
1646.465835687056
 20
1182.059001586686
 30
0.0
 10
1646.359328389797
 20
1182.047370113675
 30
0.0
 10
1646.158905602957
 20
1182.151126910681
 30
0.0
 10
1645.958395855996
 20
1182.340386736332
 30
0.0
 10
1645.754277413499
 20
1182.522821819231
 30
0.0
 10
1645.608082481153
 20
1182.535019074613
 30
0.0
 10
1645.575288763861
 20
1182.537755102041
 30
0.0
  0
LINE
  5
4E9
330
1F
100
AcDbEntity
  8
0
  6
Continuous
 62
     7
370
    25
100
AcDbLine
 10
1646.5188737087
 20
1181.7594412689
 30
0.0
 11
1646.5187560636
 21
1182.0647809271
 31
0.0
  0
LINE
  5
4EA
330
1F
100
AcDbEntity
  8
0
  6
Continuous
 62
     7
370
    25
100
AcDbLine
 10
1643.3221331352
 20
1182.1488384768
 30
0.0
 11
1643.1851401749
 21
1182.2328982485
 31
0.0
  0
LINE
  5
4EB
330
1F
100
AcDbEntity
  8
0
  6
Continuous
 62
     7
370
    25
100
AcDbLine
 10
1644.2671950948
 20
1181.7594412689
 30
0.0
 11
1644.4020221715
 21
1181.9962893411
 31
0.0
  0
SPLINE
  5
4EC
330
1F
100
AcDbEntity
  8
0
  6
Continuous
 62
     7
370
    25
100
AcDbSpline
210
0.0
220
0.0
230
1.0
 70
     8
 71
     3
 72
    10
 73
     6
 74
     0
 42
0.00000001
 43
0.00000001
 40
0.0
 40
0.0
 40
0.0
 40
0.0
 40
0.322302354335107
 40
0.6611511742599959
 40
1.0
 40
1.0
 40
1.0
 40
1.0
 10
1643.570743823756
 20
1181.996289341107
 30
0.0
 10
1643.544043266046
 20
1182.012679037446
 30
0.0
 10
1643.489271388502
 20
1182.046299849812
 30
0.0
 10
1643.40640802959
 20
1182.097150722957
 30
0.0
 10
1643.350237476086
 20
1182.131610623129
 30
0.0
 10
1643.322152199093
 20
1182.148840573363
 30
0.0
  0
LINE
  5
4ED
330
1F
100
AcDbEntity
  8
0
  6
Continuous
 62
     7
370
    25
100
AcDbLine
 10
1645.3892721689
 20
1182.1488405231
 30
0.0
 11
1645.4376562219
 21
1182.0647809271
 31
0.0
  0
SPLINE
  5
4EE
330
1F
100
AcDbEntity
  8
0
  6
Continuous
 62
     7
370
    25
100
AcDbSpline
210
0.0
220
0.0
230
1.0
 70
     8
 71
     3
 72
    12
 73
     8
 74
     0
 42
0.00000001
 43
0.00000001
 40
0.0
 40
0.0
 40
0.0
 40
0.0
 40
0.159100118966167
 40
0.3202041399014414
 40
0.616853884930497
 40
0.9140545764657821
 40
1.0
 40
1.0
 40
1.0
 40
1.0
 10
1645.437656221869
 20
1182.064780927142
 30
0.0
 10
1645.375743999608
 20
1182.059001586687
 30
0.0
 10
1645.251139756651
 20
1182.047370113675
 30
0.0
 10
1645.024968146933
 20
1182.151126910681
 30
0.0
 10
1644.805963361741
 20
1182.340386736331
 30
0.0
 10
1644.588887921139
 20
1182.522821819231
 30
0.0
 10
1644.439847947998
 20
1182.535019074613
 30
0.0
 10
1644.406416045359
 20
1182.537755102041
 30
0.0
  0
LINE
  5
4EF
330
1F
100
AcDbEntity
  8
0
  6
Continuous
 62
     7
370
    25
100
AcDbLine
 10
1644.8517818925
 20
1182.3013893411
 30
0.0
 11
1645.3014662496
 21
1182.3013893411
 31
0.0
  0
LINE
  5
4F0
330
1F
100
AcDbEntity
  8
0
  6
Continuous
 62
     7
370
    25
100
AcDbLine
 10
1645.3014662496
 20
1182.3013893411
 30
0.0
 11
1645.3674389142
 21
1182.1867723302
 31
0.0
  0
LINE
  5
4F1
330
1F
100
AcDbEntity
  8
0
  6
Continuous
 62
     7
370
    25
100
AcDbLine
 10
1645.3892499434
 20
1182.1488384219
 30
0.0
 11
1645.3674389142
 21
1182.1867723302
 31
0.0
  0
LINE
  5
4F2
330
1F
100
AcDbEntity
  8
0
  6
Continuous
 62
     7
370
    25
100
AcDbLine
 10
1646.5187560636
 20
1182.0647809271
 30
0.0
 11
1646.3814048784
 21
1182.1488404706
 31
0.0
  0
LINE
  5
4F3
330
1F
100
AcDbEntity
  8
0
  6
Continuous
 62
     7
370
    25
100
AcDbLine
 10
1645.3014662496
 20
1182.3013893411
 30
0.0
 11
1645.4377597231
 21
1182.537755102
 31
0.0
  0
LINE
  5
4F4
330
1F
100
AcDbEntity
  8
0
  6
Continuous
 62
     7
370
    25
100
AcDbLine
 10
1646.1321438508
 20
1182.3013893411
 30
0.0
 11
1646.3194251713
 21
1182.1867723302
 31
0.0
  0
LINE
  5
4F5
330
1F
100
AcDbEntity
  8
0
  6
Continuous
 62
     7
370
    25
100
AcDbLine
 10
1646.3813857455
 20
1182.1488384219
 30
0.0
 11
1646.3194251713
 21
1182.1867723302
 31
0.0
  0
LINE
  5
4F6
330
1F
100
AcDbEntity
  8
0
  6
Continuous
 62
     7
370
    25
100
AcDbLine
 10
1645.38925005
 20
1182.1488384768
 30
0.0
 11
1645.4376219151
 21
1182.2328982485
 31
0.0
  0
LINE
  5
4F7
330
1F
100
AcDbEntity
  8
0
  6
Continuous
 62
     7
370
    25
100
AcDbLine
 10
1645.3014662496
 20
1181.9962893411
 30
0.0
 11
1645.7337923664
 21
1181.9962893411
 31
0.0
  0
LINE
  5
4F8
330
1F
100
AcDbEntity
  8
0
  6
Continuous
 62
     7
370
    25
100
AcDbLine
 10
1644.2671597526
 20
1182.537755102
 30
0.0
 11
1644.2670218957
 21
1182.2328982485
 31
0.0
  0
LINE
  5
4F9
330
1F
100
AcDbEntity
  8
0
  6
Continuous
 62
     7
370
    25
100
AcDbLine
 10
1645.4377950524
 20
1181.7594412689
 30
0.0
 11
1645.4376562219
 21
1182.0647809271
 31
0.0
  0
LINE
  5
4FA
330
1F
100
AcDbEntity
  8
0
  6
Continuous
 62
     7
370
    25
100
AcDbLine
 10
1642.3566834375
 20
1182.2328982485
 30
0.0
 11
1642.5618519012
 21
1182.1488385299
 31
0.0
  0
SPLINE
  5
4FB
330
1F
100
AcDbEntity
  8
0
  6
Continuous
 62
     7
370
    25
100
AcDbSpline
210
0.0
220
0.0
230
1.0
 70
     8
 71
     3
 72
    13
 73
     9
 74
     0
 42
0.00000001
 43
0.00000001
 40
0.0
 40
0.0
 40
0.0
 40
0.0
 40
0.1421166978324171
 40
0.2860202338335907
 40
0.5510761480910046
 40
0.8166554578058267
 40
0.9604895185139829
 40
1.0
 40
1.0
 40
1.0
 40
1.0
 10
1642.356683437509
 20
1182.23289824845
 30
0.0
 10
1642.39269549205
 20
1182.238624808219
 30
0.0
 10
1642.465172381942
 20
1182.250149927991
 30
0.0
 10
1642.60998215726
 20
1182.146670866498
 30
0.0
 10
1642.761160423857
 20
1181.953121126512
 30
0.0
 10
1642.94239580464
 20
1181.763538496956
 30
0.0
 10
1643.104984449133
 20
1181.747917641831
 30
0.0
 10
1643.171050031199
 20
1181.757398218421
 30
0.0
 10
1643.185287067796
 20
1181.759441268852
 30
0.0
  0
LINE
  5
4FC
330
1F
100
AcDbEntity
  8
0
  6
Continuous
 62
     7
370
    25
100
AcDbLine
 10
1643.1852870678
 20
1181.7594412689
 30
0.0
 11
1643.5707438238
 21
1181.9962893411
 31
0.0
  0
LINE
  5
4FD
330
1F
100
AcDbEntity
  8
0
  6
Continuous
 62
     7
370
    25
100
AcDbLine
 10
1642.6071058362
 20
1182.1303063167
 30
0.0
 11
1642.5618650252
 21
1182.1488405734
 31
0.0
  0
LINE
  5
4FE
330
1F
100
AcDbEntity
  8
0
  6
Continuous
 62
     7
370
    25
100
AcDbLine
 10
1642.3567616174
 20
1182.537755102
 30
0.0
 11
1642.3566834375
 21
1182.2328982485
 31
0.0
  0
SPLINE
  5
4FF
330
1F
100
AcDbEntity
  8
0
  6
Continuous
 62
     7
370
    25
100
AcDbSpline
210
0.0
220
0.0
230
1.0
 70
     8
 71
     3
 72
    13
 73
     9
 74
     0
 42
0.00000001
 43
0.00000001
 40
0.0
 40
0.0
 40
0.0
 40
0.0
 40
0.1419103113865619
 40
0.2856080152291773
 40
0.5502065457856027
 40
0.8152964964034972
 40
0.9369116823970992
 40
1.0
 40
1.0
 40
1.0
 40
1.0
 10
1643.185169280844
 20
1182.064780927142
 30
0.0
 10
1643.133481670966
 20
1182.059032991812
 30
0.0
 10
1643.029455434077
 20
1182.047464724606
 30
0.0
 10
1642.853808545526
 20
1182.150608109964
 30
0.0
 10
1642.695246112326
 20
1182.344230290837
 30
0.0
 10
1642.53856802529
 20
1182.525487172813
 30
0.0
 10
1642.417460168213
 20
1182.550594908075
 30
0.0
 10
1642.372215595771
 20
1182.541024143598
 30
0.0
 10
1642.356761617365
 20
1182.537755102041
 30
0.0
  0
LINE
  5
500
330
1F
100
AcDbEntity
  8
0
  6
Continuous
 62
     7
370
    25
100
AcDbLine
 10
1643.1852870678
 20
1181.7594412689
 30
0.0
 11
1643.1851692808
 21
1182.0647809271
 31
0.0
  0
LINE
  5
501
330
1F
100
AcDbEntity
  8
0
  6
Continuous
 62
     7
370
    25
100
AcDbLine
 10
1643.3221519001
 20
1182.1488405231
 30
0.0
 11
1643.1851692808
 21
1182.0647809271
 31
0.0
  0
SPLINE
  5
502
330
1F
100
AcDbEntity
  8
0
  6
Continuous
 62
     7
370
    25
100
AcDbSpline
210
0.0
220
0.0
230
1.0
 70
     8
 71
     3
 72
    13
 73
     9
 74
     0
 42
0.00000001
 43
0.00000001
 40
0.0
 40
0.0
 40
0.0
 40
0.0
 40
0.1421166978324312
 40
0.2860202338337854
 40
0.5510761480916325
 40
0.8166554578070591
 40
0.9604895185156032
 40
1.0
 40
1.0
 40
1.0
 40
1.0
 10
1646.518726991645
 20
1182.23289824845
 30
0.0
 10
1646.570428498107
 20
1182.238624808219
 30
0.0
 10
1646.674481555864
 20
1182.250149927991
 30
0.0
 10
1646.850106468606
 20
1182.146670866498
 30
0.0
 10
1647.008517532607
 20
1181.953121126512
 30
0.0
 10
1647.170552602589
 20
1181.763538496955
 30
0.0
 10
1647.291704080868
 20
1181.747917641831
 30
0.0
 10
1647.336247579167
 20
1181.757398218421
 30
0.0
 10
1647.345846638095
 20
1181.759441268852
 30
0.0
  0
LINE
  5
503
330
1F
100
AcDbEntity
  8
0
  6
Continuous
 62
     7
370
    25
100
AcDbLine
 10
1646.5188437709
 20
1182.537755102
 30
0.0
 11
1646.5187269916
 21
1182.2328982485
 31
0.0
  0
SPLINE
  5
504
330
1F
100
AcDbEntity
  8
0
  6
Continuous
 62
     7
370
    25
100
AcDbSpline
210
0.0
220
0.0
230
1.0
 70
     8
 71
     3
 72
    12
 73
     8
 74
     0
 42
0.00000001
 43
0.00000001
 40
0.0
 40
0.0
 40
0.0
 40
0.0
 40
0.1591001189663107
 40
0.3202041399016027
 40
0.6168538849310634
 40
0.9140545764666428
 40
0.9999999999999999
 40
0.9999999999999999
 40
0.9999999999999999
 40
0.9999999999999999
 10
1647.345768088974
 20
1182.064780927142
 30
0.0
 10
1647.309896205692
 20
1182.059001586687
 30
0.0
 10
1647.237700624647
 20
1182.047370113675
 30
0.0
 10
1647.093539213145
 20
1182.151126910681
 30
0.0
 10
1646.942050295766
 20
1182.340386736332
 30
0.0
 10
1646.781964033905
 20
1182.522821819231
 30
0.0
 10
1646.660870995544
 20
1182.535019074613
 30
0.0
 10
1646.633708009781
 20
1182.537755102041
 30
0.0
  0
LINE
  5
505
330
1F
100
AcDbEntity
  8
0
  6
Continuous
 62
     7
370
    25
100
AcDbLine
 10
1647.3458466381
 20
1181.7594412689
 30
0.0
 11
1647.345768089
 21
1182.0647809271
 31
0.0
  0
LINE
  5
506
330
1F
100
AcDbEntity
  8
0
  6
Continuous
 62
     7
370
    25
100
AcDbLine
 10
1646.5187269916
 20
1182.2328982485
 30
0.0
 11
1646.381386135
 21
1182.1488385299
 31
0.0
  0
LINE
  5
507
330
1F
100
AcDbEntity
  8
0
  6
Continuous
 62
     7
370
    25
100
AcDbLine
 10
1646.5188437709
 20
1182.537755102
 30
0.0
 11
1646.1321438508
 21
1182.3013893411
 31
0.0
  0
LINE
  5
508
330
1F
100
AcDbEntity
  8
0
  6
Continuous
 62
     7
370
    25
100
AcDbLine
 10
1647.1403600858
 20
1182.1488405231
 30
0.0
 11
1647.345768089
 21
1182.0647809271
 31
0.0
  0
LINE
  5
509
330
1F
100
AcDbEntity
  8
0
  6
Continuous
 62
     7
370
    25
100
AcDbLine
 10
1642.356781661
 20
1181.7594412689
 30
0.0
 11
1642.7884967288
 21
1181.9365284679
 31
0.0
  0
LINE
  5
50A
330
1F
100
AcDbEntity
  8
0
  6
Continuous
 62
     7
370
    25
100
AcDbLine
 10
1642.356781661
 20
1181.7594412689
 30
0.0
 11
1642.3567028995
 21
1182.0647809271
 31
0.0
  0
LINE
  5
50B
330
1F
100
AcDbEntity
  8
0
  6
Continuous
 62
     7
370
    25
100
AcDbLine
 10
1642.5618645775
 20
1182.1488405231
 30
0.0
 11
1642.3567028995
 21
1182.0647809271
 31
0.0
  0
SPLINE
  5
50C
330
1F
100
AcDbEntity
  8
0
  6
Continuous
 62
     7
370
    25
100
AcDbSpline
210
0.0
220
0.0
230
1.0
 70
     8
 71
     3
 72
    13
 73
     9
 74
     0
 42
0.00000001
 43
0.00000001
 40
0.0
 40
0.0
 40
0.0
 40
0.0
 40
0.1421166978324898
 40
0.28602023383382
 40
0.5510761480912469
 40
0.816655457806358
 40
0.9604895185144838
 40
1.0
 40
1.0
 40
1.0
 40
1.0
 10
1641.907776711709
 20
1182.23289824845
 30
0.0
 10
1641.921262201872
 20
1182.238624808219
 30
0.0
 10
1641.948402735732
 20
1182.250149927991
 30
0.0
 10
1642.01498077884
 20
1182.146670866498
 30
0.0
 10
1642.094029995412
 20
1181.953121126512
 30
0.0
 10
1642.19946151754
 20
1181.763538496956
 30
0.0
 10
1642.303311174863
 20
1181.747917641831
 30
0.0
 10
1642.347301755118
 20
1181.757398218422
 30
0.0
 10
1642.356781661015
 20
1181.759441268852
 30
0.0
  0
LINE
  5
50D
330
1F
100
AcDbEntity
  8
0
  6
Continuous
 62
     7
370
    25
100
AcDbLine
 10
1641.907804251
 20
1182.537755102
 30
0.0
 11
1641.9077767117
 21
1182.2328982485
 31
0.0
  0
SPLINE
  5
50E
330
1F
100
AcDbEntity
  8
0
  6
Continuous
 62
     7
370
    25
100
AcDbSpline
210
0.0
220
0.0
230
1.0
 70
     8
 71
     3
 72
    11
 73
     7
 74
     0
 42
0.00000001
 43
0.00000001
 40
0.0
 40
0.0
 40
0.0
 40
0.0
 40
0.1965526436524708
 40
0.3955809122898371
 40
0.762062672349122
 40
0.9999999999999999
 40
0.9999999999999999
 40
0.9999999999999999
 40
0.9999999999999999
 10
1642.356702899509
 20
1182.064780927142
 30
0.0
 10
1642.322668396346
 20
1182.059146878056
 30
0.0
 10
1642.25417071776
 20
1182.047807817761
 30
0.0
 10
1642.147237222443
 20
1182.148726752559
 30
0.0
 10
1642.069910331554
 20
1182.329149514783
 30
0.0
 10
1642.018398831624
 20
1182.42367710266
 30
0.0
 10
1641.998120668864
 20
1182.460889100273
 30
0.0
  0
LINE
  5
50F
330
1F
100
AcDbEntity
  8
0
  6
Continuous
 62
     7
370
    25
100
AcDbLine
 10
1641.9077767117
 20
1182.2328982485
 30
0.0
 11
1641.9651911753
 21
1182.2129640727
 31
0.0
  0
LINE
  5
510
330
1F
100
AcDbEntity
  8
0
  6
Continuous
 62
     7
370
    25
100
AcDbLine
 10
1641.9689440186
 20
1182.5165484661
 30
0.0
 11
1642.3567216861
 21
1182.3820458311
 31
0.0
  0
LINE
  5
511
330
1F
100
AcDbEntity
  8
0
  6
Continuous
 62
     7
370
    25
100
AcDbLine
 10
1646.9143139851
 20
1182.3613651344
 30
0.0
 11
1647.3458266495
 21
1182.537755102
 31
0.0
  0
LINE
  5
512
330
1F
100
AcDbEntity
  8
0
  6
Continuous
 62
     7
370
    25
100
AcDbLine
 10
1647.3458266495
 20
1182.537755102
 30
0.0
 11
1647.3457486777
 21
1182.2328982485
 31
0.0
  0
LINE
  5
513
330
1F
100
AcDbEntity
  8
0
  6
Continuous
 62
     7
370
    25
100
AcDbLine
 10
1647.1403475698
 20
1182.1488384768
 30
0.0
 11
1647.3457486777
 21
1182.2328982485
 31
0.0
  0
SPLINE
  5
514
330
1F
100
AcDbEntity
  8
0
  6
Continuous
 62
     7
370
    25
100
AcDbSpline
210
0.0
220
0.0
230
1.0
 70
     8
 71
     3
 72
    13
 73
     9
 74
     0
 42
0.00000001
 43
0.00000001
 40
0.0
 40
0.0
 40
0.0
 40
0.0
 40
0.142116697832237
 40
0.2860202338336613
 40
0.5510761480912377
 40
0.8166554578065942
 40
0.9604895185151445
 40
1.0
 40
1.0
 40
1.0
 40
1.0
 10
1647.345748677745
 20
1182.23289824845
 30
0.0
 10
1647.379733424727
 20
1182.238624808219
 30
0.0
 10
1647.448130210093
 20
1182.250149927991
 30
0.0
 10
1647.554970170515
 20
1182.146670866498
 30
0.0
 10
1647.64346949231
 20
1181.953121126512
 30
0.0
 10
1647.723814599431
 20
1181.763538496955
 30
0.0
 10
1647.773523990007
 20
1181.747917641831
 30
0.0
 10
1647.789394612686
 20
1181.757398218422
 30
0.0
 10
1647.79281470873
 20
1181.759441268852
 30
0.0
  0
LINE
  5
515
330
1F
100
AcDbEntity
  8
0
  6
Continuous
 62
     7
370
    25
100
AcDbLine
 10
1647.7323307342
 20
1181.7804542551
 30
0.0
 11
1647.3458066877
 21
1181.9147381635
 31
0.0
  0
SPLINE
  5
516
330
1F
100
AcDbEntity
  8
0
  6
Continuous
 62
     7
370
    25
100
AcDbSpline
210
0.0
220
0.0
230
1.0
 70
     8
 71
     3
 72
    13
 73
     9
 74
     0
 42
0.00000001
 43
0.00000001
 40
0.0
 40
0.0
 40
0.0
 40
0.0
 40
0.1419103113864005
 40
0.2856080152291018
 40
0.550206545785362
 40
0.8152964964033365
 40
0.9369116823965324
 40
1.0
 40
1.0
 40
1.0
 40
1.0
 10
1647.792787213919
 20
1182.064780927142
 30
0.0
 10
1647.779431305853
 20
1182.059032991812
 30
0.0
 10
1647.752551269037
 20
1182.047464724606
 30
0.0
 10
1647.686475196591
 20
1182.150608109964
 30
0.0
 10
1647.607946817875
 20
1182.344230290837
 30
0.0
 10
1647.506511175108
 20
1182.525487172813
 30
0.0
 10
1647.404929147526
 20
1182.550594908075
 30
0.0
 10
1647.360874269543
 20
1182.541024143598
 30
0.0
 10
1647.345826649547
 20
1182.537755102041
 30
0.0
  0
LINE
  5
517
330
1F
100
AcDbEntity
  8
0
  6
Continuous
 62
     7
370
    25
100
AcDbLine
 10
1647.7928147087
 20
1181.7594412689
 30
0.0
 11
1647.7927872139
 21
1182.0647809271
 31
0.0
  0
LINE
  5
518
330
1F
100
AcDbEntity
  8
0
  6
Continuous
 62
     7
370
    25
100
AcDbLine
 10
1647.7927872139
 20
1182.0647809271
 30
0.0
 11
1647.7359051734
 21
1182.0845233509
 31
0.0
  0
SPLINE
  5
519
330
1F
100
AcDbEntity
  8
0
  6
Continuous
 62
     7
370
    25
100
AcDbSpline
210
0.0
220
0.0
230
1.0
 70
     8
 71
     3
 72
    10
 73
     6
 74
     0
 42
0.00000001
 43
0.00000001
 40
0.0
 40
0.0
 40
0.0
 40
0.0
 40
0.4156288886457901
 40
0.8364834937195539
 40
1.0
 40
1.0
 40
1.0
 40
1.0
 10
1641.906761977186
 20
1182.232898248451
 30
0.0
 10
1641.895884689051
 20
1182.238165795039
 30
0.0
 10
1641.87399335226
 20
1182.248767117263
 30
0.0
 10
1641.857845215403
 20
1182.190123999801
 30
0.0
 10
1641.856640377115
 20
1182.135352811464
 30
0.0
 10
1641.856303243839
 20
1182.120026945439
 30
0.0
  0
SPLINE
  5
51A
330
1F
100
AcDbEntity
  8
0
  6
Continuous
 62
     7
370
    25
100
AcDbSpline
210
0.0
220
0.0
230
1.0
 70
     8
 71
     3
 72
    11
 73
     7
 74
     0
 42
0.00000001
 43
0.00000001
 40
0.0
 40
0.0
 40
0.0
 40
0.0
 40
0.1030913913741215
 40
0.6336944505430817
 40
0.9210616882486885
 40
1.0
 40
1.0
 40
1.0
 40
1.0
 10
1641.851637282031
 20
1181.99499656176
 30
0.0
 10
1641.851011085524
 20
1181.981434185168
 30
0.0
 10
1641.84716190621
 20
1181.89806735242
 30
0.0
 10
1641.860809548599
 20
1181.762435181504
 30
0.0
 10
1641.889281524216
 20
1181.747961723749
 30
0.0
 10
1641.904526123339
 20
1181.757406033807
 30
0.0
 10
1641.90781131222
 20
1181.759441268852
 30
0.0
  0
LINE
  5
51B
330
1F
100
AcDbEntity
  8
0
  6
Continuous
 62
     7
370
    25
100
AcDbLine
 10
1641.9078113122
 20
1181.7594412689
 30
0.0
 11
1642.1733752814
 21
1181.8517423818
 31
0.0
  0
LINE
  5
51C
330
1F
100
AcDbEntity
  8
0
  6
Continuous
 62
     7
370
    25
100
AcDbLine
 10
1641.9078113122
 20
1181.7594412689
 30
0.0
 11
1641.9077835669
 21
1182.0647809271
 31
0.0
  0
LINE
  5
51D
330
1F
100
AcDbEntity
  8
0
  6
Continuous
 62
     7
370
    25
100
AcDbLine
 10
1642.0274819136
 20
1182.1063402618
 30
0.0
 11
1641.9077835669
 21
1182.0647809271
 31
0.0
  0
SPLINE
  5
51E
330
1F
100
AcDbEntity
  8
0
  6
Continuous
 62
     7
370
    25
100
AcDbSpline
210
0.0
220
0.0
230
1.0
 70
     8
 71
     3
 72
    10
 73
     6
 74
     0
 42
0.00000001
 43
0.00000001
 40
0.0
 40
0.0
 40
0.0
 40
0.0
 40
0.2813095273741991
 40
0.5661622118459796
 40
1.0
 40
1.0
 40
1.0
 40
1.0
 10
1641.907783566884
 20
1182.064780927142
 30
0.0
 10
1641.896647706739
 20
1182.059076643999
 30
0.0
 10
1641.874235727774
 20
1182.047596230976
 30
0.0
 10
1641.852971599731
 20
1182.141382696825
 30
0.0
 10
1641.852025758301
 20
1182.244400549653
 30
0.0
 10
1641.851454800747
 20
1182.306587317272
 30
0.0
  0
LINE
  5
51F
330
1F
100
AcDbEntity
  8
0
  6
Continuous
 62
     7
370
    25
100
AcDbLine
 10
1641.9067346833
 20
1182.537755102
 30
0.0
 11
1641.9078042175
 21
1182.5373842836
 31
0.0
  0
LINE
  5
520
330
1F
100
AcDbEntity
  8
0
  6
Continuous
 62
     7
370
    25
100
AcDbLine
 10
1647.7927804186
 20
1182.2328982485
 30
0.0
 11
1647.6737248824
 21
1182.1915763628
 31
0.0
  0
SPLINE
  5
521
330
1F
100
AcDbEntity
  8
0
  6
Continuous
 62
     7
370
    25
100
AcDbSpline
210
0.0
220
0.0
230
1.0
 70
     8
 71
     3
 72
    13
 73
     9
 74
     0
 42
0.00000001
 43
0.00000001
 40
0.0
 40
0.0
 40
0.0
 40
0.0
 40
0.142116697832346
 40
0.2860202338337419
 40
0.551076148091574
 40
0.8166554578071743
 40
0.9604895185153626
 40
1.0
 40
1.0
 40
1.0
 40
1.0
 10
1647.792780418632
 20
1182.23289824845
 30
0.0
 10
1647.803874536479
 20
1182.238624808219
 30
0.0
 10
1647.8262022589
 20
1182.250149927991
 30
0.0
 10
1647.847991851536
 20
1182.146670866498
 30
0.0
 10
1647.853106211627
 20
1181.953121126512
 30
0.0
 10
1647.839529541659
 20
1181.763538496955
 30
0.0
 10
1647.810229040435
 20
1181.747917641831
 30
0.0
 10
1647.795010629058
 20
1181.757398218421
 30
0.0
 10
1647.791731083599
 20
1181.759441268852
 30
0.0
  0
LINE
  5
522
330
1F
100
AcDbEntity
  8
0
  6
Continuous
 62
     7
370
    25
100
AcDbLine
 10
1647.7917310836
 20
1181.7594412689
 30
0.0
 11
1647.3458067671
 21
1181.9144295785
 31
0.0
  0
LINE
  5
523
330
1F
100
AcDbEntity
  8
0
  6
Continuous
 62
     7
370
    25
100
AcDbLine
 10
1647.7928077125
 20
1182.537755102
 30
0.0
 11
1647.5283680527
 21
1182.4460711735
 31
0.0
  0
LINE
  5
524
330
1F
100
AcDbEntity
  8
0
  6
Continuous
 62
     7
370
    25
100
AcDbLine
 10
1647.7928077125
 20
1182.537755102
 30
0.0
 11
1647.7927804186
 21
1182.2328982485
 31
0.0
  0
SPLINE
  5
525
330
1F
100
AcDbEntity
  8
0
  6
Continuous
 62
     7
370
    25
100
AcDbSpline
210
0.0
220
0.0
230
1.0
 70
     8
 71
     3
 72
    11
 73
     7
 74
     0
 42
0.00000001
 43
0.00000001
 40
0.0
 40
0.0
 40
0.0
 40
0.0
 40
0.0923106480585216
 40
0.6272657996468972
 40
0.872686910884156
 40
1.0
 40
1.0
 40
1.0
 40
1.0
 10
1647.848087595071
 20
1182.306587317272
 30
0.0
 10
1647.848665604765
 20
1182.318617189397
 30
0.0
 10
1647.852593274219
 20
1182.400362118251
 30
0.0
 10
1647.839806111621
 20
1182.526372999571
 30
0.0
 10
1647.812952253138
 20
1182.550527431543
 30
0.0
 10
1647.797936554821
 20
1182.541006963932
 30
0.0
 10
1647.792807712509
 20
1182.537755102041
 30
0.0
  0
LINE
  5
526
330
1F
100
AcDbEntity
  8
0
  6
Continuous
 62
     7
370
    25
100
AcDbLine
 10
1641.9067551819
 20
1182.0647809271
 30
0.0
 11
1642.0273435348
 21
1182.1066343195
 31
0.0
  0
SPLINE
  5
527
330
1F
100
AcDbEntity
  8
0
  6
Continuous
 62
     7
370
    25
100
AcDbSpline
210
0.0
220
0.0
230
1.0
 70
     8
 71
     3
 72
    10
 73
     6
 74
     0
 42
0.00000001
 43
0.00000001
 40
0.0
 40
0.0
 40
0.0
 40
0.0
 40
0.3834427420106658
 40
0.7894054018709061
 40
1.0
 40
1.0
 40
1.0
 40
1.0
 10
1642.171174343112
 20
1182.446071173458
 30
0.0
 10
1642.188604996792
 20
1182.476709832463
 30
0.0
 10
1642.224490021244
 20
1182.539786584935
 30
0.0
 10
1642.294906649495
 20
1182.549891658699
 30
0.0
 10
1642.338742826837
 20
1182.540845094832
 30
0.0
 10
1642.353715746272
 20
1182.537755102041
 30
0.0
  0
LINE
  5
528
330
1F
100
AcDbEntity
  8
0
  6
Continuous
 62
     7
370
    25
100
AcDbLine
 10
1642.3537157463
 20
1182.537755102
 30
0.0
 11
1642.3567612981
 21
1182.536510168
 31
0.0
  0
SPLINE
  5
529
330
1F
100
AcDbEntity
  8
0
  6
Continuous
 62
     7
370
    25
100
AcDbSpline
210
0.0
220
0.0
230
1.0
 70
     8
 71
     3
 72
    10
 73
     6
 74
     0
 42
0.00000001
 43
0.00000001
 40
0.0
 40
0.0
 40
0.0
 40
0.0
 40
0.3886151440706822
 40
0.8682474550842733
 40
1.0
 40
1.0
 40
1.0
 40
1.0
 10
1647.52616711438
 20
1181.85174238177
 30
0.0
 10
1647.508373297262
 20
1181.820577208409
 30
0.0
 10
1647.468618190789
 20
1181.750947697385
 30
0.0
 10
1647.396047254126
 20
1181.748369500426
 30
0.0
 10
1647.352208024796
 20
1181.757478329475
 30
0.0
 10
1647.342760734804
 20
1181.759441268852
 30
0.0
  0
LINE
  5
52A
330
1F
100
AcDbEntity
  8
0
  6
Continuous
 62
     7
370
    25
100
AcDbLine
 10
1647.5281760575
 20
1182.446337266
 30
0.0
 11
1647.7917381448
 21
1182.537755102
 31
0.0
  0
LINE
  5
52B
330
1F
100
AcDbEntity
  8
0
  6
Continuous
 62
     7
370
    25
100
AcDbLine
 10
1643.1806986249
 20
1182.537755102
 30
0.0
 11
1643.1852560248
 21
1182.5349694452
 31
0.0
  0
LINE
  5
52C
330
1F
100
AcDbEntity
  8
0
  6
Continuous
 62
     7
370
    25
100
AcDbLine
 10
1647.3427807785
 20
1182.537755102
 30
0.0
 11
1646.9968759509
 21
1182.396160655
 31
0.0
  0
LINE
  5
52D
330
1F
100
AcDbEntity
  8
0
  6
Continuous
 62
     7
370
    25
100
AcDbLine
 10
1647.3427807785
 20
1182.537755102
 30
0.0
 11
1647.3427810977
 21
1182.536510168
 31
0.0
  0
LINE
  5
52E
330
1F
100
AcDbEntity
  8
0
  6
Continuous
 62
     7
370
    25
100
AcDbLine
 10
1646.3497711912
 20
1182.4368813234
 30
0.0
 11
1646.5142853026
 21
1182.537755102
 31
0.0
  0
LINE
  5
52F
330
1F
100
AcDbEntity
  8
0
  6
Continuous
 62
     7
370
    25
100
AcDbLine
 10
1646.5142853026
 20
1182.537755102
 30
0.0
 11
1646.514286371
 21
1182.5349694452
 31
0.0
  0
LINE
  5
530
330
1F
100
AcDbEntity
  8
0
  6
Continuous
 62
     7
370
    25
100
AcDbLine
 10
1647.6497711912
 20
1181.7594412689
 30
0.0
 11
1642.0497711912
 21
1181.7594412689
 31
0.0
  0
LINE
  5
531
330
1F
100
AcDbEntity
  8
0
  6
Continuous
 62
     7
370
    25
100
AcDbLine
 10
1646.1561028127
 20
1179.5473110031
 30
0.0
 11
1646.1623404884
 21
1179.5348001589
 31
0.0
  0
ARC
  5
532
330
1F
100
AcDbEntity
  8
0
  6
Continuous
 62
     7
370
    25
100
AcDbCircle
 10
1644.8497711912
 20
1184.3594412689
 30
0.0
 40
4.986291206899224
100
AcDbArc
 50
276.5034226004
 51
285.1878552918
  0
LINE
  5
533
330
1F
100
AcDbEntity
  8
0
  6
Continuous
 62
     7
370
    25
100
AcDbLine
 10
1645.4145313242
 20
1179.4052363889
 30
0.0
 11
1645.2197711912
 21
1179.4052363889
 31
0.0
  0
LINE
  5
534
330
1F
100
AcDbEntity
  8
0
  6
Continuous
 62
     7
370
    25
100
AcDbLine
 10
1645.2197711912
 20
1179.4052363889
 30
0.0
 11
1645.2197711912
 21
1179.5473110031
 31
0.0
  0
ARC
  5
535
330
1F
100
AcDbEntity
  8
0
  6
Continuous
 62
     7
370
    25
100
AcDbCircle
 10
1644.8497711912
 20
1185.0120498171
 30
0.0
 40
5.477250250413517
100
AcDbArc
 50
266.126597498
 51
273.873402502
  0
LINE
  5
536
330
1F
100
AcDbEntity
  8
0
  6
Continuous
 62
     7
370
    25
100
AcDbLine
 10
1644.4797711912
 20
1179.5473110031
 30
0.0
 11
1644.4797711912
 21
1179.4052363889
 31
0.0
  0
LINE
  5
537
330
1F
100
AcDbEntity
  8
0
  6
Continuous
 62
     7
370
    25
100
AcDbLine
 10
1644.4797711912
 20
1179.4052363889
 30
0.0
 11
1644.2850110582
 21
1179.4052363889
 31
0.0
  0
ARC
  5
538
330
1F
100
AcDbEntity
  8
0
  6
Continuous
 62
     7
370
    25
100
AcDbCircle
 10
1644.8497711912
 20
1184.3594412689
 30
0.0
 40
4.986291206899224
100
AcDbArc
 50
254.8121447082
 51
263.4965773996
  0
LINE
  5
539
330
1F
100
AcDbEntity
  8
0
  6
Continuous
 62
     7
370
    25
100
AcDbLine
 10
1643.537201894
 20
1179.5348001589
 30
0.0
 11
1643.5434395697
 21
1179.5473110031
 31
0.0
  0
CIRCLE
  5
53A
330
1F
100
AcDbEntity
  8
0
  6
Continuous
 62
     7
370
    25
100
AcDbCircle
 10
1646.6497711912
 20
1204.987755102
 30
0.0
 40
4.0
  0
CIRCLE
  5
53B
330
1F
100
AcDbEntity
  8
0
  6
Continuous
 62
     7
370
    25
100
AcDbCircle
 10
1646.6497711912
 20
1204.987755102
 30
0.0
 40
2.999999999999773
  0
CIRCLE
  5
53C
330
1F
100
AcDbEntity
  8
0
  6
Continuous
 62
     7
370
    25
100
AcDbCircle
 10
1646.6497711912
 20
1204.987755102
 30
0.0
 40
5.0
  0
CIRCLE
  5
53D
330
1F
100
AcDbEntity
  8
0
  6
Continuous
 62
     7
370
    25
100
AcDbCircle
 10
1646.6497711912
 20
1193.487755102
 30
0.0
 40
4.0
  0
CIRCLE
  5
53E
330
1F
100
AcDbEntity
  8
0
  6
Continuous
 62
     7
370
    25
100
AcDbCircle
 10
1646.6497711912
 20
1193.487755102
 30
0.0
 40
5.0
  0
CIRCLE
  5
53F
330
1F
100
AcDbEntity
  8
0
  6
Continuous
 62
     7
370
    25
100
AcDbCircle
 10
1646.6497711912
 20
1193.487755102
 30
0.0
 40
3.000000000000227
  0
LINE
  5
540
330
1F
100
AcDbEntity
  8
0
  6
Continuous
 62
     7
370
    25
100
AcDbLine
 10
1634.8497711912
 20
1215.037755102
 30
0.0
 11
1634.8497711912
 21
1215.137755102
 31
0.0
  0
LINE
  5
541
330
1F
100
AcDbEntity
  8
0
  6
Continuous
 62
     7
370
    25
100
AcDbLine
 10
1634.8497711912
 20
1215.937755102
 30
0.0
 11
1634.8497711912
 21
1218.3496946343
 31
0.0
  0
LINE
  5
542
330
1F
100
AcDbEntity
  8
0
  6
Continuous
 62
     7
370
    25
100
AcDbLine
 10
1634.8497711912
 20
1218.3496946343
 30
0.0
 11
1654.5195808169
 21
1218.0063568302
 31
0.0
  0
LINE
  5
543
330
1F
100
AcDbEntity
  8
0
  6
Continuous
 62
     7
370
    25
100
AcDbLine
 10
1657.9287207407
 20
1215.137755102
 30
0.0
 11
1657.9287207407
 21
1215.037755102
 31
0.0
  0
LINE
  5
544
330
1F
100
AcDbEntity
  8
0
  6
Continuous
 62
     7
370
    25
100
AcDbLine
 10
1658.4497711912
 20
1217.937755102
 30
0.0
 11
1658.4497711912
 21
1215.937755102
 31
0.0
  0
LINE
  5
545
330
1F
100
AcDbEntity
  8
0
  6
Continuous
 62
     7
370
    25
100
AcDbLine
 10
1654.5195808169
 20
1218.0063568302
 30
0.0
 11
1658.4497711912
 21
1217.937755102
 31
0.0
  0
LINE
  5
546
330
1F
100
AcDbEntity
  8
0
  6
Continuous
 62
     7
370
    25
100
AcDbLine
 10
1635.0860658777
 20
1218.3455700953
 30
0.0
 11
1635.0860999901
 21
1218.3466866007
 31
0.0
  0
LINE
  5
547
330
1F
100
AcDbEntity
  8
0
  6
Continuous
 62
     7
370
    25
100
AcDbLine
 10
1635.0860999901
 20
1218.3466866007
 30
0.0
 11
1635.2895420479
 21
1218.3440233982
 31
0.0
  0
LINE
  5
548
330
1F
100
AcDbEntity
  8
0
  6
Continuous
 62
     7
370
    25
100
AcDbLine
 10
1635.2895420479
 20
1218.3440233982
 30
0.0
 11
1654.5015815912
 21
1218.092524024
 31
0.0
  0
LINE
  5
549
330
1F
100
AcDbEntity
  8
0
  6
Continuous
 62
     7
370
    25
100
AcDbLine
 10
1656.4493594611
 20
1218.0670262149
 30
0.0
 11
1656.4497711912
 21
1217.9726652319
 31
0.0
  0
LINE
  5
54A
330
1F
100
AcDbEntity
  8
0
  6
Continuous
 62
     7
370
    25
100
AcDbLine
 10
1654.5015815912
 20
1218.092524024
 30
0.0
 11
1656.4493594611
 21
1218.0670262149
 31
0.0
  0
LINE
  5
54B
330
1F
100
AcDbEntity
  8
0
  6
HIDDEN
 62
     7
370
    25
100
AcDbLine
 10
1672.2497711912
 20
1168.237755102
 30
0.0
 11
1640.2497711912
 21
1168.237755102
 31
0.0
  0
LINE
  5
54C
330
1F
100
AcDbEntity
  8
0
  6
Continuous
 62
     7
370
    25
100
AcDbLine
 10
1645.2498249023
 20
1179.4052363889
 30
0.0
 11
1645.2498249023
 21
1175.537755102
 31
0.0
  0
LINE
  5
54D
330
1F
100
AcDbEntity
  8
0
  6
HIDDEN
 62
     7
370
    25
100
AcDbLine
 10
1640.0997711912
 20
1101.837755102
 30
0.0
 11
1672.3997711912
 21
1101.837755102
 31
0.0
  0
LINE
  5
54E
330
1F
100
AcDbEntity
  8
0
  6
Continuous
 62
     7
370
    25
100
AcDbLine
 10
1647.5241897958
 20
1180.1348128678
 30
0.0
 11
1642.1753525865
 21
1180.1348128678
 31
0.0
  0
LINE
  5
54F
330
1F
100
AcDbEntity
  8
0
  6
Continuous
 62
     7
370
    25
100
AcDbLine
 10
1647.6497711912
 20
1180.3629428014
 30
0.0
 11
1642.0497711912
 21
1180.3629428014
 31
0.0
  0
LINE
  5
550
330
1F
100
AcDbEntity
  8
0
  6
Continuous
 62
     7
370
    25
100
AcDbLine
 10
1643.3497711912
 20
1181.8594412689
 30
0.0
 11
1643.8957244904
 21
1181.8594412689
 31
0.0
  0
LINE
  5
551
330
1F
100
AcDbEntity
  8
0
  6
Continuous
 62
     7
370
    25
100
AcDbLine
 10
1644.3241206486
 20
1181.8594412689
 30
0.0
 11
1645.0049722847
 21
1181.8594412689
 31
0.0
  0
LINE
  5
552
330
1F
100
AcDbEntity
  8
0
  6
Continuous
 62
     7
370
    25
100
AcDbLine
 10
1645.4445096481
 20
1181.8594412689
 30
0.0
 11
1645.9863899303
 21
1181.8594412689
 31
0.0
  0
LINE
  5
553
330
1F
100
AcDbEntity
  8
0
  6
Continuous
 62
     7
370
    25
100
AcDbLine
 10
1654.5195808169
 20
1215.037755102
 30
0.0
 11
1654.5195808169
 21
1215.137755102
 31
0.0
  0
LINE
  5
554
330
1F
100
AcDbEntity
  8
0
  6
Continuous
 62
     7
370
    25
100
AcDbLine
 10
1654.5195808169
 20
1215.937755102
 30
0.0
 11
1654.5195808169
 21
1218.0063568302
 31
0.0
  0
LINE
  5
555
330
1F
100
AcDbEntity
  8
0
  6
Continuous
 62
     7
370
    25
100
AcDbLine
 10
1635.2895420479
 20
1218.3440233982
 30
0.0
 11
1635.2894808225
 21
1218.3420194742
 31
0.0
  0
LINE
  5
556
330
1F
100
AcDbEntity
  8
0
  6
Continuous
 62
     7
370
    25
100
AcDbLine
 10
1654.5004841166
 20
1218.0066901643
 30
0.0
 11
1654.5015815912
 21
1218.092524024
 31
0.0
  0
LINE
  5
557
330
1F
100
AcDbEntity
  8
0
  6
Continuous
 62
     7
370
    25
100
AcDbLine
 10
1682.8497711912
 20
1203.8143609592
 30
0.0
 11
1682.8497711912
 21
1194.8611492449
 31
0.0
  0
LINE
  5
558
330
1F
100
AcDbEntity
  8
0
  6
Continuous
 62
     7
370
    25
100
AcDbLine
 10
1682.9963290526
 20
1194.8611492449
 30
0.0
 11
1682.9963290526
 21
1203.8143609592
 31
0.0
  0
LINE
  5
559
330
1F
100
AcDbEntity
  8
0
  6
Continuous
 62
     7
370
    25
100
AcDbLine
 10
1683.1897404557
 20
1203.6652729337
 30
0.0
 11
1683.1897404557
 21
1195.0102372704
 31
0.0
  0
INSERT
  5
570
330
1F
100
AcDbEntity
  8
0
  6
Continuous
 62
     7
370
    18
100
AcDbBlockReference
  2
SW_HATCH_0
 10
1622.5940084671
 20
1177.537755102
 30
0.0
  0
DIMENSION
  5
571
330
1F
100
AcDbEntity
  8
FORMAT
100
AcDbDimension
  2
_D_15
 10
1682.6497711912
 20
1283.2417792865
 30
0.0
 11
1587.4620281042
 21
1283.2417792865
 31
0.0
 70
   160
  1
<>
 71
     2
 42
-1.0
  3
SLDDIMSTYLE5
100
AcDbAlignedDimension
 13
1629.6497711912
 23
1242.537755102
 33
0.0
 14
1682.6497711912
 24
1214.137755102
 34
0.0
100
AcDbRotatedDimension
  0
DIMENSION
  5
57D
330
1F
100
AcDbEntity
  8
FORMAT
100
AcDbDimension
  2
_D_16
 10
1742.397999711
 20
1215.937755102
 30
0.0
 11
1742.397999711
 21
1263.1339142702
 31
0.0
 70
   160
  1
<>
 71
     2
 42
-1.0
  3
SLDDIMSTYLE5
100
AcDbAlignedDimension
 13
1680.8497711912
 23
1182.537755102
 33
0.0
 14
1680.8497711912
 24
1215.937755102
 34
0.0
 50
90.0
100
AcDbRotatedDimension
  0
MTEXT
  5
589
330
1F
100
AcDbEntity
  8
FORMAT
100
AcDbMText
 10
1618.6963017464
 20
1349.7227824574
 30
0.0
 40
25.0
 41
0.0
 71
     2
 72
     1
  1
A-A
  7
SLDTEXTSTYLE0
 73
     1
 44
1.0
  0
ENDSEC
  0
SECTION
  2
OBJECTS
  0
DICTIONARY
  5
C
330
0
100
AcDbDictionary
281
     1
  3
ACAD_GROUP
350
D
  3
ACAD_LAYOUT
350
1A
  3
ACAD_MLINESTYLE
350
17
  3
ACAD_PLOTSETTINGS
350
19
  3
ACAD_PLOTSTYLENAME
350
E
  3
ACAD_SCALELIST
350
47
  3
DWGPROPS
350
58A
  0
DICTIONARY
  5
D
102
{ACAD_REACTORS
330
C
102
}
330
C
100
AcDbDictionary
281
     1
  0
DICTIONARY
  5
1A
102
{ACAD_REACTORS
330
C
102
}
330
C
100
AcDbDictionary
281
     1
  3
Layout1
350
1E
  3
Layout2
350
26
  3
Model
350
22
  0
DICTIONARY
  5
17
102
{ACAD_REACTORS
330
C
102
}
330
C
100
AcDbDictionary
281
     1
  3
Standard
350
18
  0
DICTIONARY
  5
19
102
{ACAD_REACTORS
330
C
102
}
330
C
100
AcDbDictionary
281
     1
  0
ACDBDICTIONARYWDFLT
  5
E
102
{ACAD_REACTORS
330
C
102
}
330
C
100
AcDbDictionary
281
     1
  3
Normal
350
F
100
AcDbDictionaryWithDefault
340
F
  0
DICTIONARY
  5
47
102
{ACAD_REACTORS
330
C
102
}
330
C
100
AcDbDictionary
281
     1
  3
A0
350
48
  3
A1
350
49
  3
A2
350
4A
  3
A3
350
4B
  3
A4
350
4C
  3
A5
350
4D
  3
A6
350
4E
  3
A7
350
4F
  3
A8
350
50
  3
A9
350
51
  3
B0
350
52
  3
B1
350
53
  3
B2
350
54
  3
B3
350
55
  3
B4
350
56
  3
B5
350
57
  3
B6
350
58
  3
B7
350
59
  3
B8
350
5A
  3
B9
350
5B
  3
C0
350
5C
  3
C1
350
5D
  3
C2
350
5E
  3
C3
350
5F
  3
C4
350
60
  3
C5
350
61
  3
C6
350
62
  3
C7
350
63
  3
C8
350
64
  3
C9
350
65
  3
D0
350
66
  3
D1
350
67
  3
D2
350
68
  0
XRECORD
  5
58A
102
{ACAD_REACTORS
330
C
102
}
330
C
100
AcDbXrecord
280
     1
  1
DWGPROPS COOKIE
  2

  3

  4

  6

  7

  8
l.eckardt
  9

300
=
301
=
302
=
303
=
304
=
305
=
306
=
307
=
308
=
309
=
 40
0.0
 41
2460321.302097593
 42
2460321.302101493
  1

 90
        0
  0
LAYOUT
  5
1E
102
{ACAD_REACTORS
330
1A
102
}
330
1A
100
AcDbPlotSettings
  1

  2
none_device
  4

  6

 40
0.0
 41
0.0
 42
0.0
 43
0.0
 44
0.0
 45
0.0
 46
0.0
 47
0.0
 48
0.0
 49
0.0
140
0.0
141
0.0
142
1.0
143
1.0
 70
   688
 72
     1
 73
     0
 74
     5
  7

 75
    16
147
1.0
148
0.0
149
0.0
100
AcDbLayout
  1
Layout1
 70
     1
 71
     1
 10
0.0
 20
0.0
 11
420.0
 21
297.0
 12
0.0
 22
0.0
 32
0.0
 14
1.0000000000E+20
 24
1.0000000000E+20
 34
1.0000000000E+20
 15
-1.0000000000E+20
 25
-1.0000000000E+20
 35
-1.0000000000E+20
146
0.0
 13
0.0
 23
0.0
 33
0.0
 16
1.0
 26
0.0
 36
0.0
 17
0.0
 27
1.0
 37
0.0
 76
     0
330
1B
  0
LAYOUT
  5
26
102
{ACAD_REACTORS
330
1A
102
}
330
1A
100
AcDbPlotSettings
  1

  2
none_device
  4

  6

 40
0.0
 41
0.0
 42
0.0
 43
0.0
 44
0.0
 45
0.0
 46
0.0
 47
0.0
 48
0.0
 49
0.0
140
0.0
141
0.0
142
1.0
143
1.0
 70
   688
 72
     1
 73
     0
 74
     5
  7

 75
    16
147
1.0
148
0.0
149
0.0
100
AcDbLayout
  1
Layout2
 70
     1
 71
     2
 10
0.0
 20
0.0
 11
0.0
 21
0.0
 12
0.0
 22
0.0
 32
0.0
 14
0.0
 24
0.0
 34
0.0
 15
0.0
 25
0.0
 35
0.0
146
0.0
 13
0.0
 23
0.0
 33
0.0
 16
1.0
 26
0.0
 36
0.0
 17
0.0
 27
1.0
 37
0.0
 76
     0
330
23
  0
LAYOUT
  5
22
102
{ACAD_REACTORS
330
1A
102
}
330
1A
100
AcDbPlotSettings
  1

  2
none_device
  4
Letter_(8.50_x_11.00_Inches)
  6

 40
6.35
 41
6.35
 42
6.35000508
 43
6.35000508
 44
215.9
 45
279.4
 46
0.0
 47
0.0
 48
0.0
 49
0.0
140
0.0
141
0.0
142
1.0
143
1.0
 70
  1712
 72
     1
 73
     0
 74
     0
  7

 75
     0
147
1.0
148
0.0
149
0.0
100
AcDbLayout
  1
Model
 70
     1
 71
     0
 10
0.0
 20
0.0
 11
2100.0
 21
1485.0
 12
0.0
 22
0.0
 32
0.0
 14
0.0
 24
0.0
 34
0.0
 15
2100.0
 25
1485.0
 35
0.0
146
0.0
 13
0.0
 23
0.0
 33
0.0
 16
1.0
 26
0.0
 36
0.0
 17
0.0
 27
1.0
 37
0.0
 76
     0
330
1F
331
29
  0
MLINESTYLE
  5
18
102
{ACAD_REACTORS
330
17
102
}
330
17
100
AcDbMlineStyle
  2
Standard
 70
     0
  3

 62
   256
 51
90.0
 52
90.0
 71
     2
 49
0.5
 62
   256
  6
BYLAYER
 49
-0.5
 62
   256
  6
BYLAYER
  0
ACDBPLACEHOLDER
  5
F
102
{ACAD_REACTORS
330
E
102
}
330
E
  0
SCALE
  5
48
102
{ACAD_REACTORS
330
47
102
}
330
47
100
AcDbScale
 70
     0
300
1:1
140
1.0
141
1.0
290
     1
  0
SCALE
  5
49
102
{ACAD_REACTORS
330
47
102
}
330
47
100
AcDbScale
 70
     0
300
1:2
140
1.0
141
2.0
290
     0
  0
SCALE
  5
4A
102
{ACAD_REACTORS
330
47
102
}
330
47
100
AcDbScale
 70
     0
300
1:4
140
1.0
141
4.0
290
     0
  0
SCALE
  5
4B
102
{ACAD_REACTORS
330
47
102
}
330
47
100
AcDbScale
 70
     0
300
1:5
140
1.0
141
5.0
290
     0
  0
SCALE
  5
4C
102
{ACAD_REACTORS
330
47
102
}
330
47
100
AcDbScale
 70
     0
300
1:8
140
1.0
141
8.0
290
     0
  0
SCALE
  5
4D
102
{ACAD_REACTORS
330
47
102
}
330
47
100
AcDbScale
 70
     0
300
1:10
140
1.0
141
10.0
290
     0
  0
SCALE
  5
4E
102
{ACAD_REACTORS
330
47
102
}
330
47
100
AcDbScale
 70
     0
300
1:16
140
1.0
141
16.0
290
     0
  0
SCALE
  5
4F
102
{ACAD_REACTORS
330
47
102
}
330
47
100
AcDbScale
 70
     0
300
1:20
140
1.0
141
20.0
290
     0
  0
SCALE
  5
50
102
{ACAD_REACTORS
330
47
102
}
330
47
100
AcDbScale
 70
     0
300
1:30
140
1.0
141
30.0
290
     0
  0
SCALE
  5
51
102
{ACAD_REACTORS
330
47
102
}
330
47
100
AcDbScale
 70
     0
300
1:40
140
1.0
141
40.0
290
     0
  0
SCALE
  5
52
102
{ACAD_REACTORS
330
47
102
}
330
47
100
AcDbScale
 70
     0
300
1:50
140
1.0
141
50.0
290
     0
  0
SCALE
  5
53
102
{ACAD_REACTORS
330
47
102
}
330
47
100
AcDbScale
 70
     0
300
1:100
140
1.0
141
100.0
290
     0
  0
SCALE
  5
54
102
{ACAD_REACTORS
330
47
102
}
330
47
100
AcDbScale
 70
     0
300
2:1
140
2.0
141
1.0
290
     0
  0
SCALE
  5
55
102
{ACAD_REACTORS
330
47
102
}
330
47
100
AcDbScale
 70
     0
300
4:1
140
4.0
141
1.0
290
     0
  0
SCALE
  5
56
102
{ACAD_REACTORS
330
47
102
}
330
47
100
AcDbScale
 70
     0
300
8:1
140
8.0
141
1.0
290
     0
  0
SCALE
  5
57
102
{ACAD_REACTORS
330
47
102
}
330
47
100
AcDbScale
 70
     0
300
10:1
140
10.0
141
1.0
290
     0
  0
SCALE
  5
58
102
{ACAD_REACTORS
330
47
102
}
330
47
100
AcDbScale
 70
     0
300
100:1
140
100.0
141
1.0
290
     0
  0
SCALE
  5
59
102
{ACAD_REACTORS
330
47
102
}
330
47
100
AcDbScale
 70
     0
300
1/128" = 1'-0"
140
0.0078125
141
12.0
290
     0
  0
SCALE
  5
5A
102
{ACAD_REACTORS
330
47
102
}
330
47
100
AcDbScale
 70
     0
300
1/64" = 1'-0"
140
0.015625
141
12.0
290
     0
  0
SCALE
  5
5B
102
{ACAD_REACTORS
330
47
102
}
330
47
100
AcDbScale
 70
     0
300
1/32" = 1'-0"
140
0.03125
141
12.0
290
     0
  0
SCALE
  5
5C
102
{ACAD_REACTORS
330
47
102
}
330
47
100
AcDbScale
 70
     0
300
1/16" = 1'-0"
140
0.0625
141
12.0
290
     0
  0
SCALE
  5
5D
102
{ACAD_REACTORS
330
47
102
}
330
47
100
AcDbScale
 70
     0
300
3/32" = 1'-0"
140
0.09375
141
12.0
290
     0
  0
SCALE
  5
5E
102
{ACAD_REACTORS
330
47
102
}
330
47
100
AcDbScale
 70
     0
300
1/8" = 1'-0"
140
0.125
141
12.0
290
     0
  0
SCALE
  5
5F
102
{ACAD_REACTORS
330
47
102
}
330
47
100
AcDbScale
 70
     0
300
3/16" = 1'-0"
140
0.1875
141
12.0
290
     0
  0
SCALE
  5
60
102
{ACAD_REACTORS
330
47
102
}
330
47
100
AcDbScale
 70
     0
300
1/4" = 1'-0"
140
0.25
141
12.0
290
     0
  0
SCALE
  5
61
102
{ACAD_REACTORS
330
47
102
}
330
47
100
AcDbScale
 70
     0
300
3/8" = 1'-0"
140
0.375
141
12.0
290
     0
  0
SCALE
  5
62
102
{ACAD_REACTORS
330
47
102
}
330
47
100
AcDbScale
 70
     0
300
1/2" = 1'-0"
140
0.5
141
12.0
290
     0
  0
SCALE
  5
63
102
{ACAD_REACTORS
330
47
102
}
330
47
100
AcDbScale
 70
     0
300
3/4" = 1'-0"
140
0.75
141
12.0
290
     0
  0
SCALE
  5
64
102
{ACAD_REACTORS
330
47
102
}
330
47
100
AcDbScale
 70
     0
300
1" = 1'-0"
140
1.0
141
12.0
290
     0
  0
SCALE
  5
65
102
{ACAD_REACTORS
330
47
102
}
330
47
100
AcDbScale
 70
     0
300
1-1/2" = 1'-0"
140
1.5
141
12.0
290
     0
  0
SCALE
  5
66
102
{ACAD_REACTORS
330
47
102
}
330
47
100
AcDbScale
 70
     0
300
3" = 1'-0"
140
3.0
141
12.0
290
     0
  0
SCALE
  5
67
102
{ACAD_REACTORS
330
47
102
}
330
47
100
AcDbScale
 70
     0
300
6" = 1'-0"
140
6.0
141
12.0
290
     0
  0
SCALE
  5
68
102
{ACAD_REACTORS
330
47
102
}
330
47
100
AcDbScale
 70
     0
300
1'-0" = 1'-0"
140
12.0
141
12.0
290
     0
  0
ENDSEC
  0
EOF
