  0
SECTION
  2
HEADER
  9
$ACADVER
  1
AC1015
  9
$ACADMAINTVER
 70
     6
  9
$DWGCODEPAGE
  3
ANSI_1252
  9
$INSBASE
 10
0.0
 20
0.0
 30
0.0
  9
$EXTMIN
 10
0.0
 20
0.0
 30
0.0
  9
$EXTMAX
 10
210.0
 20
297.0
 30
0.0
  9
$LIMMIN
 10
0.0
 20
0.0
  9
$LIMMAX
 10
210.0
 20
297.0
  9
$ORTHOMODE
 70
     0
  9
$REGENMODE
 70
     1
  9
$FILLMODE
 70
     1
  9
$QTEXTMODE
 70
     0
  9
$MIRRTEXT
 70
     1
  9
$LTSCALE
 40
1.0
  9
$ATTMODE
 70
     1
  9
$TEXTSIZE
 40
3.5
  9
$TRACEWID
 40
1.0
  9
$TEXTSTYLE
  7
STANDARD
  9
$CLAYER
  8
0
  9
$CELTYPE
  6
ByLayer
  9
$CECOLOR
 62
   256
  9
$CELTSCALE
 40
1.0
  9
$DISPSILH
 70
     0
  9
$DIMSCALE
 40
1.0
  9
$DIMASZ
 40
3.302
  9
$DIMEXO
 40
1.0
  9
$DIMDLI
 40
3.75
  9
$DIMRND
 40
0.0
  9
$DIMDLE
 40
0.0
  9
$DIMEXE
 40
1.0
  9
$DIMTP
 40
0.0
  9
$DIMTM
 40
0.0
  9
$DIMTXT
 40
3.5
  9
$DIMCEN
 40
2.5
  9
$DIMTSZ
 40
0.0
  9
$DIMTOL
 70
     0
  9
$DIMLIM
 70
     0
  9
$DIMTIH
 70
     1
  9
$DIMTOH
 70
     1
  9
$DIMSE1
 70
     0
  9
$DIMSE2
 70
     0
  9
$DIMTAD
 70
     1
  9
$DIMZIN
 70
     0
  9
$DIMBLK
  1

  9
$DIMASO
 70
     1
  9
$DIMSHO
 70
     1
  9
$DIMPOST
  1

  9
$DIMAPOST
  1

  9
$DIMALT
 70
     0
  9
$DIMALTD
 70
     3
  9
$DIMALTF
 40
0.0393700787
  9
$DIMLFAC
 40
1.0
  9
$DIMTOFL
 70
     1
  9
$DIMTVP
 40
0.0
  9
$DIMTIX
 70
     0
  9
$DIMSOXD
 70
     0
  9
$DIMSAH
 70
     0
  9
$DIMBLK1
  1

  9
$DIMBLK2
  1

  9
$DIMSTYLE
  2
ISO-25
  9
$DIMCLRD
 70
     0
  9
$DIMCLRE
 70
     0
  9
$DIMCLRT
 70
     0
  9
$DIMTFAC
 40
1.0
  9
$DIMGAP
 40
3.0
  9
$DIMJUST
 70
     0
  9
$DIMSD1
 70
     0
  9
$DIMSD2
 70
     0
  9
$DIMTOLJ
 70
     0
  9
$DIMTZIN
 70
     0
  9
$DIMALTZ
 70
     0
  9
$DIMALTTZ
 70
     0
  9
$DIMUPT
 70
     0
  9
$DIMDEC
 70
     2
  9
$DIMTDEC
 70
     2
  9
$DIMALTU
 70
     2
  9
$DIMALTTD
 70
     3
  9
$DIMTXSTY
  7
STANDARD
  9
$DIMAUNIT
 70
     0
  9
$DIMADEC
 70
     2
  9
$DIMALTRND
 40
0.0
  9
$DIMAZIN
 70
     0
  9
$DIMDSEP
 70
    44
  9
$DIMATFIT
 70
     3
  9
$DIMFRAC
 70
     0
  9
$DIMLDRBLK
  1

  9
$DIMLUNIT
 70
     2
  9
$DIMLWD
 70
    -2
  9
$DIMLWE
 70
    -2
  9
$DIMTMOVE
 70
     0
  9
$LUNITS
 70
     2
  9
$LUPREC
 70
     2
  9
$SKETCHINC
 40
1.0
  9
$FILLETRAD
 40
10.0
  9
$AUNITS
 70
     0
  9
$AUPREC
 70
     2
  9
$MENU
  1
.
  9
$ELEVATION
 40
0.0
  9
$PELEVATION
 40
0.0
  9
$THICKNESS
 40
0.0
  9
$LIMCHECK
 70
     0
  9
$CHAMFERA
 40
0.0
  9
$CHAMFERB
 40
0.0
  9
$CHAMFERC
 40
0.0
  9
$CHAMFERD
 40
0.0
  9
$SKPOLY
 70
     0
  9
$TDCREATE
 40
2459998.594317222
  9
$TDUCREATE
 40
2459998.552650556
  9
$TDUPDATE
 40
2459998.594318576
  9
$TDUUPDATE
 40
2459998.55265191
  9
$TDINDWG
 40
0.0000000116
  9
$TDUSRTIMER
 40
0.0000000116
  9
$USRTIMER
 70
     1
  9
$ANGBASE
 50
0.0
  9
$ANGDIR
 70
     0
  9
$PDMODE
 70
     0
  9
$PDSIZE
 40
-1.0
  9
$PLINEWID
 40
0.0
  9
$SPLFRAME
 70
     0
  9
$SPLINETYPE
 70
     6
  9
$SPLINESEGS
 70
     8
  9
$HANDSEED
  5
418
  9
$SURFTAB1
 70
     6
  9
$SURFTAB2
 70
     6
  9
$SURFTYPE
 70
     6
  9
$SURFU
 70
     6
  9
$SURFV
 70
     6
  9
$UCSBASE
  2

  9
$UCSNAME
  2

  9
$UCSORG
 10
0.0
 20
0.0
 30
0.0
  9
$UCSXDIR
 10
1.0
 20
0.0
 30
0.0
  9
$UCSYDIR
 10
0.0
 20
1.0
 30
0.0
  9
$UCSORTHOREF
  2

  9
$UCSORTHOVIEW
 70
     0
  9
$UCSORGTOP
 10
0.0
 20
0.0
 30
0.0
  9
$UCSORGBOTTOM
 10
0.0
 20
0.0
 30
0.0
  9
$UCSORGLEFT
 10
0.0
 20
0.0
 30
0.0
  9
$UCSORGRIGHT
 10
0.0
 20
0.0
 30
0.0
  9
$UCSORGFRONT
 10
0.0
 20
0.0
 30
0.0
  9
$UCSORGBACK
 10
0.0
 20
0.0
 30
0.0
  9
$PUCSBASE
  2

  9
$PUCSNAME
  2

  9
$PUCSORG
 10
0.0
 20
0.0
 30
0.0
  9
$PUCSXDIR
 10
1.0
 20
0.0
 30
0.0
  9
$PUCSYDIR
 10
0.0
 20
1.0
 30
0.0
  9
$PUCSORTHOREF
  2

  9
$PUCSORTHOVIEW
 70
     0
  9
$PUCSORGTOP
 10
0.0
 20
0.0
 30
0.0
  9
$PUCSORGBOTTOM
 10
0.0
 20
0.0
 30
0.0
  9
$PUCSORGLEFT
 10
0.0
 20
0.0
 30
0.0
  9
$PUCSORGRIGHT
 10
0.0
 20
0.0
 30
0.0
  9
$PUCSORGFRONT
 10
0.0
 20
0.0
 30
0.0
  9
$PUCSORGBACK
 10
0.0
 20
0.0
 30
0.0
  9
$USERI1
 70
     0
  9
$USERI2
 70
     0
  9
$USERI3
 70
     0
  9
$USERI4
 70
     0
  9
$USERI5
 70
     0
  9
$USERR1
 40
0.0
  9
$USERR2
 40
0.0
  9
$USERR3
 40
0.0
  9
$USERR4
 40
0.0
  9
$USERR5
 40
0.0
  9
$WORLDVIEW
 70
     1
  9
$SHADEDGE
 70
     3
  9
$SHADEDIF
 70
    70
  9
$TILEMODE
 70
     1
  9
$MAXACTVP
 70
    64
  9
$PINSBASE
 10
0.0
 20
0.0
 30
0.0
  9
$PLIMCHECK
 70
     0
  9
$PEXTMIN
 10
1.0000000000E+20
 20
1.0000000000E+20
 30
1.0000000000E+20
  9
$PEXTMAX
 10
-1.0000000000E+20
 20
-1.0000000000E+20
 30
-1.0000000000E+20
  9
$PLIMMIN
 10
0.0
 20
0.0
  9
$PLIMMAX
 10
420.0
 20
297.0
  9
$UNITMODE
 70
     0
  9
$VISRETAIN
 70
     1
  9
$PLINEGEN
 70
     0
  9
$PSLTSCALE
 70
     1
  9
$TREEDEPTH
 70
  3020
  9
$CMLSTYLE
  2
Standard
  9
$CMLJUST
 70
     0
  9
$CMLSCALE
 40
20.0
  9
$PROXYGRAPHICS
 70
     1
  9
$MEASUREMENT
 70
     1
  9
$CELWEIGHT
370
    -1
  9
$ENDCAPS
280
     0
  9
$JOINSTYLE
280
     0
  9
$LWDISPLAY
290
     1
  9
$INSUNITS
 70
     4
  9
$HYPERLINKBASE
  1

  9
$STYLESHEET
  1

  9
$XEDIT
290
     1
  9
$CEPSNTYPE
380
     0
  9
$PSTYLEMODE
290
     1
  9
$FINGERPRINTGUID
  2
{a7fce6dc-cbbb-4f52-a4f4-943953ad124c}
  9
$VERSIONGUID
  2
{FAEB1C32-E019-11D5-929B-00C0DF256EC4}
  9
$EXTNAMES
290
     1
  9
$PSVPSCALE
 40
0.0
  9
$OLESTARTUP
290
     0
  0
ENDSEC
  0
SECTION
  2
CLASSES
  0
CLASS
  1
ACDBDICTIONARYWDFLT
  2
AcDbDictionaryWithDefault
  3
ObjectDBX Classes
 90
        0
280
     0
281
     0
  0
CLASS
  1
VISUALSTYLE
  2
AcDbVisualStyle
  3
ObjectDBX Classes
 90
     4095
280
     0
281
     0
  0
CLASS
  1
MATERIAL
  2
AcDbMaterial
  3
ObjectDBX Classes
 90
     1153
280
     0
281
     0
  0
CLASS
  1
SCALE
  2
AcDbScale
  3
ObjectDBX Classes
 90
     1153
280
     0
281
     0
  0
CLASS
  1
TABLESTYLE
  2
AcDbTableStyle
  3
ObjectDBX Classes
 90
     4095
280
     0
281
     0
  0
CLASS
  1
MLEADERSTYLE
  2
AcDbMLeaderStyle
  3
ACDB_MLEADERSTYLE_CLASS
 90
     4095
280
     0
281
     0
  0
CLASS
  1
SUN
  2
AcDbSun
  3
SCENEOE
 90
     1153
280
     0
281
     0
  0
CLASS
  1
ACDBPLACEHOLDER
  2
AcDbPlaceHolder
  3
ObjectDBX Classes
 90
        0
280
     0
281
     0
  0
CLASS
  1
LAYOUT
  2
AcDbLayout
  3
ObjectDBX Classes
 90
        0
280
     0
281
     0
  0
ENDSEC
  0
SECTION
  2
TABLES
  0
TABLE
  2
VPORT
  5
8
330
0
100
AcDbSymbolTable
 70
     1
  0
VPORT
  5
29
330
8
100
AcDbSymbolTableRecord
100
AcDbViewportTableRecord
  2
*Active
 70
     0
 10
0.0
 20
0.0
 11
1.0
 21
1.0
 12
105.0
 22
148.5
 13
0.0
 23
0.0
 14
10.0
 24
10.0
 15
10.0
 25
10.0
 16
0.0
 26
0.0
 36
1.0
 17
0.0
 27
0.0
 37
0.0
 40
297.0
 41
0.7070707071
 42
50.0
 43
0.0
 44
0.0
 50
0.0
 51
0.0
 71
     0
 72
  2000
 73
     1
 74
     3
 75
     0
 76
     0
 77
     0
 78
     0
281
     0
 65
     1
110
0.0
120
0.0
130
0.0
111
1.0
121
0.0
131
0.0
112
0.0
122
1.0
132
0.0
 79
     0
146
0.0
  0
ENDTAB
  0
TABLE
  2
LTYPE
  5
5
330
0
100
AcDbSymbolTable
 70
     6
  0
LTYPE
  5
14
330
5
100
AcDbSymbolTableRecord
100
AcDbLinetypeTableRecord
  2
ByBlock
 70
     0
  3

 72
    65
 73
     0
 40
0.0
  0
LTYPE
  5
15
330
5
100
AcDbSymbolTableRecord
100
AcDbLinetypeTableRecord
  2
ByLayer
 70
     0
  3

 72
    65
 73
     0
 40
0.0
  0
LTYPE
  5
16
330
5
100
AcDbSymbolTableRecord
100
AcDbLinetypeTableRecord
  2
Continuous
 70
     0
  3
Solid line
 72
    65
 73
     0
 40
0.0
  0
LTYPE
  5
6E
330
5
100
AcDbSymbolTableRecord
100
AcDbLinetypeTableRecord
  2
HIDDEN
 70
     0
  3
Hidden __ __ __ __ __ __ __ __ __ __ __ __ __ __
 72
    65
 73
     2
 40
1.905
 49
1.27
 74
     0
 49
-0.635
 74
     0
  0
LTYPE
  5
6F
330
5
100
AcDbSymbolTableRecord
100
AcDbLinetypeTableRecord
  2
PHANTOM
 70
     0
  3
Phantom ______  __  __  ______  __  __  ______
 72
    65
 73
     6
 40
12.7
 49
6.35
 74
     0
 49
-1.27
 74
     0
 49
1.27
 74
     0
 49
-1.27
 74
     0
 49
1.27
 74
     0
 49
-1.27
 74
     0
  0
LTYPE
  5
70
330
5
100
AcDbSymbolTableRecord
100
AcDbLinetypeTableRecord
  2
CENTER
 70
     0
  3
Center ____ _ ____ _ ____ _ ____ _ ____ _ ____
 72
    65
 73
     4
 40
10.16
 49
6.35
 74
     0
 49
-1.27
 74
     0
 49
1.27
 74
     0
 49
-1.27
 74
     0
  0
LTYPE
  5
71
330
5
100
AcDbSymbolTableRecord
100
AcDbLinetypeTableRecord
  2
CENTERX2
 70
     0
  3
Center (2x) ________  __  ________  __  _____
 72
    65
 73
     4
 40
20.32
 49
12.7
 74
     0
 49
-2.54
 74
     0
 49
2.54
 74
     0
 49
-2.54
 74
     0
  0
LTYPE
  5
72
330
5
100
AcDbSymbolTableRecord
100
AcDbLinetypeTableRecord
  2
DOT2
 70
     0
  3
Dot (.5x) ........................................
 72
    65
 73
     2
 40
0.635
 49
0.0
 74
     0
 49
-0.635
 74
     0
  0
ENDTAB
  0
TABLE
  2
LAYER
  5
2
330
0
100
AcDbSymbolTable
 70
     9
  0
LAYER
  5
10
330
2
100
AcDbSymbolTableRecord
100
AcDbLayerTableRecord
  2
0
 70
     0
 62
     7
  6
Continuous
370
    -3
390
F
  0
LAYER
  5
73
330
2
100
AcDbSymbolTableRecord
100
AcDbLayerTableRecord
  2
FORMAT
 70
     0
 62
     7
  6
Continuous
370
    -3
390
F
  0
LAYER
  5
74
330
2
100
AcDbSymbolTableRecord
100
AcDbLayerTableRecord
  2
VORLAGE
 70
     0
 62
     7
  6
Continuous
370
    -3
390
F
  0
LAYER
  5
75
330
2
100
AcDbSymbolTableRecord
100
AcDbLayerTableRecord
  2
1
 70
     0
 62
   179
  6
Continuous
370
    -3
390
F
  0
LAYER
  5
76
330
2
100
AcDbSymbolTableRecord
100
AcDbLayerTableRecord
  2
LAYER0
 70
     0
 62
     7
  6
Continuous
370
    -3
390
F
  0
LAYER
  5
77
330
2
100
AcDbSymbolTableRecord
100
AcDbLayerTableRecord
  2
BEMASSUNG
 70
     0
 62
     1
  6
Continuous
370
    -3
390
F
  0
LAYER
  5
78
330
2
100
AcDbSymbolTableRecord
100
AcDbLayerTableRecord
  2
ÄNDERUNG
 70
     0
 62
     1
  6
Continuous
370
    -3
390
F
  0
LAYER
  5
79
330
2
100
AcDbSymbolTableRecord
100
AcDbLayerTableRecord
  2
KENNZEICHNUNG
 70
     0
 62
     7
  6
Continuous
370
    -3
390
F
  0
LAYER
  5
7A
330
2
100
AcDbSymbolTableRecord
100
AcDbLayerTableRecord
  2
LOGOS
 70
     0
 62
     7
  6
Continuous
370
    -3
390
F
  0
ENDTAB
  0
TABLE
  2
STYLE
  5
3
330
0
100
AcDbSymbolTable
 70
     5
  0
STYLE
  5
11
330
3
100
AcDbSymbolTableRecord
100
AcDbTextStyleTableRecord
  2
STANDARD
 70
     0
 40
0.0
 41
1.0
 50
0.0
 71
     0
 42
3.5
  3
ARIAL.TTF
  4

1001
ACAD
1000
ARIAL
1071
       34
  0
STYLE
  5
8C
330
3
100
AcDbSymbolTableRecord
100
AcDbTextStyleTableRecord
  2
SLDTEXTSTYLE0
 70
     0
 40
0.0
 41
0.948
 50
0.0
 71
     0
 42
3.5
  3
ARIAL.TTF
  4

1001
ACAD
1000
Arial
1071
      290
  0
STYLE
  5
B3
330
3
100
AcDbSymbolTableRecord
100
AcDbTextStyleTableRecord
  2
SLDTEXTSTYLE1
 70
     0
 40
0.0
 41
1.0
 50
0.0
 71
     0
 42
3.5
  3
Arial Unicode MS
  4

1001
ACAD
1000
Arial Unicode MS
1071
 33554688
  0
STYLE
  5
B9
330
3
100
AcDbSymbolTableRecord
100
AcDbTextStyleTableRecord
  2
SLDTEXTSTYLE2
 70
     0
 40
0.0
 41
0.87
 50
0.0
 71
     0
 42
3.5
  3
ARIALN.TTF
  4

1001
ACAD
1000
Arial Narrow
1071
      290
  0
STYLE
  5
CE
330
3
100
AcDbSymbolTableRecord
100
AcDbTextStyleTableRecord
  2
SLDTEXTSTYLE3
 70
     0
 40
0.0
 41
0.948
 50
0.0
 71
     0
 42
3.5
  3
ARIALBD.TTF
  4

1001
ACAD
1000
Arial
1071
 33554722
  0
ENDTAB
  0
TABLE
  2
VIEW
  5
6
330
0
100
AcDbSymbolTable
 70
     0
  0
ENDTAB
  0
TABLE
  2
UCS
  5
7
330
0
100
AcDbSymbolTable
 70
     0
  0
ENDTAB
  0
TABLE
  2
APPID
  5
9
330
0
100
AcDbSymbolTable
 70
     1
  0
APPID
  5
12
330
9
100
AcDbSymbolTableRecord
100
AcDbRegAppTableRecord
  2
ACAD
 70
     0
  0
ENDTAB
  0
TABLE
  2
DIMSTYLE
  5
A
330
0
100
AcDbSymbolTable
 70
     4
100
AcDbDimStyleTable
  0
DIMSTYLE
105
27
330
A
100
AcDbSymbolTableRecord
100
AcDbDimStyleTableRecord
  2
ISO-25
 70
     0
 41
2.5
 42
0.625
 43
3.75
 44
1.25
 73
     0
 74
     0
 77
     1
 78
     8
140
2.5
141
2.5
143
0.0393700787
147
0.625
171
     3
172
     1
178
     0
271
     2
272
     2
274
     3
278
    44
283
     0
284
     8
340
11
  0
DIMSTYLE
105
1C8
102
{ACAD_REACTORS
330
1C7
330
40C
102
}
330
A
100
AcDbSymbolTableRecord
100
AcDbDimStyleTableRecord
  2
SLDDIMSTYLE0
 70
     0
 41
3.302
 44
0.0
 45
0.000000001
 73
     0
 74
     0
 77
     1
 78
    12
 79
     3
140
3.5
147
0.875
173
     1
178
     0
271
     2
272
     2
276
     2
284
    12
340
8C
  0
DIMSTYLE
105
1D3
102
{ACAD_REACTORS
330
1D2
102
}
330
A
100
AcDbSymbolTableRecord
100
AcDbDimStyleTableRecord
  2
SLDDIMSTYLE1
 70
     0
 41
3.302
 44
0.0
 45
0.000000001
 73
     0
 74
     0
 77
     1
 78
    12
 79
     3
140
3.5
147
0.875
173
     1
178
     0
271
     0
272
     2
276
     2
284
    12
340
8C
  0
DIMSTYLE
105
1DE
102
{ACAD_REACTORS
330
1DD
102
}
330
A
100
AcDbSymbolTableRecord
100
AcDbDimStyleTableRecord
  2
SLDDIMSTYLE2
 70
     0
 41
3.302
 44
0.0
 45
0.000000001
 73
     0
 74
     0
 77
     1
 78
    12
 79
     3
140
3.5
147
0.875
172
     1
173
     1
178
     0
271
     2
272
     2
276
     2
284
    12
289
     0
340
8C
  0
ENDTAB
  0
TABLE
  2
BLOCK_RECORD
  5
1
330
0
100
AcDbSymbolTable
 70
    11
  0
BLOCK_RECORD
  5
1F
330
1
100
AcDbSymbolTableRecord
100
AcDbBlockTableRecord
  2
*Model_Space
340
22
  0
BLOCK_RECORD
  5
1B
330
1
100
AcDbSymbolTableRecord
100
AcDbBlockTableRecord
  2
*Paper_Space
340
1E
  0
BLOCK_RECORD
  5
23
330
1
100
AcDbSymbolTableRecord
100
AcDbBlockTableRecord
  2
*Paper_Space0
340
26
  0
BLOCK_RECORD
  5
7B
330
1
100
AcDbSymbolTableRecord
100
AcDbBlockTableRecord
  2
Block1
340
0
102
{BLKREFS
331
CC
102
}
  0
BLOCK_RECORD
  5
89
330
1
100
AcDbSymbolTableRecord
100
AcDbBlockTableRecord
  2
SW_NOTE_0
340
0
102
{BLKREFS
331
8F
102
}
  0
BLOCK_RECORD
  5
90
330
1
100
AcDbSymbolTableRecord
100
AcDbBlockTableRecord
  2
Block2
340
0
102
{BLKREFS
331
CD
102
}
  0
BLOCK_RECORD
  5
B0
330
1
100
AcDbSymbolTableRecord
100
AcDbBlockTableRecord
  2
SW_NOTE_0_1
340
0
102
{BLKREFS
331
B5
102
}
  0
BLOCK_RECORD
  5
B6
330
1
100
AcDbSymbolTableRecord
100
AcDbBlockTableRecord
  2
SW_NOTE_0_2
340
0
102
{BLKREFS
331
BD
102
}
  0
BLOCK_RECORD
  5
DF
330
1
100
AcDbSymbolTableRecord
100
AcDbBlockTableRecord
  2
SW_NOTE_0_3
340
0
102
{BLKREFS
331
EC
102
}
  0
BLOCK_RECORD
  5
1C9
330
1
100
AcDbSymbolTableRecord
100
AcDbBlockTableRecord
  2
_D
340
0
  0
BLOCK_RECORD
  5
1D4
330
1
100
AcDbSymbolTableRecord
100
AcDbBlockTableRecord
  2
_D_1
340
0
  0
BLOCK_RECORD
  5
1DF
330
1
100
AcDbSymbolTableRecord
100
AcDbBlockTableRecord
  2
_D_2
340
0
  0
BLOCK_RECORD
  5
40D
330
1
100
AcDbSymbolTableRecord
100
AcDbBlockTableRecord
  2
_D_3
340
0
  0
ENDTAB
  0
ENDSEC
  0
SECTION
  2
BLOCKS
  0
BLOCK
  5
20
330
1F
100
AcDbEntity
  8
0
100
AcDbBlockBegin
  2
*Model_Space
 70
     0
 10
0.0
 20
0.0
 30
0.0
  3
*Model_Space
  1

  0
ENDBLK
  5
21
330
1F
100
AcDbEntity
  8
0
100
AcDbBlockEnd
  0
BLOCK
  5
1C
330
1B
100
AcDbEntity
 67
     1
  8
0
100
AcDbBlockBegin
  2
*Paper_Space
 70
     0
 10
0.0
 20
0.0
 30
0.0
  3
*Paper_Space
  1

  0
ENDBLK
  5
1D
330
1B
100
AcDbEntity
 67
     1
  8
0
100
AcDbBlockEnd
  0
BLOCK
  5
24
330
23
100
AcDbEntity
  8
0
100
AcDbBlockBegin
  2
*Paper_Space0
 70
     0
 10
0.0
 20
0.0
 30
0.0
  3
*Paper_Space0
  1

  0
ENDBLK
  5
25
330
23
100
AcDbEntity
  8
0
100
AcDbBlockEnd
  0
BLOCK
  5
7C
330
7B
100
AcDbEntity
  8
0
100
AcDbBlockBegin
  2
Block1
 70
     0
 10
0.0
 20
0.0
 30
0.0
  3
Block1
  1

  0
CIRCLE
  5
7E
330
7B
100
AcDbEntity
  8
0
  6
Continuous
 62
     7
370
    18
100
AcDbCircle
 10
11.6137544821
 20
9.0896586992
 30
0.0
 40
1.255909011058753
  0
CIRCLE
  5
7F
330
7B
100
AcDbEntity
  8
0
  6
Continuous
 62
     7
370
    18
100
AcDbCircle
 10
11.6137544821
 20
9.0896586992
 30
0.0
 40
2.216014863655655
  0
LINE
  5
80
330
7B
100
AcDbEntity
  8
0
  6
CENTERX2
 62
     7
370
    18
100
AcDbLine
 10
11.6137544821
 20
9.0896586992
 30
0.0
 11
7.8977396184
 21
9.0896586992
 31
0.0
  0
LINE
  5
81
330
7B
100
AcDbEntity
  8
0
  6
Continuous
 62
     7
370
    18
100
AcDbLine
 10
8.165753588
 20
6.8736438356
 30
0.0
 11
8.165753588
 21
11.3071584591
 31
0.0
  0
LINE
  5
82
330
7B
100
AcDbEntity
  8
0
  6
Continuous
 62
     7
370
    18
100
AcDbLine
 10
2.6797147895
 20
10.3455677103
 30
0.0
 11
2.6797147895
 21
7.8337496881
 31
0.0
  0
LINE
  5
83
330
7B
100
AcDbEntity
  8
0
  6
Continuous
 62
     7
370
    18
100
AcDbLine
 10
2.6797147895
 20
7.8337496881
 30
0.0
 11
8.165753588
 21
6.8736438356
 31
0.0
  0
LINE
  5
84
330
7B
100
AcDbEntity
  8
0
  6
CENTERX2
 62
     7
370
    18
100
AcDbLine
 10
9.665753588
 20
9.0896586992
 30
0.0
 11
1.1797147895
 21
9.0896586992
 31
0.0
  0
LINE
  5
85
330
7B
100
AcDbEntity
  8
0
  6
Continuous
 62
     7
370
    18
100
AcDbLine
 10
8.165753588
 20
11.3071584591
 30
0.0
 11
2.6797147895
 21
10.3455677103
 31
0.0
  0
LINE
  5
86
330
7B
100
AcDbEntity
  8
0
  6
CENTERX2
 62
     7
370
    18
100
AcDbLine
 10
11.6137544821
 20
9.0896586992
 30
0.0
 11
11.6137544821
 21
5.3736438356
 31
0.0
  0
LINE
  5
87
330
7B
100
AcDbEntity
  8
0
  6
CENTERX2
 62
     7
370
    18
100
AcDbLine
 10
11.6137544821
 20
9.0896586992
 30
0.0
 11
11.6137544821
 21
12.8056735629
 31
0.0
  0
LINE
  5
88
330
7B
100
AcDbEntity
  8
0
  6
CENTERX2
 62
     7
370
    18
100
AcDbLine
 10
11.6137544821
 20
9.0896586992
 30
0.0
 11
15.3297693458
 21
9.0896586992
 31
0.0
  0
INSERT
  5
8F
330
7B
100
AcDbEntity
  8
0
  6
Continuous
 62
     7
370
     0
100
AcDbBlockReference
  2
SW_NOTE_0
 10
2.1031832889
 20
2.3754472768
 30
0.0
  0
ENDBLK
  5
7D
330
7B
100
AcDbEntity
  8
0
100
AcDbBlockEnd
  0
BLOCK
  5
8A
330
89
100
AcDbEntity
  8
0
100
AcDbBlockBegin
  2
SW_NOTE_0
 70
     0
 10
0.0
 20
0.0
 30
0.0
  3
SW_NOTE_0
  1

  0
MTEXT
  5
8D
330
89
100
AcDbEntity
  8
0
  6
Continuous
 62
     0
370
     0
100
AcDbMText
 10
6.590625
 20
2.4492287056
 30
0.0
 40
1.9
 41
0.0
 71
     2
 72
     1
  1
DIN 6  T1 - 
  7
SLDTEXTSTYLE0
 73
     1
 44
1.0
  0
MTEXT
  5
8E
330
89
100
AcDbEntity
  8
0
  6
Continuous
 62
     0
370
     0
100
AcDbMText
 10
6.6569262624
 20
0.0003397443
 30
0.0
 40
1.9
 41
0.0
 71
     2
 72
     1
  1
Proj.methode 1
  7
SLDTEXTSTYLE0
 73
     1
 44
1.0
  0
ENDBLK
  5
8B
330
89
100
AcDbEntity
  8
0
100
AcDbBlockEnd
  0
BLOCK
  5
91
330
90
100
AcDbEntity
  8
0
100
AcDbBlockBegin
  2
Block2
 70
     0
 10
0.0
 20
0.0
 30
0.0
  3
Block2
  1

  0
ARC
  5
93
330
90
100
AcDbEntity
  8
FORMAT
100
AcDbCircle
 10
236.7496365382
 20
57.0990600997
 30
0.0
 40
3.75000000000001
100
AcDbArc
 50
93.8225537293
 51
266.1774462707
  0
ARC
  5
94
330
90
100
AcDbEntity
  8
FORMAT
100
AcDbCircle
 10
236.7496365382
 20
57.0990600997
 30
0.0
 40
3.000000000000012
100
AcDbArc
 50
94.7801918472
 51
265.2198081528
  0
ARC
  5
95
330
90
100
AcDbEntity
  8
FORMAT
100
AcDbCircle
 10
236.7496365382
 20
57.0990600997
 30
0.0
 40
3.75000000000001
100
AcDbArc
 50
273.8225537293
 51
86.1774462707
  0
ARC
  5
96
330
90
100
AcDbEntity
  8
FORMAT
100
AcDbCircle
 10
236.7496365382
 20
57.0990600997
 30
0.0
 40
3.000000000000012
100
AcDbArc
 50
274.7801918472
 51
85.2198081528
  0
ARC
  5
97
330
90
100
AcDbEntity
  8
FORMAT
100
AcDbCircle
 10
236.7496365382
 20
58.2320416436
 30
0.0
 40
0.8604027828068846
100
AcDbArc
 50
304.8395134495
 51
73.1084194601
  0
ARC
  5
98
330
90
100
AcDbEntity
  8
FORMAT
100
AcDbCircle
 10
236.7496365382
 20
58.2320416436
 30
0.0
 40
1.402314431660661
100
AcDbArc
 50
313.8988153445
 51
79.7306010333
  0
ARC
  5
99
330
90
100
AcDbEntity
  8
FORMAT
100
AcDbCircle
 10
236.7496365382
 20
55.4979572256
 30
0.0
 40
0.4915306686725103
100
AcDbArc
 50
300.5716370086
 51
0.0
  0
ARC
  5
9A
330
90
100
AcDbEntity
  8
FORMAT
100
AcDbCircle
 10
236.7496365382
 20
58.2320416436
 30
0.0
 40
1.402314431660661
100
AcDbArc
 50
100.2693989667
 51
226.1011846555
  0
ARC
  5
9B
330
90
100
AcDbEntity
  8
FORMAT
100
AcDbCircle
 10
236.7496365382
 20
55.4979572256
 30
0.0
 40
0.9723464985416115
100
AcDbArc
 50
180.0
 51
255.1013518888
  0
ARC
  5
9C
330
90
100
AcDbEntity
  8
FORMAT
100
AcDbCircle
 10
236.7496365382
 20
55.4979572256
 30
0.0
 40
0.9723464985416115
100
AcDbArc
 50
284.8986481112
 51
0.0
  0
ARC
  5
9D
330
90
100
AcDbEntity
  8
FORMAT
100
AcDbCircle
 10
236.7496365382
 20
55.4979572256
 30
0.0
 40
0.4915306686725099
100
AcDbArc
 50
180.0
 51
239.4283629914
  0
ARC
  5
9E
330
90
100
AcDbEntity
  8
FORMAT
100
AcDbCircle
 10
236.7496365382
 20
58.2320416436
 30
0.0
 40
0.8604027828068846
100
AcDbArc
 50
106.8915805399
 51
235.1604865505
  0
LINE
  5
9F
330
90
100
AcDbEntity
  8
FORMAT
100
AcDbLine
 10
232.5312401271
 20
52.8806636887
 30
0.0
 11
240.9680329492
 21
52.8806636887
 31
0.0
  0
LINE
  5
A0
330
90
100
AcDbEntity
  8
FORMAT
100
AcDbLine
 10
232.5312401271
 20
61.3174565107
 30
0.0
 11
240.9680329492
 21
61.3174565107
 31
0.0
  0
LINE
  5
A1
330
90
100
AcDbEntity
  8
FORMAT
100
AcDbLine
 10
232.5312401271
 20
61.3174565107
 30
0.0
 11
232.5312401271
 21
52.8806636887
 31
0.0
  0
LINE
  5
A2
330
90
100
AcDbEntity
  8
FORMAT
100
AcDbLine
 10
240.9680329492
 20
61.3174565107
 30
0.0
 11
240.9680329492
 21
52.8806636887
 31
0.0
  0
LINE
  5
A3
330
90
100
AcDbEntity
  8
FORMAT
100
AcDbLine
 10
236.4996365382
 20
60.8407174865
 30
0.0
 11
236.4996365382
 21
60.0886252855
 31
0.0
  0
LINE
  5
A4
330
90
100
AcDbEntity
  8
FORMAT
100
AcDbLine
 10
236.9996365382
 20
60.8407174865
 30
0.0
 11
236.9996365382
 21
60.0886252855
 31
0.0
  0
LINE
  5
A5
330
90
100
AcDbEntity
  8
FORMAT
100
AcDbLine
 10
236.4996365382
 20
54.1094949139
 30
0.0
 11
236.4996365382
 21
53.3574027129
 31
0.0
  0
LINE
  5
A6
330
90
100
AcDbEntity
  8
FORMAT
100
AcDbLine
 10
236.9996365382
 20
54.1094949139
 30
0.0
 11
236.9996365382
 21
53.3574027129
 31
0.0
  0
LINE
  5
A7
330
90
100
AcDbEntity
  8
FORMAT
100
AcDbLine
 10
236.9996365382
 20
59.6118915504
 30
0.0
 11
236.9996365382
 21
59.0553234597
 31
0.0
  0
LINE
  5
A8
330
90
100
AcDbEntity
  8
FORMAT
100
AcDbLine
 10
236.4996365382
 20
59.6118915504
 30
0.0
 11
236.4996365382
 21
59.0553234597
 31
0.0
  0
LINE
  5
A9
330
90
100
AcDbEntity
  8
FORMAT
100
AcDbLine
 10
235.7772900396
 20
55.4979572256
 30
0.0
 11
235.7772900396
 21
57.2215823164
 31
0.0
  0
LINE
  5
AA
330
90
100
AcDbEntity
  8
FORMAT
100
AcDbLine
 10
237.7219830367
 20
55.4979572256
 30
0.0
 11
237.7219830367
 21
57.2215823164
 31
0.0
  0
LINE
  5
AB
330
90
100
AcDbEntity
  8
FORMAT
100
AcDbLine
 10
237.2411672068
 20
55.4979572256
 30
0.0
 11
237.2411672068
 21
57.5258613901
 31
0.0
  0
LINE
  5
AC
330
90
100
AcDbEntity
  8
FORMAT
100
AcDbLine
 10
236.2581058695
 20
55.4979572256
 30
0.0
 11
236.2581058695
 21
57.5258613901
 31
0.0
  0
LINE
  5
AD
330
90
100
AcDbEntity
  8
FORMAT
100
AcDbLine
 10
236.4996365382
 20
55.0747523127
 30
0.0
 11
236.4996365382
 21
54.5582989296
 31
0.0
  0
LINE
  5
AE
330
90
100
AcDbEntity
  8
FORMAT
100
AcDbLine
 10
236.9996365382
 20
55.0747523127
 30
0.0
 11
236.9996365382
 21
54.5582989296
 31
0.0
  0
HATCH
  5
AF
330
90
100
AcDbEntity
  8
FORMAT
100
AcDbHatch
 10
0.0
 20
0.0
 30
0.0
210
0.0
220
0.0
230
1.0
  2
SOLID
 70
     1
 71
     0
 91
        5
 92
        0
 93
        4
 72
     1
 10
240.9680329492058
 20
61.31745651073599
 11
240.9680329492058
 21
52.88066368865002
 72
     1
 10
240.9680329492058
 20
52.88066368865002
 11
232.5312401271199
 21
52.88066368865002
 72
     1
 10
232.5312401271199
 20
52.88066368865002
 11
232.5312401271199
 21
61.31745651073599
 72
     1
 10
232.5312401271199
 20
61.31745651073599
 11
240.9680329492058
 21
61.31745651073599
 97
        0
 92
        0
 93
        4
 72
     2
 10
236.7496365381628
 20
57.09906009969301
 40
3.000000000000011
 50
94.78019184719915
 51
265.2198081528016
 73
     0
 72
     1
 10
236.4996365381628
 20
60.08862528546836
 11
236.4996365381628
 21
60.84071748646695
 72
     2
 10
236.7496365381628
 20
57.09906009969301
 40
3.750000000000007
 50
93.82255372927435
 51
266.1774462707265
 73
     1
 72
     1
 10
236.4996365381628
 20
53.35740271291905
 11
236.4996365381628
 21
54.10949491391764
 97
        0
 92
        0
 93
        8
 72
     1
 10
237.7219830367044
 20
55.49795722557887
 11
237.7219830367044
 21
57.22158231636488
 72
     2
 10
236.7496365381628
 20
58.23204164361047
 40
1.402314431660656
 50
313.8988153445118
 51
439.730601033339
 73
     1
 72
     1
 10
236.9996365381628
 20
59.61189155039155
 11
236.9996365381628
 21
59.05532345967459
 72
     2
 10
236.7496365381628
 20
58.23204164361047
 40
0.8604027828068782
 50
286.8915805399266
 51
415.1604865505413
 73
     0
 72
     1
 10
237.2411672068353
 20
57.52586139012261
 11
237.2411672068353
 21
55.49795722557887
 72
     2
 10
236.7496365381628
 20
55.49795722557887
 40
0.4915306686725041
 50
0.0
 51
59.42836299135124
 73
     0
 72
     1
 10
236.9996365381628
 20
55.07475231274628
 11
236.9996365381628
 21
54.55829892958712
 72
     2
 10
236.7496365381628
 20
55.49795722557887
 40
0.9723464985416097
 50
284.8986481111874
 51
360.0000000000008
 73
     1
 97
        0
 92
        0
 93
        8
 72
     2
 10
236.7496365381628
 20
55.49795722557887
 40
0.4915306686725041
 50
120.5716370086484
 51
180.0
 73
     0
 72
     1
 10
236.2581058694904
 20
55.49795722557887
 11
236.2581058694904
 21
57.52586139012261
 72
     2
 10
236.7496365381628
 20
58.23204164361047
 40
0.8604027828068782
 50
124.839513449458
 51
253.108419460075
 73
     0
 72
     1
 10
236.4996365381628
 20
59.05532345967459
 11
236.4996365381628
 21
59.61189155039155
 72
     2
 10
236.7496365381628
 20
58.23204164361047
 40
1.402314431660656
 50
100.2693989666618
 51
226.1011846554898
 73
     1
 72
     1
 10
235.7772900396212
 20
57.22158231636488
 11
235.7772900396212
 21
55.49795722557887
 72
     2
 10
236.7496365381628
 20
55.49795722557887
 40
0.9723464985416097
 50
180.0
 51
255.1013518888143
 73
     1
 72
     1
 10
236.4996365381628
 20
54.55829892958712
 11
236.4996365381628
 21
55.07475231274628
 97
        0
 92
        0
 93
        4
 72
     2
 10
236.7496365381628
 20
57.09906009969301
 40
3.000000000000011
 50
274.7801918471999
 51
445.2198081528016
 73
     0
 72
     1
 10
236.9996365381628
 20
54.10949491391764
 11
236.9996365381628
 21
53.35740271291905
 72
     2
 10
236.7496365381628
 20
57.09906009969301
 40
3.750000000000007
 50
273.8225537292751
 51
446.1774462707265
 73
     1
 72
     1
 10
236.9996365381628
 20
60.84071748646695
 11
236.9996365381628
 21
60.08862528546836
 97
        0
 75
     0
 76
     1
 98
        1
 10
0.0
 20
0.0
  0
INSERT
  5
B5
330
90
100
AcDbEntity
  8
FORMAT
 62
     7
100
AcDbBlockReference
  2
SW_NOTE_0_1
 10
232.2514665163
 20
47.7232938825
 30
0.0
  0
INSERT
  5
BD
330
90
100
AcDbEntity
  8
0
  6
Continuous
 62
     7
370
     0
100
AcDbBlockReference
  2
SW_NOTE_0_2
 10
244.0723034979
 20
57.1176018272
 30
0.0
  0
ENDBLK
  5
92
330
90
100
AcDbEntity
  8
0
100
AcDbBlockEnd
  0
BLOCK
  5
B1
330
B0
100
AcDbEntity
  8
0
100
AcDbBlockBegin
  2
SW_NOTE_0_1
 70
     0
 10
0.0
 20
0.0
 30
0.0
  3
SW_NOTE_0_1
  1

  0
MTEXT
  5
B4
330
B0
100
AcDbEntity
  8
FORMAT
 62
     0
100
AcDbMText
 10
0.0
 20
3.8651911469
 30
0.0
 40
3.0
 41
0.0
 71
     1
 72
     1
  1
ECO
  7
SLDTEXTSTYLE1
 73
     1
 44
1.0
  0
ENDBLK
  5
B2
330
B0
100
AcDbEntity
  8
0
100
AcDbBlockEnd
  0
BLOCK
  5
B7
330
B6
100
AcDbEntity
  8
0
100
AcDbBlockBegin
  2
SW_NOTE_0_2
 70
     0
 10
0.0
 20
0.0
 30
0.0
  3
SW_NOTE_0_2
  1

  0
MTEXT
  5
BA
330
B6
100
AcDbEntity
  8
0
  6
Continuous
 62
     0
370
     0
100
AcDbMText
 10
0.0
 20
3.2226693494
 30
0.0
 40
2.5
 41
0.0
 71
     1
 72
     1
  1
ECO Schulte GmbH & Co. KG
  7
SLDTEXTSTYLE2
 73
     1
 44
1.0
  0
MTEXT
  5
BB
330
B6
100
AcDbEntity
  8
0
  6
Continuous
 62
     0
370
     0
100
AcDbMText
 10
0.0
 20
-0.2773307586
 30
0.0
 40
2.5
 41
0.0
 71
     1
 72
     1
  1
Postfach 206
  7
SLDTEXTSTYLE2
 73
     1
 44
1.0
  0
MTEXT
  5
BC
330
B6
100
AcDbEntity
  8
0
  6
Continuous
 62
     0
370
     0
100
AcDbMText
 10
0.0
 20
-3.7773308666
 30
0.0
 40
2.5
 41
0.0
 71
     1
 72
     1
  1
58682 Menden
  7
SLDTEXTSTYLE2
 73
     1
 44
1.0
  0
ENDBLK
  5
B8
330
B6
100
AcDbEntity
  8
0
100
AcDbBlockEnd
  0
BLOCK
  5
E0
330
DF
100
AcDbEntity
  8
0
100
AcDbBlockBegin
  2
SW_NOTE_0_3
 70
     0
 10
0.0
 20
0.0
 30
0.0
  3
SW_NOTE_0_3
  1

  0
MTEXT
  5
E2
330
DF
100
AcDbEntity
  8
FORMAT
 62
     0
100
AcDbMText
 10
0.0
 20
2.5781354795
 30
0.0
 40
2.0
 41
0.0
 71
     1
 72
     1
  1
Technische Änderungen und Irrtümer vorbehalten. Aus dem Gebrauch 
  7
SLDTEXTSTYLE0
 73
     1
 44
1.0
  0
MTEXT
  5
E3
330
DF
100
AcDbEntity
  8
FORMAT
 62
     0
100
AcDbMText
 10
0.0
 20
-0.4218645465
 30
0.0
 40
2.0
 41
0.0
 71
     1
 72
     1
  1
der Zeichnung können keinerlei Ansprüche (inkl. Schadenersatz-
  7
SLDTEXTSTYLE0
 73
     1
 44
1.0
  0
MTEXT
  5
E4
330
DF
100
AcDbEntity
  8
FORMAT
 62
     0
100
AcDbMText
 10
0.0
 20
-3.4218645726
 30
0.0
 40
2.0
 41
0.0
 71
     1
 72
     1
  1
ansprüche) erhoben und gegen ECO Schulte geltend gemacht werden. 
  7
SLDTEXTSTYLE0
 73
     1
 44
1.0
  0
MTEXT
  5
E5
330
DF
100
AcDbEntity
  8
FORMAT
 62
     0
100
AcDbMText
 10
0.0
 20
-6.4218645987
 30
0.0
 40
2.0
 41
0.0
 71
     1
 72
     1
  1
Die Zeichnung bleibt unser Eigentum. Sämtliche sich aus der 
  7
SLDTEXTSTYLE0
 73
     1
 44
1.0
  0
MTEXT
  5
E6
330
DF
100
AcDbEntity
  8
FORMAT
 62
     0
100
AcDbMText
 10
0.0
 20
-9.4218646248
 30
0.0
 40
2.0
 41
0.0
 71
     1
 72
     1
  1
Zeichnung ergebenden Ansprüche stehen ausschließlich ECO Schulte 
  7
SLDTEXTSTYLE0
 73
     1
 44
1.0
  0
MTEXT
  5
E7
330
DF
100
AcDbEntity
  8
FORMAT
 62
     0
100
AcDbMText
 10
0.0
 20
-12.4218646508
 30
0.0
 40
2.0
 41
0.0
 71
     1
 72
     1
  1
zu. 
  7
SLDTEXTSTYLE0
 73
     1
 44
1.0
  0
MTEXT
  5
E8
330
DF
100
AcDbEntity
  8
FORMAT
 62
     0
100
AcDbMText
 10
0.0
 20
-18.421864703
 30
0.0
 40
2.0
 41
0.0
 71
     1
 72
     1
  1
Technical changes and errors excepted. No claims (including 
  7
SLDTEXTSTYLE0
 73
     1
 44
1.0
  0
MTEXT
  5
E9
330
DF
100
AcDbEntity
  8
FORMAT
 62
     0
100
AcDbMText
 10
0.0
 20
-21.4218647291
 30
0.0
 40
2.0
 41
0.0
 71
     1
 72
     1
  1
compensation claims) may be raised against ECO Schulte by using of 
  7
SLDTEXTSTYLE0
 73
     1
 44
1.0
  0
MTEXT
  5
EA
330
DF
100
AcDbEntity
  8
FORMAT
 62
     0
100
AcDbMText
 10
0.0
 20
-24.4218647551
 30
0.0
 40
2.0
 41
0.0
 71
     1
 72
     1
  1
this drawing. The drawing remains the property of ECO Schulte. All 
  7
SLDTEXTSTYLE0
 73
     1
 44
1.0
  0
MTEXT
  5
EB
330
DF
100
AcDbEntity
  8
FORMAT
 62
     0
100
AcDbMText
 10
0.0
 20
-27.4218647812
 30
0.0
 40
2.0
 41
0.0
 71
     1
 72
     1
  1
claims resulting from this drawing are solely entitled to ECO Schulte.
  7
SLDTEXTSTYLE0
 73
     1
 44
1.0
  0
ENDBLK
  5
E1
330
DF
100
AcDbEntity
  8
0
100
AcDbBlockEnd
  0
BLOCK
  5
1CA
330
1C9
100
AcDbEntity
  8
0
100
AcDbBlockBegin
  2
_D
 70
     0
 10
0.0
 20
0.0
 30
0.0
  3
_D
  1

  0
SOLID
  5
1CC
330
1C9
100
AcDbEntity
  8
FORMAT
 62
     7
100
AcDbTrace
 10
122.3763826708
 20
240.3555707893
 30
0.0
 11
121.8683826708
 21
237.0535707893
 31
0.0
 12
122.8843826708
 22
237.0535707893
 32
0.0
 13
122.8843826708
 23
237.0535707893
 33
0.0
  0
SOLID
  5
1CD
330
1C9
100
AcDbEntity
  8
FORMAT
 62
     7
100
AcDbTrace
 10
122.3763826708
 20
227.3555707893
 30
0.0
 11
122.8843826708
 21
230.6575707893
 31
0.0
 12
121.8683826708
 22
230.6575707893
 32
0.0
 13
121.8683826708
 23
230.6575707893
 33
0.0
  0
LINE
  5
1CE
330
1C9
100
AcDbEntity
  8
FORMAT
 62
     7
100
AcDbLine
 10
110.4325813738
 20
240.3555707893
 30
0.0
 11
123.3763826708
 21
240.3555707893
 31
0.0
  0
LINE
  5
1CF
330
1C9
100
AcDbEntity
  8
FORMAT
 62
     7
100
AcDbLine
 10
110.3191320925
 20
227.3555707893
 30
0.0
 11
123.3763826708
 21
227.3555707893
 31
0.0
  0
LINE
  5
1D0
330
1C9
100
AcDbEntity
  8
FORMAT
 62
     7
100
AcDbLine
 10
122.3763826708
 20
240.3555707893
 30
0.0
 11
122.3763826708
 21
227.3555707893
 31
0.0
  0
MTEXT
  5
1D1
330
1C9
100
AcDbEntity
  8
FORMAT
 62
     7
100
AcDbMText
 10
117.8646453488
 20
231.1819597444
 30
0.0
 40
3.5
 41
0.0
 71
     1
 72
     1
  1
13
  7
SLDTEXTSTYLE0
 11
-7.044195017643634E-15
 21
1.0
 31
0.0
 73
     1
 44
1.0
  0
ENDBLK
  5
1CB
330
1C9
100
AcDbEntity
  8
0
100
AcDbBlockEnd
  0
BLOCK
  5
1D5
330
1D4
100
AcDbEntity
  8
0
100
AcDbBlockBegin
  2
_D_1
 70
     0
 10
0.0
 20
0.0
 30
0.0
  3
_D_1
  1

  0
SOLID
  5
1D7
330
1D4
100
AcDbEntity
  8
FORMAT
 62
     7
100
AcDbTrace
 10
23.8243039807
 20
223.4555707893
 30
0.0
 11
24.3323039807
 21
226.7575707893
 31
0.0
 12
23.3163039807
 22
226.7575707893
 32
0.0
 13
23.3163039807
 23
226.7575707893
 33
0.0
  0
SOLID
  5
1D8
330
1D4
100
AcDbEntity
  8
FORMAT
 62
     7
100
AcDbTrace
 10
23.8243039807
 20
272.3522168642
 30
0.0
 11
23.3163039807
 21
269.0502168642
 31
0.0
 12
24.3323039807
 22
269.0502168642
 32
0.0
 13
24.3323039807
 23
269.0502168642
 33
0.0
  0
LINE
  5
1D9
330
1D4
100
AcDbEntity
  8
FORMAT
 62
     7
100
AcDbLine
 10
32.0691320925
 20
223.4555707893
 30
0.0
 11
22.8243039807
 21
223.4555707893
 31
0.0
  0
LINE
  5
1DA
330
1D4
100
AcDbEntity
  8
FORMAT
 62
     7
100
AcDbLine
 10
69.5691320925
 20
272.3522168642
 30
0.0
 11
22.8243039807
 21
272.3522168642
 31
0.0
  0
LINE
  5
1DB
330
1D4
100
AcDbEntity
  8
FORMAT
 62
     7
100
AcDbLine
 10
23.8243039807
 20
223.4555707893
 30
0.0
 11
23.8243039807
 21
272.3522168642
 31
0.0
  0
MTEXT
  5
1DC
330
1D4
100
AcDbEntity
  8
FORMAT
 62
     7
100
AcDbMText
 10
19.3125666587
 20
245.2302827818
 30
0.0
 40
3.5
 41
0.0
 71
     1
 72
     1
  1
49
  7
SLDTEXTSTYLE0
 11
6.123233995736766E-17
 21
1.0
 31
0.0
 73
     1
 44
1.0
  0
ENDBLK
  5
1D6
330
1D4
100
AcDbEntity
  8
0
100
AcDbBlockEnd
  0
BLOCK
  5
1E0
330
1DF
100
AcDbEntity
  8
0
100
AcDbBlockBegin
  2
_D_2
 70
     0
 10
0.0
 20
0.0
 30
0.0
  3
_D_2
  1

  0
SOLID
  5
1E2
330
1DF
100
AcDbEntity
  8
FORMAT
 62
     7
100
AcDbTrace
 10
122.3763826708
 20
223.4555707893
 30
0.0
 11
121.8683826708
 21
220.1535707893
 31
0.0
 12
122.8843826708
 22
220.1535707893
 32
0.0
 13
122.8843826708
 23
220.1535707893
 33
0.0
  0
SOLID
  5
1E3
330
1DF
100
AcDbEntity
  8
FORMAT
 62
     7
100
AcDbTrace
 10
122.3763826708
 20
227.4555707893
 30
0.0
 11
122.8843826708
 21
230.7575707893
 31
0.0
 12
121.8683826708
 22
230.7575707893
 32
0.0
 13
121.8683826708
 23
230.7575707893
 33
0.0
  0
LINE
  5
1E4
330
1DF
100
AcDbEntity
  8
FORMAT
 62
     7
100
AcDbLine
 10
109.0691320925
 20
223.4555707893
 30
0.0
 11
123.3763826708
 21
223.4555707893
 31
0.0
  0
LINE
  5
1E5
330
1DF
100
AcDbEntity
  8
FORMAT
 62
     7
100
AcDbLine
 10
109.0691320925
 20
227.4555707893
 30
0.0
 11
123.3763826708
 21
227.4555707893
 31
0.0
  0
LINE
  5
1E6
330
1DF
100
AcDbEntity
  8
FORMAT
 62
     7
100
AcDbLine
 10
122.3763826708
 20
223.4555707893
 30
0.0
 11
122.3763826708
 21
216.6345690658
 31
0.0
  0
LINE
  5
1E7
330
1DF
100
AcDbEntity
  8
FORMAT
 62
     7
100
AcDbLine
 10
122.3763826708
 20
223.4555707893
 30
0.0
 11
122.3763826708
 21
227.4555707893
 31
0.0
  0
LINE
  5
1E8
330
1DF
100
AcDbEntity
  8
FORMAT
 62
     7
100
AcDbLine
 10
122.3763826708
 20
227.4555707893
 30
0.0
 11
122.3763826708
 21
233.8055707893
 31
0.0
  0
MTEXT
  5
1E9
330
1DF
100
AcDbEntity
  8
FORMAT
 62
     7
100
AcDbMText
 10
117.8646453488
 20
216.6345690658
 30
0.0
 40
3.5
 41
0.0
 71
     1
 72
     1
  1
4
  7
SLDTEXTSTYLE0
 11
6.123233995736766E-17
 21
1.0
 31
0.0
 73
     1
 44
1.0
  0
ENDBLK
  5
1E1
330
1DF
100
AcDbEntity
  8
0
100
AcDbBlockEnd
  0
BLOCK
  5
40E
330
40D
100
AcDbEntity
  8
0
100
AcDbBlockBegin
  2
_D_3
 70
     0
 10
0.0
 20
0.0
 30
0.0
  3
_D_3
  1

  0
SOLID
  5
410
330
40D
100
AcDbEntity
  8
FORMAT
 62
     7
100
AcDbTrace
 10
110.5272765434
 20
203.1608084962
 30
0.0
 11
107.2248050719
 21
203.6657344112
 31
0.0
 12
107.2257508765
 22
202.6497348514
 32
0.0
 13
107.2257508765
 23
202.6497348514
 33
0.0
  0
SOLID
  5
411
330
40D
100
AcDbEntity
  8
FORMAT
 62
     7
100
AcDbTrace
 10
30.5273112072
 20
203.0863356934
 30
0.0
 11
33.8297826787
 21
202.5814097784
 31
0.0
 12
33.8288368741
 22
203.5974093382
 32
0.0
 13
33.8288368741
 23
203.5974093382
 33
0.0
  0
LINE
  5
412
330
40D
100
AcDbEntity
  8
FORMAT
 62
     7
100
AcDbLine
 10
110.5681838506
 20
159.2174757761
 30
0.0
 11
110.5263456334
 21
204.1608080629
 31
0.0
  0
LINE
  5
413
330
40D
100
AcDbEntity
  8
FORMAT
 62
     7
100
AcDbLine
 10
30.5682185144
 20
159.1430029733
 30
0.0
 11
30.5263802972
 21
204.0863352601
 31
0.0
  0
LINE
  5
414
330
40D
100
AcDbEntity
  8
FORMAT
 62
     7
100
AcDbLine
 10
110.5272765434
 20
203.1608084962
 30
0.0
 11
30.5273112072
 21
203.0863356934
 31
0.0
  0
MTEXT
  5
415
330
40D
100
AcDbEntity
  8
FORMAT
 62
     7
100
AcDbMText
 10
65.2980095333
 20
207.6304431435
 30
0.0
 40
3.5
 41
0.0
 71
     1
 72
     1
  1
%%c
  7
SLDTEXTSTYLE0
 11
0.9999995667031587
 21
0.0009309100358841573
 31
0.0
 73
     1
 44
1.0
  0
MTEXT
  5
416
330
40D
100
AcDbEntity
  8
FORMAT
 62
     7
100
AcDbMText
 10
70.4009498169
 20
207.6449158373
 30
0.0
 40
3.5
 41
0.0
 71
     1
 72
     1
  1
80
  7
SLDTEXTSTYLE0
 11
0.9999995667031587
 21
0.0009309100358841573
 31
0.0
 73
     1
 44
1.0
  0
ENDBLK
  5
40F
330
40D
100
AcDbEntity
  8
0
100
AcDbBlockEnd
  0
ENDSEC
  0
SECTION
  2
ENTITIES
  0
LINE
  5
BE
330
1F
100
AcDbEntity
  8
FORMAT
  6
Continuous
 62
     7
370
    18
100
AcDbLine
 10
168.2233544162
 20
35.6464717326
 30
0.0
 11
100.034011087
 21
35.6464717326
 31
0.0
  0
LINE
  5
BF
330
1F
100
AcDbEntity
  8
FORMAT
  6
Continuous
 62
     7
370
    18
100
AcDbLine
 10
168.2233544162
 20
48.7420674192
 30
0.0
 11
199.7748262501
 21
48.7420674192
 31
0.0
  0
LINE
  5
C0
330
1F
100
AcDbEntity
  8
FORMAT
  6
Continuous
 62
     7
370
    18
100
AcDbLine
 10
154.5410273733
 20
35.6464717326
 30
0.0
 11
154.5410273733
 21
25.9765524102
 31
0.0
  0
LINE
  5
C1
330
1F
100
AcDbEntity
  8
BEMASSUNG
  6
Continuous
 62
     7
370
    18
100
AcDbLine
 10
168.2233544162
 20
40.5638075942
 30
0.0
 11
199.7748262501
 21
40.5638075942
 31
0.0
  0
LINE
  5
C2
330
1F
100
AcDbEntity
  8
FORMAT
100
AcDbLine
 10
9.9438597858
 20
287.0
 30
0.0
 11
9.9438597858
 21
10.0
 31
0.0
  0
LINE
  5
C3
330
1F
100
AcDbEntity
  8
FORMAT
 62
     7
370
    18
100
AcDbLine
 10
100.034011087
 20
52.6963884738
 30
0.0
 11
100.034011087
 21
10.0
 31
0.0
  0
LINE
  5
C4
330
1F
100
AcDbEntity
  8
FORMAT
 62
     7
100
AcDbLine
 10
185.0302857672
 20
10.0
 30
0.0
 11
185.0302857672
 21
19.3470401503
 31
0.0
  0
LINE
  5
C5
330
1F
100
AcDbEntity
  8
FORMAT
 62
     7
100
AcDbLine
 10
100.034011087
 20
25.9765524102
 30
0.0
 11
199.7748262501
 21
25.9765524102
 31
0.0
  0
LINE
  5
C6
330
1F
100
AcDbEntity
  8
FORMAT
 62
     7
100
AcDbLine
 10
168.2233544162
 20
19.3470401503
 30
0.0
 11
199.7748262501
 21
19.3470401503
 31
0.0
  0
LINE
  5
C7
330
1F
100
AcDbEntity
  8
FORMAT
100
AcDbLine
 10
9.9438597858
 20
10.0
 30
0.0
 11
199.9438597858
 21
10.0
 31
0.0
  0
LINE
  5
C8
330
1F
100
AcDbEntity
  8
FORMAT
 62
     7
100
AcDbLine
 10
100.034011087
 20
52.6963884738
 30
0.0
 11
199.7882081366
 21
52.6963884738
 31
0.0
  0
LINE
  5
C9
330
1F
100
AcDbEntity
  8
FORMAT
 62
     7
100
AcDbLine
 10
168.2233544162
 20
10.0
 30
0.0
 11
168.2233544162
 21
52.6963884738
 31
0.0
  0
LINE
  5
CA
330
1F
100
AcDbEntity
  8
FORMAT
100
AcDbLine
 10
199.9438597858
 20
10.0
 30
0.0
 11
199.9438597858
 21
287.0
 31
0.0
  0
LINE
  5
CB
330
1F
100
AcDbEntity
  8
FORMAT
100
AcDbLine
 10
199.9438597858
 20
287.0
 30
0.0
 11
9.9438597858
 21
287.0
 31
0.0
  0
INSERT
  5
CC
330
1F
100
AcDbEntity
  8
FORMAT
100
AcDbBlockReference
  2
Block1
 10
175.6328999998
 20
27.0956685316
 30
0.0
  0
INSERT
  5
CD
330
1F
100
AcDbEntity
  8
FORMAT
100
AcDbBlockReference
  2
Block2
 10
-130.7567167495
 20
-36.9711154434
 30
0.0
  0
MTEXT
  5
CF
330
1F
100
AcDbEntity
  8
0
  6
Continuous
 62
     7
370
     0
100
AcDbMText
 10
101.379344253
 20
31.2497388993
 30
0.0
 40
3.175
 41
0.0
 71
     1
 72
     1
  1
D007-53004
  7
SLDTEXTSTYLE3
 73
     1
 44
1.0
  0
MTEXT
  5
D0
330
1F
100
AcDbEntity
  8
BEMASSUNG
 62
     7
100
AcDbMText
 10
169.1138237549
 20
47.9795870073
 30
0.0
 40
2.0
 41
0.0
 71
     1
 72
     1
  1
Ausführung:
  7
SLDTEXTSTYLE0
 73
     1
 44
1.0
  0
MTEXT
  5
D1
330
1F
100
AcDbEntity
  8
FORMAT
100
AcDbMText
 10
157.9048085267
 20
34.4345411691
 30
0.0
 40
2.0
 41
0.0
 71
     1
 72
     1
  1
Index:
  7
SLDTEXTSTYLE0
 73
     1
 44
1.0
  0
MTEXT
  5
D2
330
1F
100
AcDbEntity
  8
FORMAT
100
AcDbMText
 10
170.7771570289
 20
51.6009600552
 30
0.0
 40
1.8
 41
0.0
 71
     1
 72
     1
  1
KATALOGZEICHNUNG
  7
SLDTEXTSTYLE3
 73
     1
 44
1.0
  0
MTEXT
  5
D3
330
1F
100
AcDbEntity
  8
FORMAT
100
AcDbMText
 10
101.6738581533
 20
34.7696723378
 30
0.0
 40
2.0
 41
0.0
 71
     1
 72
     1
  1
Zeichnungsnummer:
  7
SLDTEXTSTYLE0
 73
     1
 44
1.0
  0
MTEXT
  5
D4
330
1F
100
AcDbEntity
  8
FORMAT
100
AcDbMText
 10
178.7654032586
 20
14.2806067945
 30
0.0
 40
2.1166666667
 41
0.0
 71
     1
 72
     1
  1
1
  7
SLDTEXTSTYLE0
 73
     1
 44
1.0
  0
MTEXT
  5
D5
330
1F
100
AcDbEntity
  8
FORMAT
100
AcDbMText
 10
172.6928815371
 20
14.2806067945
 30
0.0
 40
2.1166666667
 41
0.0
 71
     1
 72
     1
  1
1
  7
SLDTEXTSTYLE0
 73
     1
 44
1.0
  0
MTEXT
  5
D6
330
1F
100
AcDbEntity
  8
FORMAT
100
AcDbMText
 10
190.3665335114
 20
14.1724992936
 30
0.0
 40
2.1166666667
 41
0.0
 71
     1
 72
     1
  1
A4
  7
SLDTEXTSTYLE0
 73
     1
 44
1.0
  0
MTEXT
  5
D7
330
1F
100
AcDbEntity
  8
FORMAT
100
AcDbMText
 10
183.0445761222
 20
23.7012230636
 30
0.0
 40
2.1166666667
 41
0.0
 71
     1
 72
     1
  1
1:1
  7
SLDTEXTSTYLE0
 73
     1
 44
1.0
  0
MTEXT
  5
D8
330
1F
100
AcDbEntity
  8
FORMAT
100
AcDbMText
 10
176.4699079998
 20
14.3853488894
 30
0.0
 40
2.5
 41
0.0
 71
     2
 72
     1
  1
/
  7
SLDTEXTSTYLE0
 73
     1
 44
1.0
  0
MTEXT
  5
D9
330
1F
100
AcDbEntity
  8
FORMAT
100
AcDbMText
 10
170.4739006917
 20
17.8898077508
 30
0.0
 40
2.0
 41
0.0
 71
     1
 72
     1
  1
Blatt / von
  7
SLDTEXTSTYLE0
 73
     1
 44
1.0
  0
MTEXT
  5
DA
330
1F
100
AcDbEntity
  8
FORMAT
100
AcDbMText
 10
101.4386342429
 20
51.292111694
 30
0.0
 40
2.0
 41
0.0
 71
     1
 72
     1
  1
Benennung:
  7
SLDTEXTSTYLE0
 73
     1
 44
1.0
  0
MTEXT
  5
DB
330
1F
100
AcDbEntity
  8
FORMAT
100
AcDbMText
 10
187.8238638594
 20
17.8898077508
 30
0.0
 40
2.0
 41
0.0
 71
     1
 72
     1
  1
Format
  7
SLDTEXTSTYLE0
 73
     1
 44
1.0
  0
MTEXT
  5
DC
330
1F
100
AcDbEntity
  8
FORMAT
100
AcDbMText
 10
169.1523306895
 20
23.5727761737
 30
0.0
 40
2.0
 41
0.0
 71
     1
 72
     1
  1
Maßstab:
  7
SLDTEXTSTYLE0
 73
     1
 44
1.0
  0
MTEXT
  5
DD
330
1F
100
AcDbEntity
  8
FORMAT
100
AcDbMText
 10
101.3063537626
 20
47.9174905769
 30
0.0
 40
3.5
 41
0.0
 71
     1
 72
     1
  1
ORS 142
  7
SLDTEXTSTYLE3
 73
     1
 44
1.0
  0
MTEXT
  5
DE
330
1F
100
AcDbEntity
  8
FORMAT
100
AcDbMText
 10
101.3063537626
 20
43.3217919868
 30
0.0
 40
2.5
 41
0.0
 71
     1
 72
     1
  1
Deckenrauchschalter
  7
SLDTEXTSTYLE3
 73
     1
 44
1.0
  0
INSERT
  5
EC
330
1F
100
AcDbEntity
  8
FORMAT
100
AcDbBlockReference
  2
SW_NOTE_0_3
 10
11.7828650021
 20
40.9161213672
 30
0.0
  0
LINE
  5
ED
330
1F
100
AcDbEntity
  8
0
  6
Continuous
 62
     7
370
    25
100
AcDbLine
 10
44.4691320925
 20
261.3555707893
 30
0.0
 11
44.4691320925
 21
249.3555707893
 31
0.0
  0
LINE
  5
EE
330
1F
100
AcDbEntity
  8
0
  6
Continuous
 62
     7
370
    25
100
AcDbLine
 10
96.6691320925
 20
249.3555707893
 30
0.0
 11
96.6691320925
 21
261.3555707893
 31
0.0
  0
LINE
  5
EF
330
1F
100
AcDbEntity
  8
0
  6
Continuous
 62
     7
370
    25
100
AcDbLine
 10
30.5691320925
 20
241.6338829528
 30
0.0
 11
30.5691320925
 21
240.3555707893
 31
0.0
  0
LINE
  5
F0
330
1F
100
AcDbEntity
  8
0
  6
Continuous
 62
     7
370
    25
100
AcDbLine
 10
110.5691320925
 20
240.3555707893
 30
0.0
 11
110.5691320925
 21
241.6338829528
 31
0.0
  0
LINE
  5
F1
330
1F
100
AcDbEntity
  8
0
  6
Continuous
 62
     7
370
    25
100
AcDbLine
 10
110.5691320925
 20
241.6338829528
 30
0.0
 11
109.3191320925
 21
242.3555707893
 31
0.0
  0
LINE
  5
F2
330
1F
100
AcDbEntity
  8
0
  6
Continuous
 62
     7
370
    25
100
AcDbLine
 10
31.8191320925
 20
242.3555707893
 30
0.0
 11
30.5691320925
 21
241.6338829528
 31
0.0
  0
LINE
  5
F3
330
1F
100
AcDbEntity
  8
0
  6
Continuous
 62
     7
370
    25
100
AcDbLine
 10
90.0691320925
 20
223.3555707893
 30
0.0
 11
90.0691320925
 21
223.4555707893
 31
0.0
  0
LINE
  5
F4
330
1F
100
AcDbEntity
  8
0
  6
Continuous
 62
     7
370
    25
100
AcDbLine
 10
90.5691320925
 20
223.3555707893
 30
0.0
 11
90.5691320925
 21
223.4555707893
 31
0.0
  0
LINE
  5
F5
330
1F
100
AcDbEntity
  8
0
  6
Continuous
 62
     7
370
    25
100
AcDbLine
 10
90.5691320925
 20
223.3555707893
 30
0.0
 11
90.0691320925
 21
223.3555707893
 31
0.0
  0
LINE
  5
F6
330
1F
100
AcDbEntity
  8
0
  6
Continuous
 62
     7
370
    25
100
AcDbLine
 10
50.5691320925
 20
223.3555707893
 30
0.0
 11
50.5691320925
 21
223.4555707893
 31
0.0
  0
LINE
  5
F7
330
1F
100
AcDbEntity
  8
0
  6
Continuous
 62
     7
370
    25
100
AcDbLine
 10
51.0691320925
 20
223.3555707893
 30
0.0
 11
51.0691320925
 21
223.4555707893
 31
0.0
  0
LINE
  5
F8
330
1F
100
AcDbEntity
  8
0
  6
Continuous
 62
     7
370
    25
100
AcDbLine
 10
51.0691320925
 20
223.3555707893
 30
0.0
 11
50.5691320925
 21
223.3555707893
 31
0.0
  0
LINE
  5
F9
330
1F
100
AcDbEntity
  8
0
  6
Continuous
 62
     7
370
    25
100
AcDbLine
 10
90.0691320925
 20
223.3555707893
 30
0.0
 11
51.0691320925
 21
223.3555707893
 31
0.0
  0
LINE
  5
FA
330
1F
100
AcDbEntity
  8
0
  6
Continuous
 62
     7
370
    25
100
AcDbLine
 10
96.7155764939
 20
223.2555707893
 30
0.0
 11
96.7323605373
 21
223.4555707893
 31
0.0
  0
LINE
  5
FB
330
1F
100
AcDbEntity
  8
0
  6
Continuous
 62
     7
370
    25
100
AcDbLine
 10
96.7155764939
 20
223.2555707893
 30
0.0
 11
94.2155764939
 21
223.2555707893
 31
0.0
  0
LINE
  5
FC
330
1F
100
AcDbEntity
  8
0
  6
Continuous
 62
     7
370
    25
100
AcDbLine
 10
94.2155764939
 20
223.2555707893
 30
0.0
 11
94.1987924505
 21
223.4555707893
 31
0.0
  0
LINE
  5
FD
330
1F
100
AcDbEntity
  8
0
  6
Continuous
 62
     7
370
    25
100
AcDbLine
 10
97.9155764939
 20
215.1555707893
 30
0.0
 11
97.9155764939
 21
219.5555707893
 31
0.0
  0
LINE
  5
FE
330
1F
100
AcDbEntity
  8
0
  6
Continuous
 62
     7
370
    25
100
AcDbLine
 10
97.9155764939
 20
215.1555707893
 30
0.0
 11
93.0155764939
 21
215.1555707893
 31
0.0
  0
LINE
  5
FF
330
1F
100
AcDbEntity
  8
0
  6
Continuous
 62
     7
370
    25
100
AcDbLine
 10
93.0155764939
 20
215.1555707893
 30
0.0
 11
93.0155764939
 21
219.5555707893
 31
0.0
  0
LINE
  5
100
330
1F
100
AcDbEntity
  8
0
  6
Continuous
 62
     7
370
    25
100
AcDbLine
 10
97.9155764939
 20
219.5555707893
 30
0.0
 11
93.0155764939
 21
219.5555707893
 31
0.0
  0
LINE
  5
101
330
1F
100
AcDbEntity
  8
0
  6
Continuous
 62
     7
370
    25
100
AcDbLine
 10
97.9155764939
 20
219.5555707893
 30
0.0
 11
97.7155764939
 21
219.7555707893
 31
0.0
  0
LINE
  5
102
330
1F
100
AcDbEntity
  8
0
  6
Continuous
 62
     7
370
    25
100
AcDbLine
 10
93.0155764939
 20
219.5555707893
 30
0.0
 11
93.2155764939
 21
219.7555707893
 31
0.0
  0
LINE
  5
103
330
1F
100
AcDbEntity
  8
0
  6
Continuous
 62
     7
370
    25
100
AcDbLine
 10
97.7155764939
 20
219.7555707893
 30
0.0
 11
93.2155764939
 21
219.7555707893
 31
0.0
  0
LINE
  5
104
330
1F
100
AcDbEntity
  8
0
  6
Continuous
 62
     7
370
    25
100
AcDbLine
 10
97.7155764939
 20
214.9555707893
 30
0.0
 11
97.9155764939
 21
215.1555707893
 31
0.0
  0
LINE
  5
105
330
1F
100
AcDbEntity
  8
0
  6
Continuous
 62
     7
370
    25
100
AcDbLine
 10
97.7155764939
 20
214.9555707893
 30
0.0
 11
93.2155764939
 21
214.9555707893
 31
0.0
  0
LINE
  5
106
330
1F
100
AcDbEntity
  8
0
  6
Continuous
 62
     7
370
    25
100
AcDbLine
 10
93.2155764939
 20
214.9555707893
 30
0.0
 11
93.0155764939
 21
215.1555707893
 31
0.0
  0
LINE
  5
107
330
1F
100
AcDbEntity
  8
0
  6
Continuous
 62
     7
370
    25
100
AcDbLine
 10
96.7155764939
 20
219.7555707893
 30
0.0
 11
96.7155764939
 21
223.2555707893
 31
0.0
  0
LINE
  5
108
330
1F
100
AcDbEntity
  8
0
  6
Continuous
 62
     7
370
    25
100
AcDbLine
 10
94.2155764939
 20
219.7555707893
 30
0.0
 11
94.2155764939
 21
223.2555707893
 31
0.0
  0
LINE
  5
109
330
1F
100
AcDbEntity
  8
0
  6
Continuous
 62
     7
370
    25
100
AcDbLine
 10
46.9226876911
 20
223.2555707893
 30
0.0
 11
46.9394717345
 21
223.4555707893
 31
0.0
  0
LINE
  5
10A
330
1F
100
AcDbEntity
  8
0
  6
Continuous
 62
     7
370
    25
100
AcDbLine
 10
46.9226876911
 20
223.2555707893
 30
0.0
 11
44.4226876911
 21
223.2555707893
 31
0.0
  0
LINE
  5
10B
330
1F
100
AcDbEntity
  8
0
  6
Continuous
 62
     7
370
    25
100
AcDbLine
 10
44.4226876911
 20
223.2555707893
 30
0.0
 11
44.4059036478
 21
223.4555707893
 31
0.0
  0
LINE
  5
10C
330
1F
100
AcDbEntity
  8
0
  6
Continuous
 62
     7
370
    25
100
AcDbLine
 10
48.1226876911
 20
215.1555707893
 30
0.0
 11
48.1226876911
 21
219.5555707893
 31
0.0
  0
LINE
  5
10D
330
1F
100
AcDbEntity
  8
0
  6
Continuous
 62
     7
370
    25
100
AcDbLine
 10
48.1226876911
 20
215.1555707893
 30
0.0
 11
43.2226876911
 21
215.1555707893
 31
0.0
  0
LINE
  5
10E
330
1F
100
AcDbEntity
  8
0
  6
Continuous
 62
     7
370
    25
100
AcDbLine
 10
43.2226876911
 20
215.1555707893
 30
0.0
 11
43.2226876911
 21
219.5555707893
 31
0.0
  0
LINE
  5
10F
330
1F
100
AcDbEntity
  8
0
  6
Continuous
 62
     7
370
    25
100
AcDbLine
 10
48.1226876911
 20
219.5555707893
 30
0.0
 11
43.2226876911
 21
219.5555707893
 31
0.0
  0
LINE
  5
110
330
1F
100
AcDbEntity
  8
0
  6
Continuous
 62
     7
370
    25
100
AcDbLine
 10
48.1226876911
 20
219.5555707893
 30
0.0
 11
47.9226876911
 21
219.7555707893
 31
0.0
  0
LINE
  5
111
330
1F
100
AcDbEntity
  8
0
  6
Continuous
 62
     7
370
    25
100
AcDbLine
 10
43.2226876911
 20
219.5555707893
 30
0.0
 11
43.4226876911
 21
219.7555707893
 31
0.0
  0
LINE
  5
112
330
1F
100
AcDbEntity
  8
0
  6
Continuous
 62
     7
370
    25
100
AcDbLine
 10
47.9226876911
 20
219.7555707893
 30
0.0
 11
43.4226876911
 21
219.7555707893
 31
0.0
  0
LINE
  5
113
330
1F
100
AcDbEntity
  8
0
  6
Continuous
 62
     7
370
    25
100
AcDbLine
 10
47.9226876911
 20
214.9555707893
 30
0.0
 11
48.1226876911
 21
215.1555707893
 31
0.0
  0
LINE
  5
114
330
1F
100
AcDbEntity
  8
0
  6
Continuous
 62
     7
370
    25
100
AcDbLine
 10
47.9226876911
 20
214.9555707893
 30
0.0
 11
43.4226876911
 21
214.9555707893
 31
0.0
  0
LINE
  5
115
330
1F
100
AcDbEntity
  8
0
  6
Continuous
 62
     7
370
    25
100
AcDbLine
 10
43.4226876911
 20
214.9555707893
 30
0.0
 11
43.2226876911
 21
215.1555707893
 31
0.0
  0
LINE
  5
116
330
1F
100
AcDbEntity
  8
0
  6
Continuous
 62
     7
370
    25
100
AcDbLine
 10
46.9226876911
 20
219.7555707893
 30
0.0
 11
46.9226876911
 21
223.2555707893
 31
0.0
  0
LINE
  5
117
330
1F
100
AcDbEntity
  8
0
  6
Continuous
 62
     7
370
    25
100
AcDbLine
 10
44.4226876911
 20
219.7555707893
 30
0.0
 11
44.4226876911
 21
223.2555707893
 31
0.0
  0
LINE
  5
118
330
1F
100
AcDbEntity
  8
0
  6
Continuous
 62
     7
370
    25
100
AcDbLine
 10
73.0191320925
 20
215.1555707893
 30
0.0
 11
73.0191320925
 21
219.5555707893
 31
0.0
  0
LINE
  5
119
330
1F
100
AcDbEntity
  8
0
  6
Continuous
 62
     7
370
    25
100
AcDbLine
 10
73.0191320925
 20
215.1555707893
 30
0.0
 11
68.1191320925
 21
215.1555707893
 31
0.0
  0
LINE
  5
11A
330
1F
100
AcDbEntity
  8
0
  6
Continuous
 62
     7
370
    25
100
AcDbLine
 10
68.1191320925
 20
215.1555707893
 30
0.0
 11
68.1191320925
 21
219.5555707893
 31
0.0
  0
LINE
  5
11B
330
1F
100
AcDbEntity
  8
0
  6
Continuous
 62
     7
370
    25
100
AcDbLine
 10
73.0191320925
 20
219.5555707893
 30
0.0
 11
68.1191320925
 21
219.5555707893
 31
0.0
  0
LINE
  5
11C
330
1F
100
AcDbEntity
  8
0
  6
Continuous
 62
     7
370
    25
100
AcDbLine
 10
73.0191320925
 20
219.5555707893
 30
0.0
 11
72.8191320925
 21
219.7555707893
 31
0.0
  0
LINE
  5
11D
330
1F
100
AcDbEntity
  8
0
  6
Continuous
 62
     7
370
    25
100
AcDbLine
 10
68.1191320925
 20
219.5555707893
 30
0.0
 11
68.3191320925
 21
219.7555707893
 31
0.0
  0
LINE
  5
11E
330
1F
100
AcDbEntity
  8
0
  6
Continuous
 62
     7
370
    25
100
AcDbLine
 10
72.8191320925
 20
219.7555707893
 30
0.0
 11
68.3191320925
 21
219.7555707893
 31
0.0
  0
LINE
  5
11F
330
1F
100
AcDbEntity
  8
0
  6
Continuous
 62
     7
370
    25
100
AcDbLine
 10
72.8191320925
 20
214.9555707893
 30
0.0
 11
73.0191320925
 21
215.1555707893
 31
0.0
  0
LINE
  5
120
330
1F
100
AcDbEntity
  8
0
  6
Continuous
 62
     7
370
    25
100
AcDbLine
 10
72.8191320925
 20
214.9555707893
 30
0.0
 11
68.3191320925
 21
214.9555707893
 31
0.0
  0
LINE
  5
121
330
1F
100
AcDbEntity
  8
0
  6
Continuous
 62
     7
370
    25
100
AcDbLine
 10
68.3191320925
 20
214.9555707893
 30
0.0
 11
68.1191320925
 21
215.1555707893
 31
0.0
  0
LINE
  5
122
330
1F
100
AcDbEntity
  8
0
  6
Continuous
 62
     7
370
    25
100
AcDbLine
 10
71.8191320925
 20
223.2555707893
 30
0.0
 11
71.8233060182
 21
223.3555707893
 31
0.0
  0
LINE
  5
123
330
1F
100
AcDbEntity
  8
0
  6
Continuous
 62
     7
370
    25
100
AcDbLine
 10
71.8191320925
 20
223.2555707893
 30
0.0
 11
69.3191320925
 21
223.2555707893
 31
0.0
  0
LINE
  5
124
330
1F
100
AcDbEntity
  8
0
  6
Continuous
 62
     7
370
    25
100
AcDbLine
 10
69.3191320925
 20
223.2555707893
 30
0.0
 11
69.3149581668
 21
223.3555707893
 31
0.0
  0
LINE
  5
125
330
1F
100
AcDbEntity
  8
0
  6
Continuous
 62
     7
370
    25
100
AcDbLine
 10
71.8191320925
 20
219.7555707893
 30
0.0
 11
71.8191320925
 21
223.2555707893
 31
0.0
  0
LINE
  5
126
330
1F
100
AcDbEntity
  8
0
  6
Continuous
 62
     7
370
    25
100
AcDbLine
 10
69.3191320925
 20
219.7555707893
 30
0.0
 11
69.3191320925
 21
223.2555707893
 31
0.0
  0
LINE
  5
127
330
1F
100
AcDbEntity
  8
0
  6
Continuous
 62
     7
370
    25
100
AcDbLine
 10
30.5691320925
 20
241.6338829528
 30
0.0
 11
70.5691320925
 21
241.6338829528
 31
0.0
  0
LINE
  5
128
330
1F
100
AcDbEntity
  8
0
  6
Continuous
 62
     7
370
    25
100
AcDbLine
 10
70.5691320925
 20
241.6338829528
 30
0.0
 11
70.5691320925
 21
240.3555707893
 31
0.0
  0
LINE
  5
129
330
1F
100
AcDbEntity
  8
0
  6
Continuous
 62
     7
370
    25
100
AcDbLine
 10
30.5691320925
 20
240.3555707893
 30
0.0
 11
70.5691320925
 21
240.3555707893
 31
0.0
  0
LINE
  5
12A
330
1F
100
AcDbEntity
  8
0
  6
Continuous
 62
     7
370
    25
100
AcDbLine
 10
110.5691320925
 20
241.6338829528
 30
0.0
 11
70.5691320925
 21
241.6338829528
 31
0.0
  0
LINE
  5
12B
330
1F
100
AcDbEntity
  8
0
  6
Continuous
 62
     7
370
    25
100
AcDbLine
 10
110.5691320925
 20
240.3555707893
 30
0.0
 11
70.5691320925
 21
240.3555707893
 31
0.0
  0
LINE
  5
12C
330
1F
100
AcDbEntity
  8
0
  6
Continuous
 62
     7
370
    25
100
AcDbLine
 10
99.5993551143
 20
247.9672866441
 30
0.0
 11
109.3191320925
 21
242.3555707893
 31
0.0
  0
LINE
  5
12D
330
1F
100
AcDbEntity
  8
0
  6
Continuous
 62
     7
370
    25
100
AcDbLine
 10
70.5691320925
 20
242.3555707893
 30
0.0
 11
70.5691320925
 21
241.6338829528
 31
0.0
  0
LINE
  5
12E
330
1F
100
AcDbEntity
  8
0
  6
Continuous
 62
     7
370
    25
100
AcDbLine
 10
31.8191320925
 20
242.3555707893
 30
0.0
 11
70.5691320925
 21
242.3555707893
 31
0.0
  0
LINE
  5
12F
330
1F
100
AcDbEntity
  8
0
  6
Continuous
 62
     7
370
    25
100
AcDbLine
 10
41.5389090707
 20
247.9672866441
 30
0.0
 11
31.8191320925
 21
242.3555707893
 31
0.0
  0
LINE
  5
130
330
1F
100
AcDbEntity
  8
0
  6
Continuous
 62
     7
370
    25
100
AcDbLine
 10
99.5993551143
 20
247.9672866441
 30
0.0
 11
72.2918292979
 21
247.9672866441
 31
0.0
  0
LINE
  5
131
330
1F
100
AcDbEntity
  8
0
  6
Continuous
 62
     7
370
    25
100
AcDbLine
 10
68.8464348871
 20
247.9672866441
 30
0.0
 11
41.5389090707
 21
247.9672866441
 31
0.0
  0
LWPOLYLINE
  5
132
330
1F
100
AcDbEntity
  8
0
  6
Continuous
 62
     7
370
    25
100
AcDbPolyline
 90
        8
 70
   128
 43
0.0
 10
68.0766528519
 20
246.1958939148
 10
67.8969056954
 20
245.835251933
 10
67.8978220727
 20
245.387117314
 10
68.1179342046
 20
244.9709520163
 10
68.5266982727
 20
244.6212170355
 10
69.0743282121
 20
244.3589063246
 10
69.7007782858
 20
244.1934229676
 10
70.3691320925
 20
244.1204481514
  0
LINE
  5
133
330
1F
100
AcDbEntity
  8
0
  6
Continuous
 62
     7
370
    25
100
AcDbLine
 10
70.3691320925
 20
244.1400799228
 30
0.0
 11
70.3691320925
 21
244.1204481514
 31
0.0
  0
LWPOLYLINE
  5
134
330
1F
100
AcDbEntity
  8
0
  6
Continuous
 62
     7
370
    25
100
AcDbPolyline
 90
        3
 70
   128
 43
0.0
 10
70.4984214144
 20
244.2150083413
 10
70.4261005877
 20
244.1731286347
 10
70.3691320925
 20
244.1400799228
  0
ARC
  5
135
330
1F
100
AcDbEntity
  8
0
  6
Continuous
 62
     7
370
    25
100
AcDbCircle
 10
70.5691320925
 20
244.0804635243
 30
0.0
 40
0.1519944334563972
100
AcDbArc
 50
62.2756123381
 51
117.7243876619
  0
LWPOLYLINE
  5
136
330
1F
100
AcDbEntity
  8
0
  6
Continuous
 62
     7
370
    25
100
AcDbPolyline
 90
        3
 70
   128
 43
0.0
 10
70.7691320925
 20
244.1400799228
 10
70.6966489024
 20
244.1821200254
 10
70.6398427706
 20
244.2150083413
  0
LINE
  5
137
330
1F
100
AcDbEntity
  8
0
  6
Continuous
 62
     7
370
    25
100
AcDbLine
 10
70.7691320925
 20
244.1204481514
 30
0.0
 11
70.7691320925
 21
244.1400799228
 31
0.0
  0
LWPOLYLINE
  5
138
330
1F
100
AcDbEntity
  8
0
  6
Continuous
 62
     7
370
    25
100
AcDbPolyline
 90
        8
 70
   128
 43
0.0
 10
70.7691320925
 20
244.1204481514
 10
71.4305409799
 20
244.1921414184
 10
72.0510076899
 20
244.3543269554
 10
72.5866469449
 20
244.605617057
 10
72.9939422111
 20
244.9401105754
 10
73.2290253788
 20
245.3467229453
 10
73.2499766833
 20
245.7973144895
 10
73.0589460824
 20
246.2101838601
  0
LINE
  5
139
330
1F
100
AcDbEntity
  8
0
  6
Continuous
 62
     7
370
    25
100
AcDbLine
 10
99.4457919889
 20
229.0555707893
 30
0.0
 11
101.0527610131
 21
229.0555707893
 31
0.0
  0
LINE
  5
13A
330
1F
100
AcDbEntity
  8
0
  6
Continuous
 62
     7
370
    25
100
AcDbLine
 10
99.434421287
 20
227.3555707893
 30
0.0
 11
99.4457919889
 21
229.0555707893
 31
0.0
  0
LINE
  5
13B
330
1F
100
AcDbEntity
  8
0
  6
Continuous
 62
     7
370
    25
100
AcDbLine
 10
99.434421287
 20
227.3555707893
 30
0.0
 11
41.7038428981
 21
227.3555707893
 31
0.0
  0
LINE
  5
13C
330
1F
100
AcDbEntity
  8
0
  6
Continuous
 62
     7
370
    25
100
AcDbLine
 10
41.6924721961
 20
229.0555707893
 30
0.0
 11
41.7038428981
 21
227.3555707893
 31
0.0
  0
LINE
  5
13D
330
1F
100
AcDbEntity
  8
0
  6
Continuous
 62
     7
370
    25
100
AcDbLine
 10
40.0855031719
 20
229.0555707893
 30
0.0
 11
41.6924721961
 21
229.0555707893
 31
0.0
  0
LINE
  5
13E
330
1F
100
AcDbEntity
  8
0
  6
Continuous
 62
     7
370
    25
100
AcDbLine
 10
40.0968738739
 20
227.3555707893
 30
0.0
 11
40.0855031719
 21
229.0555707893
 31
0.0
  0
LINE
  5
13F
330
1F
100
AcDbEntity
  8
0
  6
Continuous
 62
     7
370
    25
100
AcDbLine
 10
40.0968738739
 20
227.3555707893
 30
0.0
 11
31.8191320925
 21
227.3555707893
 31
0.0
  0
LINE
  5
140
330
1F
100
AcDbEntity
  8
0
  6
Continuous
 62
     7
370
    25
100
AcDbLine
 10
31.7056828112
 20
240.3555707893
 30
0.0
 11
31.8191320925
 21
227.3555707893
 31
0.0
  0
LINE
  5
141
330
1F
100
AcDbEntity
  8
0
  6
Continuous
 62
     7
370
    25
100
AcDbLine
 10
109.4325813738
 20
240.3555707893
 30
0.0
 11
109.3191320925
 21
227.3555707893
 31
0.0
  0
LINE
  5
142
330
1F
100
AcDbEntity
  8
0
  6
Continuous
 62
     7
370
    25
100
AcDbLine
 10
109.3191320925
 20
227.3555707893
 30
0.0
 11
101.0413903112
 21
227.3555707893
 31
0.0
  0
LINE
  5
143
330
1F
100
AcDbEntity
  8
0
  6
Continuous
 62
     7
370
    25
100
AcDbLine
 10
101.0527610131
 20
229.0555707893
 30
0.0
 11
101.0413903112
 21
227.3555707893
 31
0.0
  0
LINE
  5
144
330
1F
100
AcDbEntity
  8
0
  6
Continuous
 62
     7
370
    25
100
AcDbLine
 10
99.0329886242
 20
264.1859009056
 30
0.0
 11
99.5993551143
 21
247.9672866441
 31
0.0
  0
LINE
  5
145
330
1F
100
AcDbEntity
  8
0
  6
Continuous
 62
     7
370
    25
100
AcDbLine
 10
42.1052755608
 20
264.1859009056
 30
0.0
 11
41.5389090707
 21
247.9672866441
 31
0.0
  0
LINE
  5
146
330
1F
100
AcDbEntity
  8
0
  6
Continuous
 62
     7
370
    25
100
AcDbLine
 10
99.0329886242
 20
264.1859009056
 30
0.0
 11
42.1052755608
 21
264.1859009056
 31
0.0
  0
LINE
  5
147
330
1F
100
AcDbEntity
  8
0
  6
Continuous
 62
     7
370
    25
100
AcDbLine
 10
54.8130723345
 20
250.8555707893
 30
0.0
 11
54.9842452623
 21
259.8555707893
 31
0.0
  0
ARC
  5
148
330
1F
100
AcDbEntity
  8
0
  6
Continuous
 62
     7
370
    25
100
AcDbCircle
 10
53.6277940735
 20
259.9995957261
 30
0.0
 40
1.364075881336522
100
AcDbArc
 50
353.939170925
 51
83.7526193044
  0
LINE
  5
149
330
1F
100
AcDbEntity
  8
0
  6
Continuous
 62
     7
370
    25
100
AcDbLine
 10
42.1634465885
 20
261.3555707893
 30
0.0
 11
53.7762347628
 21
261.3555707893
 31
0.0
  0
ARC
  5
14A
330
1F
100
AcDbEntity
  8
0
  6
Continuous
 62
     7
370
    25
100
AcDbCircle
 10
46.3600149058
 20
260.1198212404
 30
0.0
 40
4.374730001891889
100
AcDbArc
 50
163.5920553833
 51
183.462992615
  0
LINE
  5
14B
330
1F
100
AcDbEntity
  8
0
  6
Continuous
 62
     7
370
    25
100
AcDbLine
 10
41.6794168607
 20
250.8555707893
 30
0.0
 11
41.9932730668
 21
259.8555707893
 31
0.0
  0
ARC
  5
14C
330
1F
100
AcDbEntity
  8
0
  6
Continuous
 62
     7
370
    25
100
AcDbCircle
 10
45.9542440826
 20
250.2893626025
 30
0.0
 40
4.312161811492968
100
AcDbArc
 50
172.4549931713
 51
192.5063853804
  0
LINE
  5
14D
330
1F
100
AcDbEntity
  8
0
  6
Continuous
 62
     7
370
    25
100
AcDbLine
 10
41.7444017651
 20
249.3555707893
 30
0.0
 11
53.5476933866
 21
249.3555707893
 31
0.0
  0
ARC
  5
14E
330
1F
100
AcDbEntity
  8
0
  6
Continuous
 62
     7
370
    25
100
AcDbCircle
 10
53.3895886897
 20
250.7726736532
 30
0.0
 40
1.425895375591702
100
AcDbArc
 50
276.366103505
 51
3.3328782387
  0
LINE
  5
14F
330
1F
100
AcDbEntity
  8
0
  6
Continuous
 62
     7
370
    25
100
AcDbLine
 10
58.7658404711
 20
249.3555707893
 30
0.0
 11
82.372423714
 21
249.3555707893
 31
0.0
  0
ARC
  5
150
330
1F
100
AcDbEntity
  8
0
  6
Continuous
 62
     7
370
    25
100
AcDbCircle
 10
82.3046473335
 20
250.7556382802
 30
0.0
 40
1.401707036769178
100
AcDbArc
 50
272.7714887821
 51
4.0882812024
  0
LINE
  5
151
330
1F
100
AcDbEntity
  8
0
  6
Continuous
 62
     7
370
    25
100
AcDbLine
 10
83.7027875663
 20
250.8555707893
 30
0.0
 11
83.560104288
 21
259.8555707893
 31
0.0
  0
ARC
  5
152
330
1F
100
AcDbEntity
  8
0
  6
Continuous
 62
     7
370
    25
100
AcDbCircle
 10
82.1063396836
 20
259.9029977558
 30
0.0
 40
1.454538016740293
100
AcDbArc
 50
358.1314708056
 51
87.0214600877
  0
LINE
  5
153
330
1F
100
AcDbEntity
  8
0
  6
Continuous
 62
     7
370
    25
100
AcDbLine
 10
58.9563439182
 20
261.3555707893
 30
0.0
 11
82.1819202669
 21
261.3555707893
 31
0.0
  0
ARC
  5
154
330
1F
100
AcDbEntity
  8
0
  6
Continuous
 62
     7
370
    25
100
AcDbCircle
 10
59.0319245014
 20
259.9029977558
 30
0.0
 40
1.454538016740356
100
AcDbArc
 50
92.9785399123
 51
181.8685291944
  0
LINE
  5
155
330
1F
100
AcDbEntity
  8
0
  6
Continuous
 62
     7
370
    25
100
AcDbLine
 10
57.4354766187
 20
250.8555707893
 30
0.0
 11
57.578159897
 21
259.8555707893
 31
0.0
  0
ARC
  5
156
330
1F
100
AcDbEntity
  8
0
  6
Continuous
 62
     7
370
    25
100
AcDbCircle
 10
58.8336168515
 20
250.7556382802
 30
0.0
 40
1.401707036769237
100
AcDbArc
 50
175.9117187977
 51
267.2285112179
  0
LINE
  5
157
330
1F
100
AcDbEntity
  8
0
  6
Continuous
 62
     7
370
    25
100
AcDbLine
 10
87.5905707984
 20
249.3555707893
 30
0.0
 11
99.3938624199
 21
249.3555707893
 31
0.0
  0
ARC
  5
158
330
1F
100
AcDbEntity
  8
0
  6
Continuous
 62
     7
370
    25
100
AcDbCircle
 10
95.1840201024
 20
250.2893626025
 30
0.0
 40
4.312161811492914
100
AcDbArc
 50
347.4936146196
 51
7.5450068287
  0
LINE
  5
159
330
1F
100
AcDbEntity
  8
0
  6
Continuous
 62
     7
370
    25
100
AcDbLine
 10
99.4588473244
 20
250.8555707893
 30
0.0
 11
99.1449911183
 21
259.8555707893
 31
0.0
  0
ARC
  5
15A
330
1F
100
AcDbEntity
  8
0
  6
Continuous
 62
     7
370
    25
100
AcDbCircle
 10
94.7782492793
 20
260.1198212404
 30
0.0
 40
4.374730001892202
100
AcDbArc
 50
356.537007385
 51
16.4079446167
  0
LINE
  5
15B
330
1F
100
AcDbEntity
  8
0
  6
Continuous
 62
     7
370
    25
100
AcDbLine
 10
87.3620294222
 20
261.3555707893
 30
0.0
 11
98.9748175966
 21
261.3555707893
 31
0.0
  0
ARC
  5
15C
330
1F
100
AcDbEntity
  8
0
  6
Continuous
 62
     7
370
    25
100
AcDbCircle
 10
87.5104701116
 20
259.9995957261
 30
0.0
 40
1.364075881336431
100
AcDbArc
 50
96.2473806956
 51
186.060829075
  0
LINE
  5
15D
330
1F
100
AcDbEntity
  8
0
  6
Continuous
 62
     7
370
    25
100
AcDbLine
 10
86.3251918506
 20
250.8555707893
 30
0.0
 11
86.1540189228
 21
259.8555707893
 31
0.0
  0
ARC
  5
15E
330
1F
100
AcDbEntity
  8
0
  6
Continuous
 62
     7
370
    25
100
AcDbCircle
 10
87.7486754953
 20
250.7726736532
 30
0.0
 40
1.425895375591638
100
AcDbArc
 50
176.6671217613
 51
263.633896495
  0
LINE
  5
15F
330
1F
100
AcDbEntity
  8
0
  6
Continuous
 62
     7
370
    25
100
AcDbLine
 10
67.5691320925
 20
272.1876169805
 30
0.0
 11
67.5691320925
 21
272.2716596865
 31
0.0
  0
ARC
  5
160
330
1F
100
AcDbEntity
  8
0
  6
Continuous
 62
     7
370
    25
100
AcDbCircle
 10
71.3810234089
 20
321.8959698136
 30
0.0
 40
49.85429627203121
100
AcDbArc
 50
265.614848259
 51
267.9171987021
  0
LINE
  5
161
330
1F
100
AcDbEntity
  8
0
  6
Continuous
 62
     7
370
    25
100
AcDbLine
 10
69.5691320925
 20
272.2206273066
 30
0.0
 11
69.5691320925
 21
272.0746098699
 31
0.0
  0
LWPOLYLINE
  5
162
330
1F
100
AcDbEntity
  8
0
  6
Continuous
 62
     7
370
    25
100
AcDbPolyline
 90
        3
 70
   128
 43
0.0
 10
69.0691320925
 20
272.250661372
 10
69.3284298129
 20
272.233965271
 10
69.5691320925
 20
272.2206273066
  0
LINE
  5
163
330
1F
100
AcDbEntity
  8
0
  6
Continuous
 62
     7
370
    25
100
AcDbLine
 10
69.0691320925
 20
272.3312500818
 30
0.0
 11
69.0691320925
 21
272.250661372
 31
0.0
  0
ARC
  5
164
330
1F
100
AcDbEntity
  8
0
  6
Continuous
 62
     7
370
    25
100
AcDbCircle
 10
70.5691320925
 20
218.6854319004
 30
0.0
 40
53.66678496381905
100
AcDbArc
 50
88.3983601148
 51
91.6016398852
  0
LINE
  5
165
330
1F
100
AcDbEntity
  8
0
  6
Continuous
 62
     7
370
    25
100
AcDbLine
 10
72.0691320925
 20
272.250661372
 30
0.0
 11
72.0691320925
 21
272.3312500818
 31
0.0
  0
ARC
  5
166
330
1F
100
AcDbEntity
  8
0
  6
Continuous
 62
     7
370
    25
100
AcDbCircle
 10
70.5691320925
 20
218.6854319004
 30
0.0
 40
53.5862277861827
100
AcDbArc
 50
86.7906444867
 51
88.3959517109
  0
LINE
  5
167
330
1F
100
AcDbEntity
  8
0
  6
Continuous
 62
     7
370
    25
100
AcDbLine
 10
73.5691320925
 20
272.2716596865
 30
0.0
 11
73.5691320925
 21
272.1876169805
 31
0.0
  0
ARC
  5
168
330
1F
100
AcDbEntity
  8
0
  6
Continuous
 62
     7
370
    25
100
AcDbCircle
 10
70.5691320925
 20
218.6854319004
 30
0.0
 40
53.67013888888552
100
AcDbArc
 50
57.9710220063
 51
86.7956674269
  0
ARC
  5
169
330
1F
100
AcDbEntity
  8
0
  6
Continuous
 62
     7
370
    25
100
AcDbCircle
 10
70.5691320925
 20
218.6854319004
 30
0.0
 40
53.67013888888552
100
AcDbArc
 50
93.2043325731
 51
122.0289779937
  0
ARC
  5
16A
330
1F
100
AcDbEntity
  8
0
  6
Continuous
 62
     7
370
    25
100
AcDbCircle
 10
70.5691320925
 20
218.6854319004
 30
0.0
 40
49.39113086732318
100
AcDbArc
 50
89.129935163
 51
90.870064837
  0
LINE
  5
16B
330
1F
100
AcDbEntity
  8
0
  6
Continuous
 62
     7
370
    25
100
AcDbLine
 10
69.8191320925
 20
265.9107832315
 30
0.0
 11
69.8191320925
 21
268.0708680972
 31
0.0
  0
LINE
  5
16C
330
1F
100
AcDbEntity
  8
0
  6
Continuous
 62
     7
370
    25
100
AcDbLine
 10
71.3191320925
 20
265.9107832315
 30
0.0
 11
69.8191320925
 21
265.9107832315
 31
0.0
  0
LINE
  5
16D
330
1F
100
AcDbEntity
  8
0
  6
Continuous
 62
     7
370
    25
100
AcDbLine
 10
71.3191320925
 20
268.0708680972
 30
0.0
 11
71.3191320925
 21
265.9107832315
 31
0.0
  0
LINE
  5
16E
330
1F
100
AcDbEntity
  8
0
  6
Continuous
 62
     7
370
    25
100
AcDbLine
 10
74.3191320925
 20
265.9107832315
 30
0.0
 11
72.8191320925
 21
265.9107832315
 31
0.0
  0
LINE
  5
16F
330
1F
100
AcDbEntity
  8
0
  6
Continuous
 62
     7
370
    25
100
AcDbLine
 10
74.3191320925
 20
267.9339984618
 30
0.0
 11
74.3191320925
 21
265.9107832315
 31
0.0
  0
ARC
  5
170
330
1F
100
AcDbEntity
  8
0
  6
Continuous
 62
     7
370
    25
100
AcDbCircle
 10
70.5691320925
 20
218.6854319004
 30
0.0
 40
49.39113086731821
100
AcDbArc
 50
85.6456526895
 51
87.3890022026
  0
LINE
  5
171
330
1F
100
AcDbEntity
  8
0
  6
Continuous
 62
     7
370
    25
100
AcDbLine
 10
72.8191320925
 20
265.9107832315
 30
0.0
 11
72.8191320925
 21
268.0252870719
 31
0.0
  0
LWPOLYLINE
  5
172
330
1F
100
AcDbEntity
  8
0
  6
Continuous
 62
     7
370
    25
100
AcDbPolyline
 90
        3
 70
   128
 43
0.0
 10
71.5691320925
 20
272.1438693082
 10
71.7789237072
 20
272.1380299122
 10
71.9441320925
 20
272.1336735931
  0
LINE
  5
173
330
1F
100
AcDbEntity
  8
0
  6
Continuous
 62
     7
370
    25
100
AcDbLine
 10
71.5691320925
 20
272.0067193936
 30
0.0
 11
71.5691320925
 21
272.1438693082
 31
0.0
  0
LWPOLYLINE
  5
174
330
1F
100
AcDbEntity
  8
0
  6
Continuous
 62
     7
370
    25
100
AcDbPolyline
 90
        3
 70
   128
 43
0.0
 10
71.9441320925
 20
271.9966591606
 10
71.7339754653
 20
272.0022013209
 10
71.5691320925
 20
272.0067193936
  0
ARC
  5
175
330
1F
100
AcDbEntity
  8
0
  6
Continuous
 62
     7
370
    25
100
AcDbCircle
 10
69.560237296
 20
138.6635948012
 30
0.0
 40
133.3543737785737
100
AcDbArc
 50
85.968353196
 51
88.9757037391
  0
ARC
  5
176
330
1F
100
AcDbEntity
  8
0
  6
Continuous
 62
     7
370
    25
100
AcDbCircle
 10
70.5691320925
 20
218.6854319004
 30
0.0
 40
53.65886514224005
100
AcDbArc
 50
81.0293866354
 51
82.6137196447
  0
ARC
  5
177
330
1F
100
AcDbEntity
  8
0
  6
Continuous
 62
     7
370
    25
100
AcDbCircle
 10
69.534373646
 20
150.2842992871
 30
0.0
 40
121.8732003130373
100
AcDbArc
 50
86.2678306879
 51
88.8670356863
  0
LWPOLYLINE
  5
178
330
1F
100
AcDbEntity
  8
0
  6
Continuous
 62
     7
370
    25
100
AcDbPolyline
 90
        3
 70
   128
 43
0.0
 10
57.644944465
 20
270.7645945522
 10
57.6423046748
 20
270.7604590027
 10
57.6416708891
 20
270.7572470232
  0
ARC
  5
179
330
1F
100
AcDbEntity
  8
0
  6
Continuous
 62
     7
370
    25
100
AcDbCircle
 10
70.5691320925
 20
218.6854319004
 30
0.0
 40
53.65886514223794
100
AcDbArc
 50
103.9372084972
 51
105.4439421637
  0
LWPOLYLINE
  5
17A
330
1F
100
AcDbEntity
  8
0
  6
Continuous
 62
     7
370
    25
100
AcDbPolyline
 90
        3
 70
   128
 43
0.0
 10
56.2770934169
 20
270.3993643929
 10
56.2780115536
 20
270.4034834867
 10
56.2800210837
 20
270.4067535669
  0
ARC
  5
17B
330
1F
100
AcDbEntity
  8
0
  6
Continuous
 62
     7
370
    25
100
AcDbCircle
 10
70.696118124
 20
404.0356924842
 30
0.0
 40
134.411965461459
100
AcDbArc
 50
263.8417531524
 51
269.5195941109
  0
LINE
  5
17C
330
1F
100
AcDbEntity
  8
0
  6
Continuous
 62
     7
370
    25
100
AcDbLine
 10
69.5691320925
 20
270.0652694701
 30
0.0
 11
69.5691320925
 21
269.6284517503
 31
0.0
  0
ARC
  5
17D
330
1F
100
AcDbEntity
  8
0
  6
Continuous
 62
     7
370
    25
100
AcDbCircle
 10
68.9461803834
 20
362.4690609157
 30
0.0
 40
92.40589127518005
100
AcDbArc
 50
262.9730969723
 51
270.386260807
  0
LWPOLYLINE
  5
17E
330
1F
100
AcDbEntity
  8
0
  6
Continuous
 62
     7
370
    25
100
AcDbPolyline
 90
        3
 70
   128
 43
0.0
 10
71.5691320925
 20
270.0065305363
 10
71.7791174936
 20
270.0007980357
 10
71.9441320925
 20
269.9963507537
  0
LINE
  5
17F
330
1F
100
AcDbEntity
  8
0
  6
Continuous
 62
     7
370
    25
100
AcDbLine
 10
71.5691320925
 20
269.5696700758
 30
0.0
 11
71.5691320925
 21
270.0065305363
 31
0.0
  0
LWPOLYLINE
  5
180
330
1F
100
AcDbEntity
  8
0
  6
Continuous
 62
     7
370
    25
100
AcDbPolyline
 90
        3
 70
   128
 43
0.0
 10
71.9441320925
 20
269.5594144566
 10
71.7341189732
 20
269.5651283249
 10
71.5691320925
 20
269.5696700758
  0
ARC
  5
181
330
1F
100
AcDbEntity
  8
0
  6
Continuous
 62
     7
370
    25
100
AcDbCircle
 10
70.6565143641
 20
65.3462786755
 30
0.0
 40
204.2171951256267
100
AcDbArc
 50
84.5100779094
 51
89.6387397729
  0
ARC
  5
182
330
1F
100
AcDbEntity
  8
0
  6
Continuous
 62
     7
370
    25
100
AcDbCircle
 10
70.5691320925
 20
218.6854319004
 30
0.0
 40
53.65886514224007
100
AcDbArc
 50
68.5471166533
 51
70.1198560214
  0
ARC
  5
183
330
1F
100
AcDbEntity
  8
0
  6
Continuous
 62
     7
370
    25
100
AcDbCircle
 10
68.1381480064
 20
26.5202308751
 30
0.0
 40
243.5058653625837
100
AcDbArc
 50
85.1287265541
 51
89.1044334622
  0
LINE
  5
184
330
1F
100
AcDbEntity
  8
0
  6
Continuous
 62
     7
370
    25
100
AcDbLine
 10
66.8191320925
 20
265.9107832315
 30
0.0
 11
66.8191320925
 21
267.9339984618
 31
0.0
  0
LINE
  5
185
330
1F
100
AcDbEntity
  8
0
  6
Continuous
 62
     7
370
    25
100
AcDbLine
 10
68.3191320925
 20
265.9107832315
 30
0.0
 11
66.8191320925
 21
265.9107832315
 31
0.0
  0
LINE
  5
186
330
1F
100
AcDbEntity
  8
0
  6
Continuous
 62
     7
370
    25
100
AcDbLine
 10
68.3191320925
 20
268.0252870719
 30
0.0
 11
68.3191320925
 21
265.9107832315
 31
0.0
  0
ARC
  5
187
330
1F
100
AcDbEntity
  8
0
  6
Continuous
 62
     7
370
    25
100
AcDbCircle
 10
70.5691320925
 20
218.6854319004
 30
0.0
 40
49.39113086731821
100
AcDbArc
 50
92.6109977974
 51
94.3543473105
  0
LWPOLYLINE
  5
188
330
1F
100
AcDbEntity
  8
0
  6
Continuous
 62
     7
370
    25
100
AcDbPolyline
 90
        3
 70
   128
 43
0.0
 10
63.1479215753
 20
271.8286294219
 10
63.1428811967
 20
271.8245152102
 10
63.1416708891
 20
271.8213519867
  0
ARC
  5
189
330
1F
100
AcDbEntity
  8
0
  6
Continuous
 62
     7
370
    25
100
AcDbCircle
 10
70.5691320925
 20
218.6854319004
 30
0.0
 40
53.65886514223472
100
AcDbArc
 50
97.9496907714
 51
99.4249515164
  0
LWPOLYLINE
  5
18A
330
1F
100
AcDbEntity
  8
0
  6
Continuous
 62
     7
370
    25
100
AcDbPolyline
 90
        3
 70
   128
 43
0.0
 10
61.7770934169
 20
271.6126766735
 10
61.7786928441
 20
271.6167194752
 10
61.782193229
 20
271.6199529028
  0
ARC
  5
18B
330
1F
100
AcDbEntity
  8
0
  6
Continuous
 62
     7
370
    25
100
AcDbCircle
 10
70.3987553551
 20
351.5902116522
 30
0.0
 40
80.44090474275961
100
AcDbArc
 50
263.8472155855
 51
269.3378409241
  0
LINE
  5
18C
330
1F
100
AcDbEntity
  8
0
  6
Continuous
 62
     7
370
    25
100
AcDbLine
 10
69.4691320925
 20
271.4376382664
 30
0.0
 11
69.4691320925
 21
271.1546787303
 31
0.0
  0
ARC
  5
18D
330
1F
100
AcDbEntity
  8
0
  6
Continuous
 62
     7
370
    25
100
AcDbCircle
 10
69.211015179
 20
319.5432310997
 30
0.0
 40
48.10628530846354
100
AcDbArc
 50
262.751944196
 51
270.307425124
  0
LWPOLYLINE
  5
18E
330
1F
100
AcDbEntity
  8
0
  6
Continuous
 62
     7
370
    25
100
AcDbPolyline
 90
        3
 70
   128
 43
0.0
 10
71.6691320925
 20
271.3711086332
 10
71.8231163658
 20
271.3669993388
 10
71.9441320925
 20
271.3638189942
  0
LINE
  5
18F
330
1F
100
AcDbEntity
  8
0
  6
Continuous
 62
     7
370
    25
100
AcDbLine
 10
71.6691320925
 20
271.089067328
 30
0.0
 11
71.6691320925
 21
271.3711086332
 31
0.0
  0
LWPOLYLINE
  5
190
330
1F
100
AcDbEntity
  8
0
  6
Continuous
 62
     7
370
    25
100
AcDbPolyline
 90
        3
 70
   128
 43
0.0
 10
71.9441318047
 20
271.0817535971
 10
71.7901194451
 20
271.0858256912
 10
71.6691320925
 20
271.089067328
  0
ARC
  5
191
330
1F
100
AcDbEntity
  8
0
  6
Continuous
 62
     7
370
    25
100
AcDbCircle
 10
70.314167903
 20
105.2327442882
 30
0.0
 40
165.857018757367
100
AcDbArc
 50
85.0512232743
 51
89.4369152638
  0
ARC
  5
192
330
1F
100
AcDbEntity
  8
0
  6
Continuous
 62
     7
370
    25
100
AcDbCircle
 10
70.5691320925
 20
218.6854319004
 30
0.0
 40
53.65886514224
100
AcDbArc
 50
74.8177765712
 51
76.3541120726
  0
ARC
  5
193
330
1F
100
AcDbEntity
  8
0
  6
Continuous
 62
     7
370
    25
100
AcDbCircle
 10
68.9717183878
 20
89.1217865329
 30
0.0
 40
182.266271259501
100
AcDbArc
 50
85.5138136114
 51
89.0655741794
  0
LWPOLYLINE
  5
194
330
1F
100
AcDbEntity
  8
0
  6
Continuous
 62
     7
370
    25
100
AcDbPolyline
 90
        3
 70
   128
 43
0.0
 10
43.3240462935
 20
249.3555707893
 10
43.4501994536
 20
249.4816597551
 10
43.7373453736
 20
249.7686549384
  0
LWPOLYLINE
  5
195
330
1F
100
AcDbEntity
  8
0
  6
Continuous
 62
     7
370
    25
100
AcDbPolyline
 90
        3
 70
   128
 43
0.0
 10
97.4009188114
 20
249.7686549384
 10
97.7664877725
 20
249.4032771689
 10
97.8142183493
 20
249.3555707893
  0
LINE
  5
196
330
1F
100
AcDbEntity
  8
0
  6
Continuous
 62
     7
370
    25
100
AcDbLine
 10
83.0218018167
 20
250.8555707893
 30
0.0
 11
83.7027875663
 21
250.8555707893
 31
0.0
  0
ARC
  5
197
330
1F
100
AcDbEntity
  8
0
  6
Continuous
 62
     7
370
    25
100
AcDbCircle
 10
81.6235234059
 20
250.7558041649
 30
0.0
 40
1.401833047632637
100
AcDbArc
 50
272.7374503896
 51
4.0811157692
  0
LINE
  5
198
330
1F
100
AcDbEntity
  8
0
  6
Continuous
 62
     7
370
    25
100
AcDbLine
 10
57.4354766187
 20
250.8555707893
 30
0.0
 11
58.1164623683
 21
250.8555707893
 31
0.0
  0
ARC
  5
199
330
1F
100
AcDbEntity
  8
0
  6
Continuous
 62
     7
370
    25
100
AcDbCircle
 10
59.5147407791
 20
250.7558041649
 30
0.0
 40
1.401833047632651
100
AcDbArc
 50
175.9188842308
 51
267.2625496104
  0
LWPOLYLINE
  5
19A
330
1F
100
AcDbEntity
  8
0
  6
Continuous
 62
     7
370
    25
100
AcDbPolyline
 90
        3
 70
   128
 43
0.0
 10
96.9913826995
 20
261.3555707893
 10
97.2022722981
 20
255.3954731733
 10
97.4009188114
 20
249.7686549384
  0
LWPOLYLINE
  5
19B
330
1F
100
AcDbEntity
  8
0
  6
Continuous
 62
     7
370
    25
100
AcDbPolyline
 90
        3
 70
   128
 43
0.0
 10
43.7373453736
 20
249.7686549384
 10
43.9900301802
 20
256.9242175631
 10
44.1468703018
 20
261.3555707893
  0
LINE
  5
19C
330
1F
100
AcDbEntity
  8
0
  6
Continuous
 62
     7
370
    25
100
AcDbLine
 10
83.560104288
 20
259.8555707893
 30
0.0
 11
82.8791185384
 21
259.8555707893
 31
0.0
  0
ARC
  5
19D
330
1F
100
AcDbEntity
  8
0
  6
Continuous
 62
     7
370
    25
100
AcDbCircle
 10
81.4252172194
 20
259.9028223339
 30
0.0
 40
1.454668949892751
100
AcDbArc
 50
358.1385521419
 51
87.0555114205
  0
LINE
  5
19E
330
1F
100
AcDbEntity
  8
0
  6
Continuous
 62
     7
370
    25
100
AcDbLine
 10
58.2591456466
 20
259.8555707893
 30
0.0
 11
57.578159897
 21
259.8555707893
 31
0.0
  0
ARC
  5
19F
330
1F
100
AcDbEntity
  8
0
  6
Continuous
 62
     7
370
    25
100
AcDbCircle
 10
59.7130469656
 20
259.9028223339
 30
0.0
 40
1.454668949892783
100
AcDbArc
 50
92.9444885795
 51
181.8614478581
  0
LINE
  5
1A0
330
1F
100
AcDbEntity
  8
0
  6
Continuous
 62
     7
370
    25
100
AcDbLine
 10
83.0218018167
 20
250.8555707893
 30
0.0
 11
82.8791185384
 21
259.8555707893
 31
0.0
  0
LINE
  5
1A1
330
1F
100
AcDbEntity
  8
0
  6
Continuous
 62
     7
370
    25
100
AcDbLine
 10
58.1164623683
 20
250.8555707893
 30
0.0
 11
58.2591456466
 21
259.8555707893
 31
0.0
  0
ARC
  5
1A2
330
1F
100
AcDbEntity
  8
0
  6
Continuous
 62
     7
370
    25
100
AcDbCircle
 10
70.5691320925
 20
218.6854319004
 30
0.0
 40
47.75691983038605
100
AcDbArc
 50
89.1001596971
 51
90.8998403029
  0
ARC
  5
1A3
330
1F
100
AcDbEntity
  8
0
  6
Continuous
 62
     7
370
    25
100
AcDbCircle
 10
70.5691320925
 20
218.6854319004
 30
0.0
 40
47.75691983039027
100
AcDbArc
 50
92.7004095773
 51
94.5036527799
  0
ARC
  5
1A4
330
1F
100
AcDbEntity
  8
0
  6
Continuous
 62
     7
370
    25
100
AcDbCircle
 10
70.5691320925
 20
218.6854319004
 30
0.0
 40
47.75691983039027
100
AcDbArc
 50
85.4963472201
 51
87.2995904227
  0
LINE
  5
1A5
330
1F
100
AcDbEntity
  8
0
  6
Continuous
 62
     7
370
    25
100
AcDbLine
 10
40.0968738739
 20
227.3555707893
 30
0.0
 11
40.6717122736
 21
227.3555707893
 31
0.0
  0
LINE
  5
1A6
330
1F
100
AcDbEntity
  8
0
  6
Continuous
 62
     7
370
    25
100
AcDbLine
 10
40.6717122736
 20
227.3555707893
 30
0.0
 11
40.6717107631
 21
229.0555707893
 31
0.0
  0
LINE
  5
1A7
330
1F
100
AcDbEntity
  8
0
  6
Continuous
 62
     7
370
    25
100
AcDbLine
 10
101.0413903112
 20
227.3555707893
 30
0.0
 11
100.4665519114
 21
227.3555707893
 31
0.0
  0
LINE
  5
1A8
330
1F
100
AcDbEntity
  8
0
  6
Continuous
 62
     7
370
    25
100
AcDbLine
 10
100.4665519114
 20
227.3555707893
 30
0.0
 11
100.4665534767
 21
229.0555707893
 31
0.0
  0
LINE
  5
1A9
330
1F
100
AcDbEntity
  8
0
  6
Continuous
 62
     7
370
    25
100
AcDbLine
 10
88.8160261206
 20
268.7993258329
 30
0.0
 11
88.8160261206
 21
269.1465522474
 31
0.0
  0
LINE
  5
1AA
330
1F
100
AcDbEntity
  8
0
  6
Continuous
 62
     7
370
    25
100
AcDbLine
 10
57.6416708891
 20
270.193384374
 30
0.0
 11
57.6416708891
 21
270.7572470232
 31
0.0
  0
LINE
  5
1AB
330
1F
100
AcDbEntity
  8
0
  6
Continuous
 62
     7
370
    25
100
AcDbLine
 10
83.2283571371
 20
270.6090147015
 30
0.0
 11
83.2283571371
 21
270.8296341632
 31
0.0
  0
LINE
  5
1AC
330
1F
100
AcDbEntity
  8
0
  6
Continuous
 62
     7
370
    25
100
AcDbLine
 10
63.1416708891
 20
271.4452022641
 30
0.0
 11
63.1416708891
 21
271.8213519867
 31
0.0
  0
LINE
  5
1AD
330
1F
100
AcDbEntity
  8
0
  6
Continuous
 62
     7
370
    25
100
AcDbLine
 10
77.4674156828
 20
271.7892882088
 30
0.0
 11
77.4674156828
 21
271.8990344082
 31
0.0
  0
LINE
  5
1AE
330
1F
100
AcDbEntity
  8
0
  6
Continuous
 62
     7
370
    25
100
AcDbLine
 10
69.0691320925
 20
272.250661372
 30
0.0
 11
69.0691320925
 21
272.0966521457
 31
0.0
  0
LINE
  5
1AF
330
1F
100
AcDbEntity
  8
0
  6
Continuous
 62
     7
370
    25
100
AcDbLine
 10
97.9609030222
 20
250.8555707893
 30
0.0
 11
99.4588473244
 21
250.8555707893
 31
0.0
  0
ARC
  5
1B0
330
1F
100
AcDbEntity
  8
0
  6
Continuous
 62
     7
370
    25
100
AcDbCircle
 10
93.7769672952
 20
250.2912457193
 30
0.0
 40
4.221821994478885
100
AcDbArc
 50
347.1953152921
 51
7.6816390011
  0
LINE
  5
1B1
330
1F
100
AcDbEntity
  8
0
  6
Continuous
 62
     7
370
    25
100
AcDbLine
 10
41.6794168607
 20
250.8555707893
 30
0.0
 11
43.1773611628
 21
250.8555707893
 31
0.0
  0
ARC
  5
1B2
330
1F
100
AcDbEntity
  8
0
  6
Continuous
 62
     7
370
    25
100
AcDbCircle
 10
47.3612968899
 20
250.2912457193
 30
0.0
 40
4.221821994478201
100
AcDbArc
 50
172.3183609989
 51
192.8046847079
  0
LINE
  5
1B3
330
1F
100
AcDbEntity
  8
0
  6
Continuous
 62
     7
370
    25
100
AcDbLine
 10
99.1449911183
 20
259.8555707893
 30
0.0
 11
97.6470468161
 21
259.8555707893
 31
0.0
  0
ARC
  5
1B4
330
1F
100
AcDbEntity
  8
0
  6
Continuous
 62
     7
370
    25
100
AcDbCircle
 10
93.3729091547
 20
260.1243508951
 30
0.0
 40
4.282580471407396
100
AcDbArc
 50
356.4016803051
 51
16.7080365289
  0
LINE
  5
1B5
330
1F
100
AcDbEntity
  8
0
  6
Continuous
 62
     7
370
    25
100
AcDbLine
 10
43.4912173689
 20
259.8555707893
 30
0.0
 11
41.9932730668
 21
259.8555707893
 31
0.0
  0
ARC
  5
1B6
330
1F
100
AcDbEntity
  8
0
  6
Continuous
 62
     7
370
    25
100
AcDbCircle
 10
47.7653550303
 20
260.1243508951
 30
0.0
 40
4.282580471408824
100
AcDbArc
 50
163.2919634711
 51
183.5983196949
  0
LINE
  5
1B7
330
1F
100
AcDbEntity
  8
0
  6
Continuous
 62
     7
370
    25
100
AcDbLine
 10
97.9609030222
 20
250.8555707893
 30
0.0
 11
97.6470468161
 21
259.8555707893
 31
0.0
  0
LINE
  5
1B8
330
1F
100
AcDbEntity
  8
0
  6
Continuous
 62
     7
370
    25
100
AcDbLine
 10
43.1773611628
 20
250.8555707893
 30
0.0
 11
43.4912173689
 21
259.8555707893
 31
0.0
  0
ARC
  5
1B9
330
1F
100
AcDbEntity
  8
0
  6
Continuous
 62
     7
370
    25
100
AcDbCircle
 10
70.5691320925
 20
218.6854319004
 30
0.0
 40
53.5862277861827
100
AcDbArc
 50
91.6040482891
 51
93.2093555133
  0
LINE
  5
1BA
330
1F
100
AcDbEntity
  8
0
  6
Continuous
 62
     7
370
    25
100
AcDbLine
 10
68.0691320925
 20
246.1555707893
 30
0.0
 11
73.0691320925
 21
246.1555707893
 31
0.0
  0
ARC
  5
1BB
330
1F
100
AcDbEntity
  8
0
  6
Continuous
 62
     7
370
    25
100
AcDbCircle
 10
70.5691320925
 20
246.1555707893
 30
0.0
 40
2.5
100
AcDbArc
 50
90.0
 51
180.0
  0
ARC
  5
1BC
330
1F
100
AcDbEntity
  8
0
  6
Continuous
 62
     7
370
    25
100
AcDbCircle
 10
70.5691320925
 20
246.1555707893
 30
0.0
 40
2.5
100
AcDbArc
 50
0.0
 51
90.0
  0
LINE
  5
1BD
330
1F
100
AcDbEntity
  8
0
  6
Continuous
 62
     7
370
    25
100
AcDbLine
 10
68.0691320925
 20
245.0632220122
 30
0.0
 11
68.0691320925
 21
246.1555707893
 31
0.0
  0
LINE
  5
1BE
330
1F
100
AcDbEntity
  8
0
  6
Continuous
 62
     7
370
    25
100
AcDbLine
 10
73.0691320925
 20
245.0701629997
 30
0.0
 11
73.0691320925
 21
246.1555707893
 31
0.0
  0
LINE
  5
1BF
330
1F
100
AcDbEntity
  8
0
  6
Continuous
 62
     7
370
    25
100
AcDbLine
 10
33.0691320925
 20
223.4555707893
 30
0.0
 11
108.0691320925
 21
223.4555707893
 31
0.0
  0
LINE
  5
1C0
330
1F
100
AcDbEntity
  8
0
  6
Continuous
 62
     7
370
    25
100
AcDbLine
 10
33.0691320925
 20
223.4555707893
 30
0.0
 11
33.0691320925
 21
227.3555707893
 31
0.0
  0
LINE
  5
1C1
330
1F
100
AcDbEntity
  8
0
  6
Continuous
 62
     7
370
    25
100
AcDbLine
 10
108.0691320925
 20
223.4555707893
 30
0.0
 11
108.0691320925
 21
227.3555707893
 31
0.0
  0
LINE
  5
1C2
330
1F
100
AcDbEntity
  8
0
  6
Continuous
 62
     7
370
    25
100
AcDbLine
 10
41.6726876911
 20
227.4555707893
 30
0.0
 11
40.6717121847
 21
227.4555707893
 31
0.0
  0
LINE
  5
1C3
330
1F
100
AcDbEntity
  8
0
  6
Continuous
 62
     7
370
    25
100
AcDbLine
 10
100.4665520035
 20
227.4555707893
 30
0.0
 11
99.4655764939
 21
227.4555707893
 31
0.0
  0
LINE
  5
1C4
330
1F
100
AcDbEntity
  8
0
  6
Continuous
 62
     1
370
    25
100
AcDbLine
 10
71.9441320925
 20
269.5594144566
 30
0.0
 11
71.9441320925
 21
269.9963507537
 31
0.0
  0
LINE
  5
1C5
330
1F
100
AcDbEntity
  8
0
  6
Continuous
 62
     1
370
    25
100
AcDbLine
 10
71.9441320925
 20
271.081753589
 30
0.0
 11
71.9441320925
 21
271.3638189942
 31
0.0
  0
LINE
  5
1C6
330
1F
100
AcDbEntity
  8
0
  6
Continuous
 62
     1
370
    25
100
AcDbLine
 10
71.9441320925
 20
271.9966591606
 30
0.0
 11
71.9441320925
 21
272.1336735931
 31
0.0
  0
DIMENSION
  5
1C7
330
1F
100
AcDbEntity
  8
FORMAT
 62
     7
100
AcDbDimension
  2
_D
 10
122.3763826708
 20
227.3555707893
 30
0.0
 11
122.3763826708
 21
233.8555707893
 31
0.0
 70
   160
  1
<>
 71
     2
 42
-1.0
  3
SLDDIMSTYLE0
100
AcDbAlignedDimension
 13
109.4325813738
 23
240.3555707893
 33
0.0
 14
109.3191320925
 24
227.3555707893
 34
0.0
 50
90.0
100
AcDbRotatedDimension
  0
DIMENSION
  5
1D2
330
1F
100
AcDbEntity
  8
FORMAT
 62
     7
100
AcDbDimension
  2
_D_1
 10
23.8243039807
 20
272.3522168642
 30
0.0
 11
23.8243039807
 21
247.9038938267
 31
0.0
 70
   160
  1
<>
 71
     2
 42
-1.0
  3
SLDDIMSTYLE1
100
AcDbAlignedDimension
 13
33.0691320925
 23
223.4555707893
 33
0.0
 14
70.5691320925
 24
272.3522168642
 34
0.0
 50
90.0
100
AcDbRotatedDimension
  0
DIMENSION
  5
1DD
330
1F
100
AcDbEntity
  8
FORMAT
 62
     7
100
AcDbDimension
  2
_D_2
 10
122.3763826708
 20
227.4555707893
 30
0.0
 11
122.3763826708
 21
217.9713745882
 31
0.0
 70
   160
  1
<>
 71
     2
 42
-1.0
  3
SLDDIMSTYLE2
100
AcDbAlignedDimension
 13
108.0691320925
 23
223.4555707893
 33
0.0
 14
108.0691320925
 24
227.4555707893
 34
0.0
 50
90.0
100
AcDbRotatedDimension
  0
LINE
  5
1EA
330
1F
100
AcDbEntity
  8
0
  6
Continuous
 62
     7
370
    25
100
AcDbLine
 10
180.1423959125
 20
102.0007504333
 30
0.0
 11
180.1423959125
 21
109.1023225855
 31
0.0
  0
LINE
  5
1EB
330
1F
100
AcDbEntity
  8
0
  6
Continuous
 62
     7
370
    25
100
AcDbLine
 10
188.8687236005
 20
76.4409016169
 30
0.0
 11
188.8687236005
 21
76.8256291358
 31
0.0
  0
LINE
  5
1EC
330
1F
100
AcDbEntity
  8
0
  6
Continuous
 62
     7
370
    25
100
AcDbLine
 10
155.6249575518
 20
63.2243903427
 30
0.0
 11
155.6249575518
 21
63.141736243
 31
0.0
  0
LINE
  5
1ED
330
1F
100
AcDbEntity
  8
0
  6
Continuous
 62
     7
370
    25
100
AcDbLine
 10
158.1249575518
 20
63.141736243
 30
0.0
 11
158.1249575518
 21
63.3337776931
 31
0.0
  0
LINE
  5
1EE
330
1F
100
AcDbEntity
  8
0
  6
Continuous
 62
     7
370
    25
100
AcDbLine
 10
154.4249575518
 20
62.9784280806
 30
0.0
 11
154.4249575518
 21
59.3856485083
 31
0.0
  0
LINE
  5
1EF
330
1F
100
AcDbEntity
  8
0
  6
Continuous
 62
     7
370
    25
100
AcDbLine
 10
159.3249575518
 20
59.3856485083
 30
0.0
 11
159.3249575518
 21
62.9784280806
 31
0.0
  0
LINE
  5
1F0
330
1F
100
AcDbEntity
  8
0
  6
Continuous
 62
     7
370
    25
100
AcDbLine
 10
155.1422644409
 20
58.3857111025
 30
0.0
 11
155.2837087765
 21
58.3040304834
 31
0.0
  0
LINE
  5
1F1
330
1F
100
AcDbEntity
  8
0
  6
Continuous
 62
     7
370
    25
100
AcDbLine
 10
125.0694868362
 20
106.4148622156
 30
0.0
 11
125.0210216629
 21
105.2819625122
 31
0.0
  0
LINE
  5
1F2
330
1F
100
AcDbEntity
  8
0
  6
Continuous
 62
     7
370
    25
100
AcDbLine
 10
125.5872155175
 20
118.5170508401
 30
0.0
 11
125.4884083387
 21
116.2073794661
 31
0.0
  0
LINE
  5
1F3
330
1F
100
AcDbEntity
  8
0
  6
Continuous
 62
     7
370
    25
100
AcDbLine
 10
194.0423959125
 20
98.6529331046
 30
0.0
 11
194.0423959125
 21
99.6967271564
 31
0.0
  0
LINE
  5
1F4
330
1F
100
AcDbEntity
  8
0
  6
Continuous
 62
     7
370
    25
100
AcDbLine
 10
115.2380987483
 20
93.0491812834
 30
0.0
 11
115.2931334625
 21
87.8998841992
 31
0.0
  0
LINE
  5
1F5
330
1F
100
AcDbEntity
  8
0
  6
Continuous
 62
     7
370
    25
100
AcDbLine
 10
182.5963834863
 20
116.2073794661
 30
0.0
 11
182.4975763075
 21
118.5170508401
 31
0.0
  0
LINE
  5
1F6
330
1F
100
AcDbEntity
  8
0
  6
Continuous
 62
     7
370
    25
100
AcDbLine
 10
183.0637701621
 20
105.2819625122
 30
0.0
 11
183.0153049888
 21
106.4148622156
 31
0.0
  0
LINE
  5
1F7
330
1F
100
AcDbEntity
  8
0
  6
Continuous
 62
     7
370
    25
100
AcDbLine
 10
139.7399347091
 20
122.0451143249
 30
0.0
 11
139.7399347091
 21
120.771969614
 31
0.0
  0
LINE
  5
1F8
330
1F
100
AcDbEntity
  8
0
  6
Continuous
 62
     7
370
    25
100
AcDbLine
 10
168.3448571159
 20
123.0170944457
 30
0.0
 11
168.3448571159
 21
124.2902418408
 31
0.0
  0
LINE
  5
1F9
330
1F
100
AcDbEntity
  8
0
  6
Continuous
 62
     7
370
    25
100
AcDbLine
 10
114.0423959125
 20
99.6967271564
 30
0.0
 11
114.0423959125
 21
98.6529331046
 31
0.0
  0
LINE
  5
1FA
330
1F
100
AcDbEntity
  8
0
  6
Continuous
 62
     7
370
    25
100
AcDbLine
 10
145.2399347091
 20
123.037099504
 30
0.0
 11
145.2399347091
 21
121.7941183566
 31
0.0
  0
LINE
  5
1FB
330
1F
100
AcDbEntity
  8
0
  6
Continuous
 62
     7
370
    25
100
AcDbLine
 10
162.8448571159
 20
124.0392385966
 30
0.0
 11
162.8448571159
 21
125.2822197917
 31
0.0
  0
LINE
  5
1FC
330
1F
100
AcDbEntity
  8
0
  6
Continuous
 62
     7
370
    25
100
AcDbLine
 10
133.2078721333
 20
90.3719148324
 30
0.0
 11
133.2078721333
 21
89.9181359684
 31
0.0
  0
LINE
  5
1FD
330
1F
100
AcDbEntity
  8
0
  6
Continuous
 62
     7
370
    25
100
AcDbLine
 10
192.7916583625
 20
87.8998841992
 30
0.0
 11
192.8466930767
 21
93.0491812834
 31
0.0
  0
LINE
  5
1FE
330
1F
100
AcDbEntity
  8
0
  6
Continuous
 62
     7
370
    25
100
AcDbLine
 10
135.0220588302
 20
110.7004167632
 30
0.0
 11
135.0306534203
 21
111.1024375639
 31
0.0
  0
LINE
  5
1FF
330
1F
100
AcDbEntity
  8
0
  6
Continuous
 62
     7
370
    25
100
AcDbLine
 10
134.6197488438
 20
110.2159808534
 30
0.0
 11
134.585121197
 21
110.5985256302
 31
0.0
  0
ARC
  5
200
330
1F
100
AcDbEntity
  8
0
  6
Continuous
 62
     7
370
    25
100
AcDbCircle
 10
130.7078721333
 20
89.9181359684
 30
0.0
 40
2.5
100
AcDbArc
 50
119.9973117337
 51
180.0
  0
LINE
  5
201
330
1F
100
AcDbEntity
  8
0
  6
Continuous
 62
     7
370
    25
100
AcDbLine
 10
128.2078721333
 20
89.9181359684
 30
0.0
 11
128.2078721333
 21
87.8063526978
 31
0.0
  0
ARC
  5
202
330
1F
100
AcDbEntity
  8
0
  6
Continuous
 62
     7
370
    25
100
AcDbCircle
 10
130.7078721333
 20
89.9181359684
 30
0.0
 40
2.500000000000028
100
AcDbArc
 50
0.0
 51
119.9973117337
  0
LWPOLYLINE
  5
203
330
1F
100
AcDbEntity
  8
0
  6
Continuous
 62
     7
370
    25
100
AcDbPolyline
 90
        3
 70
   128
 43
0.0
 10
180.074906684
 20
100.9179114909
 10
180.1422681834
 20
101.9536123366
 10
180.1423959125
 20
102.0007504333
  0
LWPOLYLINE
  5
204
330
1F
100
AcDbEntity
  8
0
  6
Continuous
 62
     7
370
    25
100
AcDbPolyline
 90
        3
 70
   128
 43
0.0
 10
188.1511352144
 20
75.44080168
 10
187.6437236005
 20
75.2160343482
 10
187.612697764
 20
75.2058666766
  0
ARC
  5
205
330
1F
100
AcDbEntity
  8
0
  6
Continuous
 62
     7
370
    25
100
AcDbCircle
 10
187.6448739683
 20
76.5615433548
 30
0.0
 40
1.229781424081728
100
AcDbArc
 50
294.3096379775
 51
354.3702210649
  0
LINE
  5
206
330
1F
100
AcDbEntity
  8
0
  6
Continuous
 62
     7
370
    25
100
AcDbLine
 10
188.0097138582
 20
75.3591343288
 30
0.0
 11
188.1511352144
 21
75.44080168
 31
0.0
  0
LINE
  5
207
330
1F
100
AcDbEntity
  8
0
  6
Continuous
 62
     7
370
    25
100
AcDbLine
 10
188.0097138582
 20
75.3591343288
 30
0.0
 11
187.5763143992
 21
75.1637896255
 31
0.0
  0
LWPOLYLINE
  5
208
330
1F
100
AcDbEntity
  8
0
  6
Continuous
 62
     7
370
    25
100
AcDbPolyline
 90
        8
 70
   128
 43
0.0
 10
157.7588410283
 20
62.6314811731
 10
157.403230379
 20
62.487735807
 10
156.9839022302
 20
62.4228725454
 10
156.5514337454
 20
62.4447148551
 10
156.1579870064
 20
62.5506282311
 10
155.8510174964
 20
62.7278379572
 10
155.6675502689
 20
62.954969925
 10
155.6249575518
 20
63.141736243
  0
LINE
  5
209
330
1F
100
AcDbEntity
  8
0
  6
Continuous
 62
     7
370
    25
100
AcDbLine
 10
158.6073691657
 20
61.9783281436
 30
0.0
 11
158.4659478095
 21
62.2232771172
 31
0.0
  0
LWPOLYLINE
  5
20A
330
1F
100
AcDbEntity
  8
0
  6
Continuous
 62
     7
370
    25
100
AcDbPolyline
 90
       11
 70
   128
 43
0.0
 10
158.6073691657
 20
61.9783281436
 10
158.0999575518
 20
61.7535608119
 10
157.5090642123
 20
61.6122661604
 10
156.8749575518
 20
61.564073186
 10
156.2408508913
 20
61.6122661604
 10
155.6499575518
 20
61.7535608119
 10
155.1425459379
 20
61.9783281436
 10
154.7531953125
 20
62.2712506333
 10
154.5084392774
 20
62.6123660974
 10
154.4249575518
 20
62.9784280806
 10
154.4570007265
 20
63.2064273424
  0
LWPOLYLINE
  5
20B
330
1F
100
AcDbEntity
  8
0
  6
Continuous
 62
     7
370
    25
100
AcDbPolyline
 90
       11
 70
   128
 43
0.0
 10
158.4659478095
 20
62.2232771172
 10
157.9999575518
 20
62.0168581391
 10
157.4573004033
 20
61.8870977448
 10
156.8749575518
 20
61.8428388908
 10
156.2926147003
 20
61.8870977448
 10
155.7499575518
 20
62.0168581391
 10
155.2839672941
 20
62.2232771172
 10
154.9264003933
 20
62.4922875669
 10
154.7016244427
 20
62.8055568706
 10
154.6249575518
 20
63.141736243
 10
154.6278646301
 20
63.2077427279
  0
ARC
  5
20C
330
1F
100
AcDbEntity
  8
0
  6
Continuous
 62
     7
370
    25
100
AcDbCircle
 10
157.5314374004
 20
63.1811219602
 30
0.0
 40
0.5948255246834443
100
AcDbArc
 50
292.4764136476
 51
356.2034453947
  0
LINE
  5
20D
330
1F
100
AcDbEntity
  8
0
  6
Continuous
 62
     7
370
    25
100
AcDbLine
 10
158.6073691657
 20
58.3855485713
 30
0.0
 11
158.6073691657
 21
61.9783281436
 31
0.0
  0
LWPOLYLINE
  5
20E
330
1F
100
AcDbEntity
  8
0
  6
Continuous
 62
     7
370
    25
100
AcDbPolyline
 90
       10
 70
   128
 43
0.0
 10
158.6073691657
 20
58.3855485713
 10
158.0999575518
 20
58.1607812396
 10
157.5090642123
 20
58.0194865881
 10
156.8749575518
 20
57.9712936137
 10
156.2408508913
 20
58.0194865881
 10
155.6499575518
 20
58.1607812396
 10
155.1425459379
 20
58.3855485713
 10
154.7531953125
 20
58.678471061
 10
154.5084392774
 20
59.0195865251
 10
154.4249575518
 20
59.3856485083
  0
ARC
  5
20F
330
1F
100
AcDbEntity
  8
0
  6
Continuous
 62
     7
370
    25
100
AcDbCircle
 10
158.1046535509
 20
63.1603032289
 30
0.0
 40
1.004266635577909
100
AcDbArc
 50
291.0854143531
 51
13.8846410612
  0
LWPOLYLINE
  5
210
330
1F
100
AcDbEntity
  8
0
  6
Continuous
 62
     7
370
    25
100
AcDbPolyline
 90
        6
 70
   128
 43
0.0
 10
158.6073691657
 20
61.9783281436
 10
158.9967197911
 20
62.2712506333
 10
159.2414758262
 20
62.6123660974
 10
159.3249575518
 20
62.9784280806
 10
159.2414758262
 20
63.3444900639
 10
159.2073233764
 20
63.4114206731
  0
ARC
  5
211
330
1F
100
AcDbEntity
  8
0
  6
Continuous
 62
     7
370
    25
100
AcDbCircle
 10
158.1011079197
 20
59.5062902462
 30
0.0
 40
1.22978142408197
100
AcDbArc
 50
294.3096379775
 51
354.3702210649
  0
LINE
  5
212
330
1F
100
AcDbEntity
  8
0
  6
Continuous
 62
     7
370
    25
100
AcDbLine
 10
158.4659478095
 20
58.3038812201
 30
0.0
 11
158.6073691657
 21
58.3855485713
 31
0.0
  0
ARC
  5
213
330
1F
100
AcDbEntity
  8
0
  6
Continuous
 62
     7
370
    25
100
AcDbCircle
 10
156.8749680699
 20
61.2839486948
 30
0.0
 40
3.378167948028906
100
AcDbArc
 50
241.8980378117
 51
298.0965872573
  0
ARC
  5
214
330
1F
100
AcDbEntity
  8
0
  6
Continuous
 62
     7
370
    25
100
AcDbCircle
 10
178.2562947762
 20
80.3537348174
 30
0.0
 40
52.64503291821897
100
AcDbArc
 50
120.0159649377
 51
122.7201393679
  0
ARC
  5
215
330
1F
100
AcDbEntity
  8
0
  6
Continuous
 62
     7
370
    25
100
AcDbCircle
 10
151.2024866322
 20
123.4754845579
 30
0.0
 40
1.826376433337145
100
AcDbArc
 50
140.1782686235
 51
203.0713123937
  0
ARC
  5
216
330
1F
100
AcDbEntity
  8
0
  6
Continuous
 62
     7
370
    25
100
AcDbCircle
 10
182.0799701559
 20
75.8507521415
 30
0.0
 40
57.10048335571436
100
AcDbArc
 50
123.2880901841
 51
124.7630581073
  0
LWPOLYLINE
  5
217
330
1F
100
AcDbEntity
  8
0
  6
Continuous
 62
     7
370
    25
100
AcDbPolyline
 90
        3
 70
   128
 43
0.0
 10
150.8604153972
 20
124.0842701803
 10
150.7672715044
 20
123.8051735454
 10
150.740422934
 20
123.5822719097
  0
ARC
  5
218
330
1F
100
AcDbEntity
  8
0
  6
Continuous
 62
     7
370
    25
100
AcDbCircle
 10
179.5748183335
 20
79.374838713
 30
0.0
 40
53.13614775390104
100
AcDbArc
 50
120.5609810958
 51
122.7103968905
  0
ARC
  5
219
330
1F
100
AcDbEntity
  8
0
  6
Continuous
 62
     7
370
    25
100
AcDbCircle
 10
128.3347308758
 20
80.7205772532
 30
0.0
 40
50.58573938358386
100
AcDbArc
 50
58.6153868419
 51
61.3899896908
  0
ARC
  5
21A
330
1F
100
AcDbEntity
  8
0
  6
Continuous
 62
     7
370
    25
100
AcDbCircle
 10
181.6961386826
 20
78.1502265362
 30
0.0
 40
53.13614776452431
100
AcDbArc
 50
120.560981096
 51
122.7103968902
  0
ARC
  5
21B
330
1F
100
AcDbEntity
  8
0
  6
Continuous
 62
     7
370
    25
100
AcDbCircle
 10
125.0126388079
 20
76.9885710909
 30
0.0
 40
53.72547811431393
100
AcDbArc
 50
57.2935522161
 51
58.6279764341
  0
ARC
  5
21C
330
1F
100
AcDbEntity
  8
0
  6
Continuous
 62
     7
370
    25
100
AcDbCircle
 10
182.4989354662
 20
77.9045104772
 30
0.0
 40
52.6450329237522
100
AcDbArc
 50
120.0159649377
 51
122.7201393677
  0
ARC
  5
21D
330
1F
100
AcDbEntity
  8
0
  6
Continuous
 62
     7
370
    25
100
AcDbCircle
 10
115.5387418094
 20
62.4171883033
 30
0.0
 40
73.34962970559968
100
AcDbArc
 50
36.9337256592
 51
56.3681932874
  0
LWPOLYLINE
  5
21E
330
1F
100
AcDbEntity
  8
0
  6
Continuous
 62
     7
370
    25
100
AcDbPolyline
 90
       44
 70
   128
 43
0.0
 10
174.1693818848
 20
106.4923085221
 10
172.6465131213
 20
105.6751678192
 10
171.024383343
 20
104.9243796368
 10
169.3116473141
 20
104.2439497547
 10
167.5174432224
 20
103.6375085608
 10
165.651343923
 20
103.1082916812
 10
163.723305863
 20
102.6591227169
 10
161.7436159599
 20
102.2923981788
 10
159.7228367156
 20
102.0100747008
 10
157.671749862
 20
101.813658601
 10
155.6012988346
 20
101.7041978442
 10
153.5225303857
 20
101.6822764508
 10
151.4465356443
 20
101.7480113811
 10
149.3843909406
 20
101.9010519107
 10
147.3470987088
 20
102.1405815021
 10
145.3455287845
 20
102.4653221614
 10
143.3903604092
 20
102.8735412566
 10
141.4920252521
 20
103.3630607623
 10
139.6606517527
 20
103.93126888
 10
137.906011081
 20
104.5751339737
 10
136.2374650042
 20
105.2912207444
 10
134.6639159375
 20
106.0757085594
 10
133.1937594459
 20
106.9244118368
 10
131.8348394506
 20
107.8328023774
 10
130.5944063776
 20
108.7960335246
 10
129.4790784741
 20
109.8089660235
 10
128.494806497
 20
110.8661954409
 10
127.6468419632
 20
111.9620810005
 10
126.9397091303
 20
113.0907756786
 10
126.377180858
 20
114.2462574008
 10
125.962258478
 20
115.4223611721
 10
125.6971557808
 20
116.6128119701
 10
125.5832872038
 20
117.8112582247
 10
125.6212602854
 20
119.0113057065
 10
125.8108724225
 20
120.2065516431
 10
126.1511119525
 20
121.3906188801
 10
126.6401635502
 20
122.5571899067
 10
127.2754179137
 20
123.7000405615
 10
128.0534856863
 20
124.8130732419
 10
128.9702155395
 20
125.890349437
 10
130.0207163232
 20
126.9261214121
 10
131.1993831609
 20
127.9148628757
 10
132.4999273553
 20
128.8512984641
 10
133.9154099402
 20
129.7304318884
  0
ARC
  5
21F
330
1F
100
AcDbEntity
  8
0
  6
Continuous
 62
     7
370
    25
100
AcDbCircle
 10
136.9533041534
 20
99.5116170196
 30
0.0
 40
30.37113059010975
100
AcDbArc
 50
60.4733116742
 51
95.7406515671
  0
ARC
  5
220
330
1F
100
AcDbEntity
  8
0
  6
Continuous
 62
     7
370
    25
100
AcDbCircle
 10
115.9176802094
 20
72.3926483613
 30
0.0
 40
46.55875710187797
100
AcDbArc
 50
59.2490938951
 51
60.7562826376
  0
ARC
  5
221
330
1F
100
AcDbEntity
  8
0
  6
Continuous
 62
     7
370
    25
100
AcDbCircle
 10
199.2309119044
 20
56.3583931911
 30
0.0
 40
82.938197425602
100
AcDbArc
 50
136.9098540391
 51
140.2239840999
  0
ARC
  5
222
330
1F
100
AcDbEntity
  8
0
  6
Continuous
 62
     7
370
    25
100
AcDbCircle
 10
148.033937569
 20
129.9278898837
 30
0.0
 40
24.0396812898647
100
AcDbArc
 50
238.5430515679
 51
241.4623249648
  0
ARC
  5
223
330
1F
100
AcDbEntity
  8
0
  6
Continuous
 62
     7
370
    25
100
AcDbCircle
 10
200.2915720678
 20
55.7460871146
 30
0.0
 40
82.93819741447929
100
AcDbArc
 50
136.9098540388
 51
140.2239841001
  0
ARC
  5
224
330
1F
100
AcDbEntity
  8
0
  6
Continuous
 62
     7
370
    25
100
AcDbCircle
 10
150.0128311131
 20
133.7839232144
 30
0.0
 40
28.37510801419537
100
AcDbArc
 50
244.221056795
 51
246.8531023309
  0
ARC
  5
225
330
1F
100
AcDbEntity
  8
0
  6
Continuous
 62
     7
370
    25
100
AcDbCircle
 10
202.238790367
 20
54.640806213
 30
0.0
 40
82.65319989325951
100
AcDbArc
 50
136.9443920571
 51
140.0689643731
  0
ARC
  5
226
330
1F
100
AcDbEntity
  8
0
  6
Continuous
 62
     7
370
    25
100
AcDbCircle
 10
113.6733728243
 20
68.7275782843
 30
0.0
 40
50.8567411140194
100
AcDbArc
 50
56.3624701547
 51
57.7861257167
  0
ARC
  5
227
330
1F
100
AcDbEntity
  8
0
  6
Continuous
 62
     7
370
    25
100
AcDbCircle
 10
201.2943706411
 20
55.1734104167
 30
0.0
 40
82.84344524415931
100
AcDbArc
 50
136.9213297364
 51
140.1725916202
  0
LWPOLYLINE
  5
228
330
1F
100
AcDbEntity
  8
0
  6
Continuous
 62
     7
370
    25
100
AcDbPolyline
 90
        3
 70
   128
 43
0.0
 10
151.4571419704
 20
122.3005327405
 10
151.5933070814
 20
122.2030955046
 10
151.707203201
 20
122.1304117567
  0
ARC
  5
229
330
1F
100
AcDbEntity
  8
0
  6
Continuous
 62
     7
370
    25
100
AcDbCircle
 10
184.1626096759
 20
74.0588152748
 30
0.0
 40
58.28302430271238
100
AcDbArc
 50
124.1353042427
 51
125.2945956799
  0
LWPOLYLINE
  5
22A
330
1F
100
AcDbEntity
  8
0
  6
Continuous
 62
     7
370
    25
100
AcDbPolyline
 90
        3
 70
   128
 43
0.0
 10
150.7423012169
 20
121.461507822
 10
150.597045541
 20
121.5537524804
 10
150.4878065278
 20
121.6289587979
  0
ARC
  5
22B
330
1F
100
AcDbEntity
  8
0
  6
Continuous
 62
     7
370
    25
100
AcDbCircle
 10
156.3590203411
 20
131.7473893974
 30
0.0
 40
11.71950909823253
100
AcDbArc
 50
241.3627659249
 51
283.9327581674
  0
ARC
  5
22C
330
1F
100
AcDbEntity
  8
0
  6
Continuous
 62
     7
370
    25
100
AcDbCircle
 10
121.8978335881
 20
71.2949044878
 30
0.0
 40
61.6332178425593
100
AcDbArc
 50
52.7770557214
 51
53.979921331
  0
ARC
  5
22D
330
1F
100
AcDbEntity
  8
0
  6
Continuous
 62
     7
370
    25
100
AcDbCircle
 10
156.2915031958
 20
130.5583781592
 30
0.0
 40
9.594082766198273
100
AcDbArc
 50
241.4565042811
 51
281.1232895051
  0
LWPOLYLINE
  5
22E
330
1F
100
AcDbEntity
  8
0
  6
Continuous
 62
     7
370
    25
100
AcDbPolyline
 90
        3
 70
   128
 43
0.0
 10
144.1257977404
 20
128.3098234041
 10
144.0150430095
 20
128.2446643599
 10
143.9290286079
 20
128.1929040183
  0
ARC
  5
22F
330
1F
100
AcDbEntity
  8
0
  6
Continuous
 62
     7
370
    25
100
AcDbCircle
 10
134.8640353773
 20
96.4649978915
 30
0.0
 40
33.1643355730186
100
AcDbArc
 50
73.7834340368
 51
75.5126170907
  0
LWPOLYLINE
  5
230
330
1F
100
AcDbEntity
  8
0
  6
Continuous
 62
     7
370
    25
100
AcDbPolyline
 90
        3
 70
   128
 43
0.0
 10
142.9641266238
 20
128.4577043036
 10
143.0736757298
 20
128.5235594902
 10
143.1606511617
 20
128.5747988956
  0
LWPOLYLINE
  5
231
330
1F
100
AcDbEntity
  8
0
  6
Continuous
 62
     7
370
    25
100
AcDbPolyline
 90
       17
 70
   128
 43
0.0
 10
141.4127781348
 20
116.0809200511
 10
140.8438380506
 20
116.5858617839
 10
140.3042422975
 20
117.1397612723
 10
139.8059325311
 20
117.7425253365
 10
139.3615065522
 20
118.3932514833
 10
138.9840618192
 20
119.0901073301
 10
138.6848926382
 20
119.8359512149
 10
138.4581880564
 20
120.7419359713
 10
138.3765164694
 20
121.5931826868
 10
138.4198678109
 20
122.4366040611
 10
138.5790107027
 20
123.2503455084
 10
138.8686958029
 20
124.0931606277
 10
139.2848668943
 20
124.9201913028
 10
139.7998186021
 20
125.6906626433
 10
140.7330329964
 20
126.7475666058
 10
141.8028631528
 20
127.6684988045
 10
142.9641266238
 20
128.4577043036
  0
ARC
  5
232
330
1F
100
AcDbEntity
  8
0
  6
Continuous
 62
     7
370
    25
100
AcDbCircle
 10
192.5689959439
 20
62.7688836865
 30
0.0
 40
73.88593805234451
100
AcDbArc
 50
132.7765187798
 51
133.8178056908
  0
LWPOLYLINE
  5
233
330
1F
100
AcDbEntity
  8
0
  6
Continuous
 62
     7
370
    25
100
AcDbPolyline
 90
       17
 70
   128
 43
0.0
 10
143.9290286079
 20
128.1929040183
 10
143.2800689811
 20
127.7713304763
 10
142.6616842207
 20
127.3109528694
 10
142.0806234667
 20
126.8112375619
 10
141.5441258898
 20
126.2719984929
 10
141.0598894546
 20
125.6934511001
 10
140.6438733452
 20
125.0881512254
 10
140.2729893662
 20
124.3983752415
 10
139.9765304141
 20
123.6213358758
 10
139.7878950462
 20
122.7566044973
 10
139.7403850163
 20
121.9957323208
 10
139.8034720457
 20
121.2262896107
 10
139.9785512477
 20
120.4621916737
 10
140.2543431444
 20
119.7336970835
 10
140.8428313016
 20
118.6969232354
 10
141.573531669
 20
117.7851322003
 10
142.3900595846
 20
117.0017721189
  0
LWPOLYLINE
  5
234
330
1F
100
AcDbEntity
  8
0
  6
Continuous
 62
     7
370
    25
100
AcDbPolyline
 90
        3
 70
   128
 43
0.0
 10
143.6673403787
 20
116.0583516659
 10
143.8130188031
 20
115.9663354247
 10
143.9290286079
 20
115.8949558151
  0
ARC
  5
235
330
1F
100
AcDbEntity
  8
0
  6
Continuous
 62
     7
370
    25
100
AcDbCircle
 10
194.1580538243
 20
61.7674194347
 30
0.0
 40
74.1405251315336
100
AcDbArc
 50
132.9229081225
 51
133.9501532077
  0
LWPOLYLINE
  5
236
330
1F
100
AcDbEntity
  8
0
  6
Continuous
 62
     7
370
    25
100
AcDbPolyline
 90
        3
 70
   128
 43
0.0
 10
142.9641266238
 20
114.9811534376
 10
142.8166202838
 20
115.0721218609
 10
142.702135478
 20
115.144436342
  0
ARC
  5
237
330
1F
100
AcDbEntity
  8
0
  6
Continuous
 62
     7
370
    25
100
AcDbCircle
 10
156.8997006324
 20
140.3388036057
 30
0.0
 40
28.93459253209976
100
AcDbArc
 50
241.2085237779
 51
290.7300241852
  0
ARC
  5
238
330
1F
100
AcDbEntity
  8
0
  6
Continuous
 62
     7
370
    25
100
AcDbCircle
 10
111.4324694359
 20
59.2505494588
 30
0.0
 40
77.60417821782198
100
AcDbArc
 50
44.1217841798
 51
45.1458137324
  0
ARC
  5
239
330
1F
100
AcDbEntity
  8
0
  6
Continuous
 62
     7
370
    25
100
AcDbCircle
 10
156.8125396777
 20
139.1452733324
 30
0.0
 40
26.58123627935559
100
AcDbArc
 50
241.0082015103
 51
290.604963141
  0
ARC
  5
23A
330
1F
100
AcDbEntity
  8
0
  6
Continuous
 62
     7
370
    25
100
AcDbCircle
 10
196.9354895111
 20
57.7023366297
 30
0.0
 40
82.65319989726014
100
AcDbArc
 50
136.9443920572
 51
140.068964373
  0
ARC
  5
23B
330
1F
100
AcDbEntity
  8
0
  6
Continuous
 62
     7
370
    25
100
AcDbCircle
 10
145.8078969091
 20
126.4999742999
 30
0.0
 40
19.95089946402654
100
AcDbArc
 50
232.1116741594
 51
235.4404864539
  0
ARC
  5
23C
330
1F
100
AcDbEntity
  8
0
  6
Continuous
 62
     7
370
    25
100
AcDbCircle
 10
198.1123901224
 20
57.0103286712
 30
0.0
 40
82.84344523978946
100
AcDbArc
 50
136.9213297363
 51
140.1725916203
  0
ARC
  5
23D
330
1F
100
AcDbEntity
  8
0
  6
Continuous
 62
     7
370
    25
100
AcDbCircle
 10
117.9049341658
 20
76.0576459515
 30
0.0
 40
42.38927435415437
100
AcDbArc
 50
62.3108200122
 51
63.9182608298
  0
LWPOLYLINE
  5
23E
330
1F
100
AcDbEntity
  8
0
  6
Continuous
 62
     7
370
    25
100
AcDbPolyline
 90
        3
 70
   128
 43
0.0
 10
148.0169901718
 20
126.9323137244
 10
147.9045556161
 20
126.8681622211
 10
147.8181159044
 20
126.8166668416
  0
ARC
  5
23F
330
1F
100
AcDbEntity
  8
0
  6
Continuous
 62
     7
370
    25
100
AcDbCircle
 10
132.7686714345
 20
90.2900874131
 30
0.0
 40
39.68833548237753
100
AcDbArc
 50
67.4058215345
 51
68.9078468088
  0
LWPOLYLINE
  5
240
330
1F
100
AcDbEntity
  8
0
  6
Continuous
 62
     7
370
    25
100
AcDbPolyline
 90
        3
 70
   128
 43
0.0
 10
146.8532139204
 20
127.2033009908
 10
146.9632564629
 20
127.2688225256
 10
147.051274397
 20
127.3194166803
  0
LWPOLYLINE
  5
241
330
1F
100
AcDbEntity
  8
0
  6
Continuous
 62
     7
370
    25
100
AcDbPolyline
 90
       21
 70
   128
 43
0.0
 10
145.3193929471
 20
119.6640282067
 10
145.0693430756
 20
119.932821981
 10
144.832604137
 20
120.2206679431
 10
144.6129880574
 20
120.5273176602
 10
144.4144424691
 20
120.8523123587
 10
144.2410152511
 20
121.1949597493
 10
144.096812055
 20
121.5543119862
 10
144.0211084542
 20
121.7951775302
 10
143.9416301484
 20
122.1348556818
 10
143.885062842
 20
122.5715826594
 10
143.8962104926
 20
123.2333507602
 10
143.9105208411
 20
123.3511261269
 10
143.9254902181
 20
123.4502593795
 10
143.9396565074
 20
123.5309633806
 10
143.9518372764
 20
123.5934287793
 10
144.1147446629
 20
124.169720106
 10
144.3409506905
 20
124.6849385419
 10
144.6092067382
 20
125.1406656722
 10
144.9011557301
 20
125.5397597622
 10
145.8051053001
 20
126.4564088906
 10
146.8532139204
 20
127.2033009908
  0
ARC
  5
242
330
1F
100
AcDbEntity
  8
0
  6
Continuous
 62
     7
370
    25
100
AcDbCircle
 10
187.2235951637
 20
68.8502774504
 30
0.0
 40
65.86349086807539
100
AcDbArc
 50
128.3927906022
 51
129.5111283549
  0
LWPOLYLINE
  5
243
330
1F
100
AcDbEntity
  8
0
  6
Continuous
 62
     7
370
    25
100
AcDbPolyline
 90
       17
 70
   128
 43
0.0
 10
147.8181159044
 20
126.8166668416
 10
147.3678241621
 20
126.5218835399
 10
146.937498544
 20
126.1925897799
 10
146.5344998385
 20
125.8272749802
 10
146.167121165
 20
125.4248524486
 10
145.964136846
 20
125.1604295153
 10
145.7713133547
 20
124.8666517836
 10
145.5957122242
 20
124.5420773935
 10
145.4453319305
 20
124.1855904885
 10
145.329128619
 20
123.7965226099
 10
145.2771878373
 20
123.5289953373
 10
145.2424312028
 20
123.1613357677
 10
145.2575832732
 20
122.7018750069
 10
145.3184988543
 20
122.3250952661
 10
145.3815598363
 20
122.0815033553
 10
145.7717443913
 20
121.2071781102
 10
146.3191291565
 20
120.4722116451
  0
LWPOLYLINE
  5
244
330
1F
100
AcDbEntity
  8
0
  6
Continuous
 62
     7
370
    25
100
AcDbPolyline
 90
        3
 70
   128
 43
0.0
 10
147.6266997811
 20
119.3766340925
 10
147.7331331043
 20
119.3090073258
 10
147.8181159044
 20
119.25667175
  0
ARC
  5
245
330
1F
100
AcDbEntity
  8
0
  6
Continuous
 62
     7
370
    25
100
AcDbCircle
 10
189.0782763713
 20
67.5841791937
 30
0.0
 40
66.33770862991558
100
AcDbArc
 50
128.67168686
 51
129.7477176918
  0
LWPOLYLINE
  5
246
330
1F
100
AcDbEntity
  8
0
  6
Continuous
 62
     7
370
    25
100
AcDbPolyline
 90
        3
 70
   128
 43
0.0
 10
146.8532137169
 20
118.4693279004
 10
146.7451354273
 20
118.5359976025
 10
146.6613898561
 20
118.5890742982
  0
ARC
  5
247
330
1F
100
AcDbEntity
  8
0
  6
Continuous
 62
     7
370
    25
100
AcDbCircle
 10
156.6340375345
 20
136.3811724171
 30
0.0
 40
20.40829950143994
100
AcDbArc
 50
241.3631022965
 51
288.7715635614
  0
ARC
  5
248
330
1F
100
AcDbEntity
  8
0
  6
Continuous
 62
     7
370
    25
100
AcDbCircle
 10
116.6845565267
 20
64.83483942
 30
0.0
 40
69.9364901366018
100
AcDbArc
 50
48.3077786068
 51
49.3799478894
  0
ARC
  5
249
330
1F
100
AcDbEntity
  8
0
  6
Continuous
 62
     7
370
    25
100
AcDbCircle
 10
156.5540920441
 20
135.1402544777
 30
0.0
 40
18.12747857211014
100
AcDbArc
 50
241.1891906389
 51
288.200218728
  0
LINE
  5
24A
330
1F
100
AcDbEntity
  8
0
  6
Continuous
 62
     7
370
    25
100
AcDbLine
 10
174.5698634706
 20
93.017954967
 30
0.0
 11
181.4427836835
 21
84.4681075618
 31
0.0
  0
LWPOLYLINE
  5
24B
330
1F
100
AcDbEntity
  8
0
  6
Continuous
 62
     7
370
    25
100
AcDbPolyline
 90
       52
 70
   128
 43
0.0
 10
182.6048852742
 20
115.8626818626
 10
184.0142265628
 20
114.988743774
 10
185.5880925459
 20
113.8945902982
 10
187.0422948964
 20
112.7465794643
 10
188.3713173268
 20
111.5490660708
 10
189.5701183997
 20
110.306592696
 10
190.634150652
 20
109.023872467
 10
191.559377845
 20
107.7057711811
 10
192.342290275
 20
106.357288848
 10
192.9799180869
 20
104.9835407229
 10
193.4698425402
 20
103.589737903
 10
193.8102051834
 20
102.18116756
 10
193.9997149046
 20
100.7631728835
 10
194.0376528284
 20
99.3411328131
 10
193.9238750434
 20
97.9204416338
 10
193.6588131475
 20
96.506488514
 10
193.2434726114
 20
95.104637062
 10
192.6794289641
 20
93.7202049807
 10
191.9688218161
 20
92.3584438952
 10
191.114346744
 20
91.0245194315
 10
190.1192450642
 20
89.7234916223
 10
188.9872915384
 20
88.4602957115
 10
187.7227800539
 20
87.239723434
 10
186.3305073359
 20
86.0664048384
 10
184.8157547518
 20
84.9447907241
 10
183.184268277
 20
83.8791357576
 10
181.4422366984
 20
82.8734823332
 10
179.5962681386
 20
81.9316452389
 10
177.6533649885
 20
81.0571971852
 10
175.6208973454
 20
80.2534552533
 10
173.5065750552
 20
79.5234683115
 10
171.3184184665
 20
78.8700054504
 10
169.0647280067
 20
78.2955454783
 10
166.7540526958
 20
77.8022675189
 10
164.3951577166
 20
77.3920427443
 10
161.9969911658
 20
77.0664272776
 10
159.5686501106
 20
76.8266562898
 10
157.1193460803
 20
76.6736393144
 10
154.6583701241
 20
76.6079567971
 10
152.1950575667
 20
76.6298578944
 10
149.7387525964
 20
76.7392595277
 10
147.2987728193
 20
76.9357466993
 10
144.8843739145
 20
77.218574066
 10
142.504714524
 20
77.5866687668
 10
140.1688215109
 20
78.0386344922
 10
137.8855557176
 20
78.5727567816
 10
135.6635783533
 20
79.1870095262
 10
133.5113181393
 20
79.8790626548
 10
131.4369393356
 20
80.6462909729
 10
129.4483107717
 20
81.4857841208
 10
127.5529759968
 20
82.3943576133
 10
125.758124665
 20
83.3685649199
  0
LINE
  5
24C
330
1F
100
AcDbEntity
  8
0
  6
Continuous
 62
     7
370
    25
100
AcDbLine
 10
126.6420081415
 20
84.4681075618
 30
0.0
 11
125.758124665
 21
83.3685649199
 31
0.0
  0
LWPOLYLINE
  5
24D
330
1F
100
AcDbEntity
  8
0
  6
Continuous
 62
     7
370
    25
100
AcDbPolyline
 90
       35
 70
   128
 43
0.0
 10
174.5698634706
 20
93.017954967
 10
173.0531490672
 20
92.2027605612
 10
171.4395602233
 20
91.4521063813
 10
169.7373194179
 20
90.7698175889
 10
167.95510088
 20
90.1593709713
 10
166.1019863866
 20
89.6238772245
 10
164.1874189844
 20
89.166065102
 10
162.2211548701
 20
88.7882675093
 10
160.2132136749
 20
88.4924096165
 10
158.1738274069
 20
88.2799990474
 10
156.113388311
 20
88.1521181977
 10
154.0423959125
 20
88.1094187189
 10
151.971403514
 20
88.1521181977
 10
149.9109644181
 20
88.2799990474
 10
147.8715781501
 20
88.4924096165
 10
145.8636369549
 20
88.7882675093
 10
143.8973728406
 20
89.166065102
 10
141.9828054385
 20
89.6238772245
 10
140.129690945
 20
90.1593709713
 10
138.3474724071
 20
90.7698175889
 10
136.6452316017
 20
91.4521063813
 10
135.0316427579
 20
92.2027605612
 10
133.5149283544
 20
93.017954967
 10
132.1028172204
 20
93.8935355548
 10
130.8025051503
 20
94.8250405667
 10
129.6206182365
 20
95.8077232667
 10
128.5631791038
 20
96.8365761289
 10
127.6355762196
 20
97.906356355
 10
126.8425364355
 20
99.0116125903
 10
126.1881009006
 20
100.1467127022
 10
125.6756044683
 20
101.3058724807
 10
125.3076587029
 20
102.4831851135
 10
125.0861385718
 20
103.672651285
 10
125.0121728907
 20
104.8682097485
 10
125.0210216629
 20
105.2819625122
  0
ARC
  5
24E
330
1F
100
AcDbEntity
  8
0
  6
Continuous
 62
     7
370
    25
100
AcDbCircle
 10
129.8132725864
 20
88.6680555562
 30
0.0
 40
1.834874875121598
100
AcDbArc
 50
151.037554941
 51
231.1588992769
  0
LINE
  5
24F
330
1F
100
AcDbEntity
  8
0
  6
Continuous
 62
     7
370
    25
100
AcDbLine
 10
128.6865517898
 20
87.2688036458
 30
0.0
 11
128.6625075006
 21
87.2388930306
 31
0.0
  0
LWPOLYLINE
  5
250
330
1F
100
AcDbEntity
  8
0
  6
Continuous
 62
     7
370
    25
100
AcDbPolyline
 90
        3
 70
   128
 43
0.0
 10
128.8693945023
 20
87.3299857575
 10
128.7671174082
 20
87.2957892678
 10
128.6865517898
 20
87.2688036458
  0
LWPOLYLINE
  5
251
330
1F
100
AcDbEntity
  8
0
  6
Continuous
 62
     7
370
    25
100
AcDbPolyline
 90
        9
 70
   128
 43
0.0
 10
128.9693945023
 20
87.2722569863
 10
128.967564537
 20
87.2898312388
 10
128.9620740189
 20
87.3047985395
 10
128.952921618
 20
87.3171614295
 10
128.9401054774
 20
87.3269229175
 10
128.9247082606
 20
87.3334566842
 10
128.9077940321
 20
87.3361444114
 10
128.8893575806
 20
87.3349871777
 10
128.8693945023
 20
87.3299857575
  0
LINE
  5
252
330
1F
100
AcDbEntity
  8
0
  6
Continuous
 62
     7
370
    25
100
AcDbLine
 10
128.9693945023
 20
87.1055220234
 30
0.0
 11
128.9693945023
 21
87.2722569863
 31
0.0
  0
LINE
  5
253
330
1F
100
AcDbEntity
  8
0
  6
Continuous
 62
     7
370
    25
100
AcDbLine
 10
128.9453502131
 20
87.0756114082
 30
0.0
 11
128.9693945023
 21
87.1055220234
 31
0.0
  0
ARC
  5
254
330
1F
100
AcDbEntity
  8
0
  6
Continuous
 62
     7
370
    25
100
AcDbCircle
 10
129.8344502444
 20
90.5457426174
 30
0.0
 40
3.582221304485905
100
AcDbArc
 50
255.6290974856
 51
354.1367056496
  0
LWPOLYLINE
  5
255
330
1F
100
AcDbEntity
  8
0
  6
Continuous
 62
     7
370
    25
100
AcDbPolyline
 90
        3
 70
   128
 43
0.0
 10
133.2371614552
 20
90.2792903755
 10
133.3271930259
 20
90.2236707652
 10
133.3979310343
 20
90.1797998154
  0
LWPOLYLINE
  5
256
330
1F
100
AcDbEntity
  8
0
  6
Continuous
 62
     7
370
    25
100
AcDbPolyline
 90
        6
 70
   128
 43
0.0
 10
133.2371614552
 20
90.4106938859
 10
133.2146881459
 20
90.3723753354
 10
133.2079445426
 20
90.3333358056
 10
133.2157800492
 20
90.3014817544
 10
133.2247783271
 20
90.289176827
 10
133.2371614552
 20
90.2792903755
  0
LWPOLYLINE
  5
257
330
1F
100
AcDbEntity
  8
0
  6
Continuous
 62
     7
370
    25
100
AcDbPolyline
 90
        3
 70
   128
 43
0.0
 10
133.3979310343
 20
90.6105220777
 10
133.3079410449
 20
90.4986695217
 10
133.2371614552
 20
90.4106938859
  0
ARC
  5
258
330
1F
100
AcDbEntity
  8
0
  6
Continuous
 62
     7
370
    25
100
AcDbCircle
 10
131.8665272761
 20
90.5905194386
 30
0.0
 40
1.531534386260177
100
AcDbArc
 50
0.7483340887
 51
92.0871922347
  0
LWPOLYLINE
  5
259
330
1F
100
AcDbEntity
  8
0
  6
Continuous
 62
     7
370
    25
100
AcDbPolyline
 90
       27
 70
   128
 43
0.0
 10
125.4799065508
 20
115.8626818626
 10
124.900523548
 20
115.5143185552
 10
123.2690370732
 20
114.4486635887
 10
121.7542844891
 20
113.3270494744
 10
120.3620117711
 20
112.1537308788
 10
119.0975002866
 20
110.9331586013
 10
117.9655467608
 20
109.6699626905
 10
116.970445081
 20
108.3689348812
 10
116.1159700089
 20
107.0350104176
 10
115.4053628609
 20
105.6732493321
 10
114.8413192136
 20
104.2888172508
 10
114.4259786775
 20
102.8869657988
 10
114.1609167816
 20
101.473012679
 10
114.0471389966
 20
100.0523214997
 10
114.0850769204
 20
98.6302814293
 10
114.2745866416
 20
97.2122867528
 10
114.6149492848
 20
95.8037164098
 10
115.1048737381
 20
94.4099135899
 10
115.74250155
 20
93.0361654648
 10
116.52541398
 20
91.6876831317
 10
117.450641173
 20
90.3695818458
 10
118.5146734253
 20
89.0868616168
 10
119.7134744982
 20
87.844388242
 10
121.0424969286
 20
86.6468748485
 10
122.4966992791
 20
85.4988640146
 10
124.0705652622
 20
84.4047105388
 10
125.758124665
 20
83.3685649199
  0
LWPOLYLINE
  5
25A
330
1F
100
AcDbEntity
  8
0
  6
Continuous
 62
     7
370
    25
100
AcDbPolyline
 90
       13
 70
   128
 43
0.0
 10
174.5698634706
 20
93.017954967
 10
175.9819746046
 20
93.8935355548
 10
177.2822866747
 20
94.8250405667
 10
178.4641735885
 20
95.8077232667
 10
179.5216127212
 20
96.8365761289
 10
180.4492156054
 20
97.906356355
 10
181.2422553895
 20
99.0116125903
 10
181.8966909244
 20
100.1467127022
 10
182.4091873567
 20
101.3058724807
 10
182.7771331221
 20
102.4831851135
 10
182.9986532532
 20
103.672651285
 10
183.0726189343
 20
104.8682097485
 10
183.0637701621
 20
105.2819625122
  0
LINE
  5
25B
330
1F
100
AcDbEntity
  8
0
  6
Continuous
 62
     7
370
    25
100
AcDbLine
 10
174.1693818848
 20
106.4923085221
 30
0.0
 11
174.5698634706
 21
93.017954967
 31
0.0
  0
LINE
  5
25C
330
1F
100
AcDbEntity
  8
0
  6
Continuous
 62
     7
370
    25
100
AcDbLine
 10
125.7452099627
 20
103.7543688908
 30
0.0
 11
126.0526289647
 21
111.1409584433
 31
0.0
  0
ARC
  5
25D
330
1F
100
AcDbEntity
  8
0
  6
Continuous
 62
     7
370
    25
100
AcDbCircle
 10
118.1174790062
 20
111.3481483926
 30
0.0
 40
7.937854404004694
100
AcDbArc
 50
358.5043240402
 51
13.6677671769
  0
ARC
  5
25E
330
1F
100
AcDbEntity
  8
0
  6
Continuous
 62
     7
370
    25
100
AcDbCircle
 10
135.1422993855
 20
115.8030306354
 30
0.0
 40
9.662355319438305
100
AcDbArc
 50
177.6015942284
 51
195.4820459019
  0
ARC
  5
25F
330
1F
100
AcDbEntity
  8
0
  6
Continuous
 62
     7
370
    25
100
AcDbCircle
 10
135.0950899075
 20
106.0071983541
 30
0.0
 40
10.02667401121608
100
AcDbArc
 50
154.8890748475
 51
195.2199635816
  0
LWPOLYLINE
  5
260
330
1F
100
AcDbEntity
  8
0
  6
Continuous
 62
     7
370
    25
100
AcDbPolyline
 90
        5
 70
   128
 43
0.0
 10
125.7452099627
 20
103.7543688908
 10
125.7020430018
 20
103.3481730532
 10
125.6209350559
 20
103.1316646954
 10
125.5197080641
 20
103.1421177341
 10
125.4201006725
 20
103.3749417122
  0
LWPOLYLINE
  5
261
330
1F
100
AcDbEntity
  8
0
  6
Continuous
 62
     7
370
    25
100
AcDbPolyline
 90
       12
 70
   128
 43
0.0
 10
126.9795882345
 20
100.0150771104
 10
127.8483915257
 20
98.8421394568
 10
128.8694756082
 20
97.7108250242
 10
130.0369043336
 20
96.6277107932
 10
131.3438907685
 20
95.5990935289
 10
132.7828366499
 20
94.6309531741
 10
134.3453765592
 20
93.7289180849
 10
136.0224265543
 20
92.8982323092
 10
137.8042369805
 20
92.1437251005
 10
139.6804491505
 20
91.4697828425
 10
141.6401555653
 20
90.8803235487
 10
143.6719633262
 20
90.3787740845
  0
ARC
  5
262
330
1F
100
AcDbEntity
  8
0
  6
Continuous
 62
     7
370
    25
100
AcDbCircle
 10
144.0185950018
 20
91.4080319105
 30
0.0
 40
1.086059478550886
100
AcDbArc
 50
251.387592568
 51
356.5898875281
  0
LINE
  5
263
330
1F
100
AcDbEntity
  8
0
  6
Continuous
 62
     7
370
    25
100
AcDbLine
 10
145.1027314437
 20
91.3434303147
 30
0.0
 11
145.1998514448
 21
98.8648515907
 31
0.0
  0
ARC
  5
264
330
1F
100
AcDbEntity
  8
0
  6
Continuous
 62
     7
370
    25
100
AcDbCircle
 10
143.4915390252
 20
98.7216218761
 30
0.0
 40
1.714306295339656
100
AcDbArc
 50
4.7926300451
 51
79.5786299048
  0
LWPOLYLINE
  5
265
330
1F
100
AcDbEntity
  8
0
  6
Continuous
 62
     7
370
    25
100
AcDbPolyline
 90
       12
 70
   128
 43
0.0
 10
127.3786704727
 20
109.8884235657
 10
128.2347417376
 20
108.7348813116
 10
129.2403045274
 20
107.6222656266
 10
130.3895340929
 20
106.5570213667
 10
131.6757734911
 20
105.5453189877
 10
133.091572146
 20
104.5930188027
 10
134.6287290062
 20
103.7056370357
 10
136.2783400496
 20
102.8883138694
 10
138.0308498603
 20
102.14578367
 10
139.8761069783
 20
101.4823475635
 10
141.8034227027
 20
100.9018485212
 10
143.8016330058
 20
100.4076490993
  0
LWPOLYLINE
  5
266
330
1F
100
AcDbEntity
  8
0
  6
Continuous
 62
     7
370
    25
100
AcDbPolyline
 90
        5
 70
   128
 43
0.0
 10
126.8278423775
 20
109.4707866716
 10
126.8824635793
 20
109.8799647729
 10
127.0019548846
 20
110.1035085032
 10
127.1744471596
 20
110.1048638478
 10
127.3786704727
 20
109.8884235657
  0
LINE
  5
267
330
1F
100
AcDbEntity
  8
0
  6
Continuous
 62
     7
370
    25
100
AcDbLine
 10
126.5289377491
 20
102.0658531814
 30
0.0
 11
126.8278423775
 21
109.4707866716
 31
0.0
  0
ARC
  5
268
330
1F
100
AcDbEntity
  8
0
  6
Continuous
 62
     7
370
    25
100
AcDbCircle
 10
130.4906395829
 20
101.8615201349
 30
0.0
 40
3.966967785783182
100
AcDbArc
 50
177.0474667544
 51
207.7396407533
  0
ARC
  5
269
330
1F
100
AcDbEntity
  8
0
  6
Continuous
 62
     7
370
    25
100
AcDbCircle
 10
154.2466429458
 20
134.2104477722
 30
0.0
 40
44.98392165879331
100
AcDbArc
 50
263.9327680128
 51
293.653309853
  0
ARC
  5
26A
330
1F
100
AcDbEntity
  8
0
  6
Continuous
 62
     7
370
    25
100
AcDbCircle
 10
171.3321304039
 20
94.8360611789
 30
0.0
 40
2.067887499387453
100
AcDbArc
 50
297.7277645402
 51
359.4350889603
  0
LINE
  5
26B
330
1F
100
AcDbEntity
  8
0
  6
Continuous
 62
     7
370
    25
100
AcDbLine
 10
173.3999173936
 20
94.8156730533
 30
0.0
 11
173.1896183926
 21
102.2993720837
 31
0.0
  0
ARC
  5
26C
330
1F
100
AcDbEntity
  8
0
  6
Continuous
 62
     7
370
    25
100
AcDbCircle
 10
172.434336024
 20
102.3545592682
 30
0.0
 40
0.7572959009414623
100
AcDbArc
 50
355.8209226451
 51
123.7615491606
  0
ARC
  5
26D
330
1F
100
AcDbEntity
  8
0
  6
Continuous
 62
     7
370
    25
100
AcDbCircle
 10
154.2442323986
 20
143.6074173593
 30
0.0
 40
44.33955922777614
100
AcDbArc
 50
263.9607689422
 51
293.6253089235
  0
ARC
  5
26E
330
1F
100
AcDbEntity
  8
0
  6
Continuous
 62
     7
370
    25
100
AcDbCircle
 10
149.3281714567
 20
98.2987521956
 30
0.0
 40
1.240862894893633
100
AcDbArc
 50
78.3239843939
 51
174.5163848497
  0
LINE
  5
26F
330
1F
100
AcDbEntity
  8
0
  6
Continuous
 62
     7
370
    25
100
AcDbLine
 10
148.0276433621
 20
90.8909938939
 30
0.0
 11
148.0929872881
 21
98.4173304133
 31
0.0
  0
ARC
  5
270
330
1F
100
AcDbEntity
  8
0
  6
Continuous
 62
     7
370
    25
100
AcDbCircle
 10
149.5603833392
 20
91.0147065429
 30
0.0
 40
1.537724506181814
100
AcDbArc
 50
184.6145336038
 51
267.4530590274
  0
LWPOLYLINE
  5
271
330
1F
100
AcDbEntity
  8
0
  6
Continuous
 62
     7
370
    25
100
AcDbPolyline
 90
       40
 70
   128
 43
0.0
 10
194.0423959125
 20
98.6529331046
 10
194.0376528284
 20
98.2973387613
 10
193.9238750434
 20
96.876647582
 10
193.6588131475
 20
95.4626944622
 10
193.2434726114
 20
94.0608430102
 10
192.6794289641
 20
92.6764109289
 10
191.9688218161
 20
91.3146498433
 10
191.114346744
 20
89.9807253797
 10
190.1192450642
 20
88.6796975705
 10
188.9872915384
 20
87.4165016597
 10
187.7227800539
 20
86.1959293821
 10
186.3305073359
 20
85.0226107865
 10
184.8157547518
 20
83.9009966722
 10
183.184268277
 20
82.8353417058
 10
181.4422366984
 20
81.8296882814
 10
179.5962681386
 20
80.887851187
 10
177.6533649885
 20
80.0134031334
 10
175.6208973454
 20
79.2096612014
 10
173.5065750552
 20
78.4796742596
 10
171.3184184665
 20
77.8262113985
 10
169.0647280067
 20
77.2517514265
 10
166.7540526958
 20
76.7584734671
 10
164.3951577166
 20
76.3482486925
 10
161.9969911658
 20
76.0226332257
 10
159.5686501106
 20
75.7828622379
 10
157.1193460803
 20
75.6298452625
 10
154.6583701241
 20
75.5641627453
 10
152.1950575667
 20
75.5860638425
 10
149.7387525964
 20
75.6954654759
 10
147.2987728193
 20
75.8919526475
 10
144.8843739145
 20
76.1747800142
 10
142.504714524
 20
76.5428747149
 10
140.1688215109
 20
76.9948404404
 10
137.8855557176
 20
77.5289627298
 10
135.6635783533
 20
78.1432154743
 10
133.5113181393
 20
78.8352686029
 10
131.4369393356
 20
79.6024969211
 10
129.4483107717
 20
80.4419900689
 10
127.5529759968
 20
81.3505635614
 10
125.758124665
 20
82.3247708681
  0
LINE
  5
272
330
1F
100
AcDbEntity
  8
0
  6
Continuous
 62
     7
370
    25
100
AcDbLine
 10
125.758124665
 20
83.3685649199
 30
0.0
 11
125.758124665
 21
82.3247708681
 31
0.0
  0
ARC
  5
273
330
1F
100
AcDbEntity
  8
0
  6
Continuous
 62
     7
370
    25
100
AcDbCircle
 10
154.0590175903
 20
133.6748343905
 30
0.0
 40
66.62699444757943
100
AcDbArc
 50
271.8190587105
 51
273.9636039139
  0
LINE
  5
274
330
1F
100
AcDbEntity
  8
0
  6
Continuous
 62
     7
370
    25
100
AcDbLine
 10
156.1726799418
 20
65.7018330949
 30
0.0
 11
156.1739736291
 21
67.0814161716
 31
0.0
  0
LWPOLYLINE
  5
275
330
1F
100
AcDbEntity
  8
0
  6
Continuous
 62
     7
370
    25
100
AcDbPolyline
 90
       28
 70
   128
 43
0.0
 10
156.1726799418
 20
65.7018330949
 10
153.7614948816
 20
65.6685914707
 10
151.3513980462
 20
65.7220096899
 10
148.9517262728
 20
65.8618808076
 10
146.5717760112
 20
66.087662956
 10
144.2207673093
 20
66.3984814436
 10
141.9078080937
 20
66.793132144
 10
139.6418588856
 20
67.2700861602
 10
137.4316980868
 20
67.8274957483
 10
135.2858879721
 20
68.4632014754
 10
133.2127415187
 20
69.1747405852
 10
131.2202902007
 20
69.9593565393
 10
129.3162528754
 20
70.8140096958
 10
127.5080058797
 20
71.7353890849
 10
125.8025544542
 20
72.7199252365
 10
124.2065056039
 20
73.7638040074
 10
122.7260425029
 20
74.8629813587
 10
121.3669005401
 20
76.0131990215
 10
120.1343451003
 20
77.2100009944
 10
119.0331511657
 20
78.4487508061
 10
118.0675848173
 20
79.724649477
 10
117.241386708
 20
81.032754111
 10
116.5577575712
 20
82.3679970448
 10
116.0193458206
 20
83.7252054794
 10
115.6282372907
 20
85.0991215208
 10
115.3859471557
 20
86.4844225486
 10
115.2934140599
 20
87.8757418366
 10
115.2931334625
 20
87.8998841992
  0
ARC
  5
276
330
1F
100
AcDbEntity
  8
0
  6
Continuous
 62
     7
370
    25
100
AcDbCircle
 10
155.9373503381
 20
119.325674895
 30
0.0
 40
53.56745441385463
100
AcDbArc
 50
272.9167944001
 51
298.433389169
  0
LINE
  5
277
330
1F
100
AcDbEntity
  8
0
  6
Continuous
 62
     7
370
    25
100
AcDbLine
 10
158.6644603743
 20
67.20720102
 30
0.0
 11
158.663166687
 21
65.8276179433
 31
0.0
  0
LWPOLYLINE
  5
278
330
1F
100
AcDbEntity
  8
0
  6
Continuous
 62
     7
370
    25
100
AcDbPolyline
 90
        3
 70
   128
 43
0.0
 10
128.2606735726
 20
102.0375188232
 10
128.5370750616
 20
107.8484353182
 10
128.5647412514
 20
108.4289185765
  0
LINE
  5
279
330
1F
100
AcDbEntity
  8
0
  6
Continuous
 62
     7
370
    25
100
AcDbLine
 10
166.167080956
 20
112.9592950937
 30
0.0
 11
166.167080956
 21
114.2644638679
 31
0.0
  0
LINE
  5
27A
330
1F
100
AcDbEntity
  8
0
  6
Continuous
 62
     7
370
    25
100
AcDbLine
 10
143.9290286079
 20
114.612091807
 30
0.0
 11
143.9290286079
 21
115.8949558151
 31
0.0
  0
LWPOLYLINE
  5
27B
330
1F
100
AcDbEntity
  8
0
  6
Continuous
 62
     7
370
    25
100
AcDbPolyline
 90
        3
 70
   128
 43
0.0
 10
127.9780146408
 20
101.7591251934
 10
127.9820153535
 20
101.7630655881
 10
128.2606735726
 20
102.0375188232
  0
LINE
  5
27C
330
1F
100
AcDbEntity
  8
0
  6
Continuous
 62
     7
370
    25
100
AcDbLine
 10
149.4920501415
 20
89.4785010778
 30
0.0
 11
149.8043591222
 21
90.3267088938
 31
0.0
  0
LINE
  5
27D
330
1F
100
AcDbEntity
  8
0
  6
Continuous
 62
     7
370
    25
100
AcDbLine
 10
171.2891419379
 20
93.6500562317
 30
0.0
 11
172.2942585662
 21
93.0056327838
 31
0.0
  0
ARC
  5
27E
330
1F
100
AcDbEntity
  8
0
  6
Continuous
 62
     7
370
    25
100
AcDbCircle
 10
154.2380092094
 20
132.7731466371
 30
0.0
 40
42.67736320569388
100
AcDbArc
 50
264.0369180834
 51
293.5491597823
  0
ARC
  5
27F
330
1F
100
AcDbEntity
  8
0
  6
Continuous
 62
     7
370
    25
100
AcDbCircle
 10
180.3787213804
 20
81.5772264485
 30
0.0
 40
48.40426078850211
100
AcDbArc
 50
117.1576832193
 51
120.0175988812
  0
ARC
  5
280
330
1F
100
AcDbEntity
  8
0
  6
Continuous
 62
     7
370
    25
100
AcDbCircle
 10
157.19391684
 20
125.6960781237
 30
0.0
 40
1.514959294748542
100
AcDbArc
 50
316.0735070975
 51
22.8189242375
  0
ARC
  5
281
330
1F
100
AcDbEntity
  8
0
  6
Continuous
 62
     7
370
    25
100
AcDbCircle
 10
177.2362309338
 20
85.93722782
 30
0.0
 40
44.44660811875028
100
AcDbArc
 50
114.8038350414
 51
116.5946795407
  0
LWPOLYLINE
  5
282
330
1F
100
AcDbEntity
  8
0
  6
Continuous
 62
     7
370
    25
100
AcDbPolyline
 90
        3
 70
   128
 43
0.0
 10
157.2243764278
 20
125.3088823481
 10
157.3058982412
 20
125.5159540368
 10
157.3385487457
 20
125.6811986434
  0
ARC
  5
283
330
1F
100
AcDbEntity
  8
0
  6
Continuous
 62
     7
370
    25
100
AcDbCircle
 10
179.1526623889
 20
82.5561331173
 30
0.0
 40
48.0483849050005
100
AcDbArc
 50
117.1537128962
 51
119.4523124252
  0
ARC
  5
284
330
1F
100
AcDbEntity
  8
0
  6
Continuous
 62
     7
370
    25
100
AcDbCircle
 10
129.1832590132
 20
81.2104221203
 30
0.0
 40
50.585739383473
100
AcDbArc
 50
58.6153868419
 51
61.3899896908
  0
ARC
  5
285
330
1F
100
AcDbEntity
  8
0
  6
Continuous
 62
     7
370
    25
100
AcDbCircle
 10
177.0313420498
 20
83.7807452766
 30
0.0
 40
48.04838491450763
100
AcDbArc
 50
117.1537128965
 51
119.452312425
  0
ARC
  5
286
330
1F
100
AcDbEntity
  8
0
  6
Continuous
 62
     7
370
    25
100
AcDbCircle
 10
132.4330049535
 20
84.9423717488
 30
0.0
 40
47.36826692302434
100
AcDbArc
 50
61.4065473271
 51
62.8578459155
  0
ARC
  5
287
330
1F
100
AcDbEntity
  8
0
  6
Continuous
 62
     7
370
    25
100
AcDbCircle
 10
176.1360806959
 20
84.0264507793
 30
0.0
 40
48.40426079384704
100
AcDbArc
 50
117.1576832195
 51
120.0175988811
  0
LWPOLYLINE
  5
288
330
1F
100
AcDbEntity
  8
0
  6
Continuous
 62
     7
370
    25
100
AcDbPolyline
 90
       44
 70
   128
 43
0.0
 10
174.1693818848
 20
106.4923085221
 10
175.5848644697
 20
107.3714419464
 10
176.8854086641
 20
108.3078775349
 10
178.0640755018
 20
109.2966189984
 10
179.1145762855
 20
110.3323909735
 10
180.0313061387
 20
111.4096671686
 10
180.8093739113
 20
112.522699849
 10
181.4446282748
 20
113.6655505038
 10
181.9336798725
 20
114.8321215304
 10
182.2739194025
 20
116.0161887674
 10
182.4635315396
 20
117.211434704
 10
182.5015046212
 20
118.4114821858
 10
182.3876360442
 20
119.6099284404
 10
182.122533347
 20
120.8003792384
 10
181.707610967
 20
121.9764830097
 10
181.1450826947
 20
123.1319647319
 10
180.4379498618
 20
124.26065941
 10
179.589985328
 20
125.3565449696
 10
178.6057133509
 20
126.413774387
 10
177.4903854474
 20
127.4267068859
 10
176.2499523744
 20
128.3899380331
 10
174.8910323791
 20
129.2983285737
 10
173.4208758875
 20
130.1470318511
 10
171.8473268208
 20
130.9315196661
 10
170.178780744
 20
131.6476064369
 10
168.4241400723
 20
132.2914715305
 10
166.5927665729
 20
132.8596796482
 10
164.6944314158
 20
133.3491991539
 10
162.7392630405
 20
133.7574182491
 10
160.7376931162
 20
134.0821589084
 10
158.7004008844
 20
134.3216884999
 10
156.6382561807
 20
134.4747290294
 10
154.5622614393
 20
134.5404639597
 10
152.4834929904
 20
134.5185425663
 10
150.413041963
 20
134.4090818095
 10
148.3619551094
 20
134.2126657097
 10
146.3411758651
 20
133.9303422317
 10
144.361485962
 20
133.5636176936
 10
142.433447902
 20
133.1144487294
 10
140.5673486026
 20
132.5852318498
 10
138.7731445109
 20
131.9787906558
 10
137.060408482
 20
131.2983607738
 10
135.4382787037
 20
130.5475725913
 10
133.9154099402
 20
129.7304318884
  0
ARC
  5
289
330
1F
100
AcDbEntity
  8
0
  6
Continuous
 62
     7
370
    25
100
AcDbCircle
 10
153.992781152
 20
90.9788705725
 30
0.0
 40
43.26027409273009
100
AcDbArc
 50
93.7857526522
 51
95.7726737447
  0
ARC
  5
28A
330
1F
100
AcDbEntity
  8
0
  6
Continuous
 62
     7
370
    25
100
AcDbCircle
 10
147.3331127153
 20
129.1489325389
 30
0.0
 40
5.390179310022425
100
AcDbArc
 50
50.2399690993
 51
64.6419404971
  0
ARC
  5
28B
330
1F
100
AcDbEntity
  8
0
  6
Continuous
 62
     7
370
    25
100
AcDbCircle
 10
157.3602122279
 20
76.6507543934
 30
0.0
 40
57.02264759643921
100
AcDbArc
 50
95.1623521716
 51
96.6259581531
  0
ARC
  5
28C
330
1F
100
AcDbEntity
  8
0
  6
Continuous
 62
     7
370
    25
100
AcDbCircle
 10
148.7721003728
 20
129.2657299886
 30
0.0
 40
5.421728159019367
100
AcDbArc
 50
50.3810998634
 51
64.1450230041
  0
ARC
  5
28D
330
1F
100
AcDbEntity
  8
0
  6
Continuous
 62
     7
370
    25
100
AcDbCircle
 10
153.1774617748
 20
95.9326592537
 30
0.0
 40
38.23607738412836
100
AcDbArc
 50
101.8970959493
 51
104.0544809064
  0
ARC
  5
28E
330
1F
100
AcDbEntity
  8
0
  6
Continuous
 62
     7
370
    25
100
AcDbCircle
 10
141.5276566758
 20
128.1451320809
 30
0.0
 40
5.421728158759418
100
AcDbArc
 50
50.3810998631
 51
64.1450230043
  0
ARC
  5
28F
330
1F
100
AcDbEntity
  8
0
  6
Continuous
 62
     7
370
    25
100
AcDbCircle
 10
157.7686979728
 20
73.9677633944
 30
0.0
 40
59.73761609811146
100
AcDbArc
 50
100.9378260426
 51
102.3567424194
  0
ARC
  5
290
330
1F
100
AcDbEntity
  8
0
  6
Continuous
 62
     7
370
    25
100
AcDbCircle
 10
142.9864464969
 20
128.4765737941
 30
0.0
 40
5.390179310088437
100
AcDbArc
 50
50.2399690996
 51
64.6419404972
  0
ARC
  5
291
330
1F
100
AcDbEntity
  8
0
  6
Continuous
 62
     7
370
    25
100
AcDbCircle
 10
142.4407490583
 20
55.922695745
 30
0.0
 40
67.51458323772796
100
AcDbArc
 50
58.7801444063
 51
62.7477555244
  0
ARC
  5
292
330
1F
100
AcDbEntity
  8
0
  6
Continuous
 62
     7
370
    25
100
AcDbCircle
 10
167.6589664862
 20
121.0180792288
 30
0.0
 40
12.23572157765564
100
AcDbArc
 50
323.0333869334
 51
327.6451572466
  0
ARC
  5
293
330
1F
100
AcDbEntity
  8
0
  6
Continuous
 62
     7
370
    25
100
AcDbCircle
 10
142.8168014828
 20
56.7314994121
 30
0.0
 40
67.61099107512403
100
AcDbArc
 50
58.6473333858
 51
62.7782264099
  0
ARC
  5
294
330
1F
100
AcDbEntity
  8
0
  6
Continuous
 62
     7
370
    25
100
AcDbCircle
 10
235.0567427103
 20
90.1862915623
 30
0.0
 40
66.8607675603558
100
AcDbArc
 50
156.4933534208
 51
157.3419418051
  0
ARC
  5
295
330
1F
100
AcDbEntity
  8
0
  6
Continuous
 62
     7
370
    25
100
AcDbCircle
 10
143.9814871855
 20
59.2407764079
 30
0.0
 40
67.61099107581083
100
AcDbArc
 50
58.6473333859
 51
62.7782264099
  0
ARC
  5
296
330
1F
100
AcDbEntity
  8
0
  6
Continuous
 62
     7
370
    25
100
AcDbCircle
 10
170.5187278097
 20
119.6057516199
 30
0.0
 40
9.031397002046866
100
AcDbArc
 50
343.0931596429
 51
348.739963934
  0
ARC
  5
297
330
1F
100
AcDbEntity
  8
0
  6
Continuous
 62
     7
370
    25
100
AcDbCircle
 10
144.3818918979
 20
60.1048240747
 30
0.0
 40
67.51458323491185
100
AcDbArc
 50
58.7801444062
 51
62.7477555245
  0
ARC
  5
298
330
1F
100
AcDbEntity
  8
0
  6
Continuous
 62
     7
370
    25
100
AcDbCircle
 10
213.4595511375
 20
100.1993501875
 30
0.0
 40
43.05101531726611
100
AcDbArc
 50
152.4292507987
 51
153.5673010823
  0
ARC
  5
299
330
1F
100
AcDbEntity
  8
0
  6
Continuous
 62
     7
370
    25
100
AcDbCircle
 10
223.5704099671
 20
95.2894326164
 30
0.0
 40
54.29144890302107
100
AcDbArc
 50
154.6149521168
 51
155.5881249942
  0
ARC
  5
29A
330
1F
100
AcDbEntity
  8
0
  6
Continuous
 62
     7
370
    25
100
AcDbCircle
 10
143.1989636707
 20
57.5541559186
 30
0.0
 40
67.65910906682937
100
AcDbArc
 50
58.5814224564
 51
62.7934094193
  0
ARC
  5
29B
330
1F
100
AcDbEntity
  8
0
  6
Continuous
 62
     7
370
    25
100
AcDbCircle
 10
169.3607488457
 20
120.0290097601
 30
0.0
 40
10.26563209195243
100
AcDbArc
 50
332.5273127655
 51
337.6757643459
  0
ARC
  5
29C
330
1F
100
AcDbEntity
  8
0
  6
Continuous
 62
     7
370
    25
100
AcDbCircle
 10
143.5871922435
 20
58.3905815935
 30
0.0
 40
67.65910905612775
100
AcDbArc
 50
58.581422456
 51
62.7934094195
  0
LWPOLYLINE
  5
29D
330
1F
100
AcDbEntity
  8
0
  6
Continuous
 62
     7
370
    25
100
AcDbPolyline
 90
        3
 70
   128
 43
0.0
 10
160.0678016532
 20
121.7716261816
 10
160.1802362089
 20
121.8290588414
 10
160.2666759206
 20
121.8753884187
  0
ARC
  5
29E
330
1F
100
AcDbEntity
  8
0
  6
Continuous
 62
     7
370
    25
100
AcDbCircle
 10
123.0395979294
 20
71.6404279466
 30
0.0
 40
62.32355018351495
100
AcDbArc
 50
52.4376937684
 51
53.5494630083
  0
LWPOLYLINE
  5
29F
330
1F
100
AcDbEntity
  8
0
  6
Continuous
 62
     7
370
    25
100
AcDbPolyline
 90
        3
 70
   128
 43
0.0
 10
161.2315779046
 20
121.1479704503
 10
161.1215353621
 20
121.0890511406
 10
161.0335174281
 20
121.0437374371
  0
LWPOLYLINE
  5
2A0
330
1F
100
AcDbEntity
  8
0
  6
Continuous
 62
     7
370
    25
100
AcDbPolyline
 90
       23
 70
   128
 43
0.0
 10
162.7120552859
 20
127.9874759704
 10
162.9690447703
 20
127.7443863753
 10
163.2124148264
 20
127.4840944449
 10
163.4383531976
 20
127.2068069368
 10
163.6429152563
 20
126.9129386245
 10
163.8220596223
 20
126.6031350929
 10
163.9716907158
 20
126.2782943575
 10
164.0312016406
 20
126.1189801167
 10
164.0953926651
 20
125.9119152975
 10
164.154509841
 20
125.6574111148
 10
164.1967446364
 20
125.3563327072
 10
164.2080741684
 20
124.9917965524
 10
164.1876946141
 20
124.7170090161
 10
164.1594087558
 20
124.5299532146
 10
164.1511968937
 20
124.4867303173
 10
164.1443443406
 20
124.4529611365
 10
164.1391663251
 20
124.4285949951
 10
163.9789729388
 20
123.9035663253
 10
163.7540121942
 20
123.4349001012
 10
163.4863342481
 20
123.0212289654
 10
163.1949454829
 20
122.6598260392
 10
162.2864279571
 20
121.8261797778
 10
161.2315779046
 20
121.1479704503
  0
ARC
  5
2A1
330
1F
100
AcDbEntity
  8
0
  6
Continuous
 62
     7
370
    25
100
AcDbCircle
 10
174.1929674138
 20
93.1508192186
 30
0.0
 40
36.67974913941774
100
AcDbArc
 50
108.2403655305
 51
109.8878969279
  0
LWPOLYLINE
  5
2A2
330
1F
100
AcDbEntity
  8
0
  6
Continuous
 62
     7
370
    25
100
AcDbPolyline
 90
       18
 70
   128
 43
0.0
 10
160.2666759206
 20
121.8753884187
 10
160.7204899031
 20
122.1433889892
 10
161.1540919303
 20
122.44311583
 10
161.5598866372
 20
122.7759806246
 10
161.9293041719
 20
123.1429389693
 10
162.0986873179
 20
123.340948459
 10
162.261856877
 20
123.5576684364
 10
162.4146992354
 20
123.7939502114
 10
162.5526271972
 20
124.0504953483
 10
162.6705658909
 20
124.3278059839
 10
162.7629483652
 20
124.6261293925
 10
162.8106775722
 20
124.857360593
 10
162.8433317773
 20
125.195831753
 10
162.8232017761
 20
125.6174023959
 10
162.757847497
 20
125.9573225907
 10
162.6889684761
 20
126.1851671765
 10
162.2821042174
 20
126.9768417798
 10
161.715216694
 20
127.6429883865
  0
LWPOLYLINE
  5
2A3
330
1F
100
AcDbEntity
  8
0
  6
Continuous
 62
     7
370
    25
100
AcDbPolyline
 90
        3
 70
   128
 43
0.0
 10
160.5261901548
 20
128.5400181135
 10
160.3822825361
 20
128.6237436139
 10
160.2666759206
 20
128.688194788
  0
ARC
  5
2A4
330
1F
100
AcDbEntity
  8
0
  6
Continuous
 62
     7
370
    25
100
AcDbCircle
 10
172.6645710754
 20
94.3012867976
 30
0.0
 40
36.32672588460426
100
AcDbArc
 50
107.9123657013
 51
109.5205326426
  0
LWPOLYLINE
  5
2A5
330
1F
100
AcDbEntity
  8
0
  6
Continuous
 62
     7
370
    25
100
AcDbPolyline
 90
        3
 70
   128
 43
0.0
 10
161.2315779046
 20
129.0149029323
 10
161.3785588429
 20
128.9328281066
 10
161.4918511233
 20
128.8671853447
  0
ARC
  5
2A6
330
1F
100
AcDbEntity
  8
0
  6
Continuous
 62
     7
370
    25
100
AcDbCircle
 10
152.5883304199
 20
110.7082303832
 30
0.0
 40
20.24450510383706
100
AcDbArc
 50
64.7262959764
 51
112.3703114362
  0
ARC
  5
2A7
330
1F
100
AcDbEntity
  8
0
  6
Continuous
 62
     7
370
    25
100
AcDbCircle
 10
136.3453243763
 20
97.0948575455
 30
0.0
 40
33.44262863822679
100
AcDbArc
 50
73.4548852472
 51
75.2082456561
  0
ARC
  5
2A8
330
1F
100
AcDbEntity
  8
0
  6
Continuous
 62
     7
370
    25
100
AcDbCircle
 10
152.5404219644
 20
112.5801473158
 30
0.0
 40
17.86516704543837
100
AcDbArc
 50
64.3752109589
 51
111.9281510241
  0
LWPOLYLINE
  5
2A9
330
1F
100
AcDbEntity
  8
0
  6
Continuous
 62
     7
370
    25
100
AcDbPolyline
 90
        3
 70
   128
 43
0.0
 10
156.5639326781
 20
126.9607693023
 10
156.4616238634
 20
127.023955074
 10
156.377588624
 20
127.0716901797
  0
ARC
  5
2AA
330
1F
100
AcDbEntity
  8
0
  6
Continuous
 62
     7
370
    25
100
AcDbCircle
 10
175.1692325228
 20
87.9229152012
 30
0.0
 40
43.24478275043949
100
AcDbArc
 50
114.0707707224
 51
115.4822997145
  0
LWPOLYLINE
  5
2AB
330
1F
100
AcDbEntity
  8
0
  6
Continuous
 62
     7
370
    25
100
AcDbPolyline
 90
        3
 70
   128
 43
0.0
 10
157.3424906853
 20
127.5168383201
 10
157.4496305259
 20
127.4562092522
 10
157.5312109892
 20
127.4072340064
  0
ARC
  5
2AC
330
1F
100
AcDbEntity
  8
0
  6
Continuous
 62
     7
370
    25
100
AcDbCircle
 10
152.3830399015
 20
117.1270460484
 30
0.0
 40
11.51277271231937
100
AcDbArc
 50
64.4830471738
 51
107.5896162015
  0
ARC
  5
2AD
330
1F
100
AcDbEntity
  8
0
  6
Continuous
 62
     7
370
    25
100
AcDbCircle
 10
134.1002666359
 20
90.6356651839
 30
0.0
 40
40.28448881791683
100
AcDbArc
 50
66.8427400874
 51
68.4398632636
  0
ARC
  5
2AE
330
1F
100
AcDbEntity
  8
0
  6
Continuous
 62
     7
370
    25
100
AcDbCircle
 10
152.3379166892
 20
118.5955386672
 30
0.0
 40
9.389573675263136
100
AcDbArc
 50
64.5178719837
 51
104.7810643004
  0
LWPOLYLINE
  5
2AF
330
1F
100
AcDbEntity
  8
0
  6
Continuous
 62
     7
370
    25
100
AcDbPolyline
 90
        3
 70
   128
 43
0.0
 10
163.9589940846
 20
118.6564607092
 10
164.0697488155
 20
118.7148660633
 10
164.1557632171
 20
118.7613809803
  0
ARC
  5
2B0
330
1F
100
AcDbEntity
  8
0
  6
Continuous
 62
     7
370
    25
100
AcDbCircle
 10
118.1153798678
 20
65.5911595349
 30
0.0
 40
70.12533888102446
100
AcDbArc
 50
48.3086508689
 51
49.1759557825
  0
LWPOLYLINE
  5
2B1
330
1F
100
AcDbEntity
  8
0
  6
Continuous
 62
     7
370
    25
100
AcDbPolyline
 90
        3
 70
   128
 43
0.0
 10
164.9535411508
 20
118.0614694685
 10
164.8439797263
 20
118.0023441346
 10
164.756978019
 20
117.9564579212
  0
LWPOLYLINE
  5
2B2
330
1F
100
AcDbEntity
  8
0
  6
Continuous
 62
     7
370
    25
100
AcDbPolyline
 90
       17
 70
   128
 43
0.0
 10
166.5623634641
 20
128.9516857291
 10
167.1119594726
 20
128.5056075523
 10
167.6326332383
 20
128.0166855026
 10
168.1127466219
 20
127.4849530099
 10
168.5400306675
 20
126.9112216065
 10
168.9017383843
 20
126.2971975384
 10
169.1874279953
 20
125.6389437158
 10
169.4001371501
 20
124.8435169905
 10
169.4727653863
 20
124.0962433603
 10
169.4242715246
 20
123.3564792174
 10
169.2773737414
 20
122.6870179675
 10
168.9731042747
 20
121.8949371156
 10
168.552094217
 20
121.1548758037
 10
168.0602954321
 20
120.4997016765
 10
167.1396386964
 20
119.5654977205
 10
166.088746397
 20
118.7543147651
 10
164.9535411508
 20
118.0614694685
  0
ARC
  5
2B3
330
1F
100
AcDbEntity
  8
0
  6
Continuous
 62
     7
370
    25
100
AcDbCircle
 10
172.6030412113
 20
98.9824194498
 30
0.0
 40
30.57199223089515
100
AcDbArc
 50
101.3959833813
 51
102.9472301353
  0
LWPOLYLINE
  5
2B4
330
1F
100
AcDbEntity
  8
0
  6
Continuous
 62
     7
370
    25
100
AcDbPolyline
 90
       17
 70
   128
 43
0.0
 10
164.1557632171
 20
118.7613809803
 10
164.8016993875
 20
119.1387747343
 10
165.4174095794
 20
119.5507785521
 10
165.9962371007
 20
119.997836347
 10
166.5310428383
 20
120.4800444963
 10
167.0142355898
 20
120.9970990867
 10
167.4307777793
 20
121.5390319433
 10
167.8024753972
 20
122.1560143149
 10
168.1006463364
 20
122.850518248
 10
168.2926244238
 20
123.6226933004
 10
168.3446193282
 20
124.3032204659
 10
168.28720429
 20
124.9913733878
 10
168.1189851508
 20
125.6747078954
 10
167.8505171271
 20
126.3275268319
 10
167.2741529504
 20
127.2570719543
 10
166.556361809
 20
128.0746090594
 10
165.7532776211
 20
128.7771748226
  0
LWPOLYLINE
  5
2B5
330
1F
100
AcDbEntity
  8
0
  6
Continuous
 62
     7
370
    25
100
AcDbPolyline
 90
        3
 70
   128
 43
0.0
 10
164.3483479773
 20
129.7094627923
 10
164.2409652262
 20
129.7697783469
 10
164.1557633949
 20
129.8167233709
  0
ARC
  5
2B6
330
1F
100
AcDbEntity
  8
0
  6
Continuous
 62
     7
370
    25
100
AcDbCircle
 10
171.0035700389
 20
100.0863035745
 30
0.0
 40
30.36154710700245
100
AcDbArc
 50
101.1231600525
 51
102.6619932871
  0
LWPOLYLINE
  5
2B7
330
1F
100
AcDbEntity
  8
0
  6
Continuous
 62
     7
370
    25
100
AcDbPolyline
 90
        3
 70
   128
 43
0.0
 10
164.9535411508
 20
129.9846451046
 10
165.0618958937
 20
129.9248761147
 10
165.1462626314
 20
129.877501816
  0
ARC
  5
2B8
330
1F
100
AcDbEntity
  8
0
  6
Continuous
 62
     7
370
    25
100
AcDbCircle
 10
152.8256405875
 20
104.2971566612
 30
0.0
 40
28.40656675145853
100
AcDbArc
 50
64.726476863
 51
114.35311994
  0
ARC
  5
2B9
330
1F
100
AcDbEntity
  8
0
  6
Continuous
 62
     7
370
    25
100
AcDbCircle
 10
137.5240727388
 20
102.5677598241
 30
0.0
 40
27.84054085620467
100
AcDbArc
 50
80.9199413691
 51
82.5955987607
  0
ARC
  5
2BA
330
1F
100
AcDbEntity
  8
0
  6
Continuous
 62
     7
370
    25
100
AcDbCircle
 10
152.7775090027
 20
106.1857549026
 30
0.0
 40
26.22760651994116
100
AcDbArc
 50
64.2892969194
 51
114.4601230536
  0
ARC
  5
2BB
330
1F
100
AcDbEntity
  8
0
  6
Continuous
 62
     7
370
    25
100
AcDbCircle
 10
157.5449551336
 20
75.2127196365
 30
0.0
 40
58.47261638293927
100
AcDbArc
 50
98.0747138418
 51
99.5113640239
  0
ARC
  5
2BC
330
1F
100
AcDbEntity
  8
0
  6
Continuous
 62
     7
370
    25
100
AcDbCircle
 10
145.8890210003
 20
128.9782106737
 30
0.0
 40
5.374678144794698
100
AcDbArc
 50
50.1689712272
 51
64.8899521641
  0
ARC
  5
2BD
330
1F
100
AcDbEntity
  8
0
  6
Continuous
 62
     7
370
    25
100
AcDbCircle
 10
153.748439427
 20
92.984766329
 30
0.0
 40
41.23925130802847
100
AcDbArc
 50
97.7745078472
 51
99.8115700184
  0
ARC
  5
2BE
330
1F
100
AcDbEntity
  8
0
  6
Continuous
 62
     7
370
    25
100
AcDbCircle
 10
144.4401322613
 20
128.7540910929
 30
0.0
 40
5.374678143912522
100
AcDbArc
 50
50.1689712257
 51
64.889952165
  0
LINE
  5
2BF
330
1F
100
AcDbEntity
  8
0
  6
Continuous
 62
     7
370
    25
100
AcDbLine
 10
148.0276433621
 20
90.8909938939
 30
0.0
 11
148.3395108983
 21
91.7380027797
 31
0.0
  0
LINE
  5
2C0
330
1F
100
AcDbEntity
  8
0
  6
Continuous
 62
     7
370
    25
100
AcDbLine
 10
148.3395108983
 20
91.7380027797
 30
0.0
 11
148.4034917907
 21
99.1073446032
 31
0.0
  0
LINE
  5
2C1
330
1F
100
AcDbEntity
  8
0
  6
Continuous
 62
     7
370
    25
100
AcDbLine
 10
162.2160023268
 20
116.7462152464
 30
0.0
 11
162.2160023268
 21
117.919678084
 31
0.0
  0
LINE
  5
2C2
330
1F
100
AcDbEntity
  8
0
  6
Continuous
 62
     7
370
    25
100
AcDbLine
 10
147.8181159044
 20
118.0081189892
 30
0.0
 11
147.8181159044
 21
119.25667175
 31
0.0
  0
LINE
  5
2C3
330
1F
100
AcDbEntity
  8
0
  6
Continuous
 62
     7
370
    25
100
AcDbLine
 10
140.7841437653
 20
110.4198071096
 30
0.0
 11
140.7841437653
 21
111.7556414027
 31
0.0
  0
ARC
  5
2C4
330
1F
100
AcDbEntity
  8
0
  6
Continuous
 62
     7
370
    25
100
AcDbCircle
 10
200.0921846502
 20
55.8089660195
 30
0.0
 40
80.62126070822745
100
AcDbArc
 50
137.3611306082
 51
139.8262835179
  0
LWPOLYLINE
  5
2C5
330
1F
100
AcDbEntity
  8
0
  6
Continuous
 62
     7
370
    25
100
AcDbPolyline
 90
       11
 70
   128
 43
0.0
 10
176.2430194638
 20
105.4258052635
 10
177.5454847159
 20
106.4305656445
 10
178.7118076994
 20
107.4896004045
 10
179.7352324574
 20
108.5967750565
 10
180.6098307747
 20
109.7456762617
 10
181.3305365172
 20
110.9296489794
 10
181.8931749776
 20
112.1418350159
 10
182.2944870578
 20
113.3752127513
 10
182.5321481466
 20
114.6226378123
 10
182.6047815861
 20
115.8768844558
 10
182.5963834863
 20
116.2073794661
  0
ARC
  5
2C6
330
1F
100
AcDbEntity
  8
0
  6
Continuous
 62
     7
370
    25
100
AcDbCircle
 10
177.7719350833
 20
103.4927998124
 30
0.0
 40
2.464567517000426
100
AcDbArc
 50
128.3423250431
 51
179.320616665
  0
LINE
  5
2C7
330
1F
100
AcDbEntity
  8
0
  6
Continuous
 62
     7
370
    25
100
AcDbLine
 10
175.5411015254
 20
96.0517523419
 30
0.0
 11
175.3075408231
 21
103.522022678
 31
0.0
  0
LWPOLYLINE
  5
2C8
330
1F
100
AcDbEntity
  8
0
  6
Continuous
 62
     7
370
    25
100
AcDbPolyline
 90
        5
 70
   128
 43
0.0
 10
176.5548578195
 20
95.4652243789
 10
176.1861136052
 20
95.3048467958
 10
175.8599375868
 20
95.3605060687
 10
175.6323934954
 20
95.6247578892
 10
175.5411015254
 20
96.0517523419
  0
LWPOLYLINE
  5
2C9
330
1F
100
AcDbEntity
  8
0
  6
Continuous
 62
     7
370
    25
100
AcDbPolyline
 90
       12
 70
   128
 43
0.0
 10
176.5548578195
 20
95.4652243789
 10
177.8800533104
 20
96.486047783
 10
179.0666668084
 20
97.5621917222
 10
180.1077998477
 20
98.6873999538
 10
180.9973997241
 20
99.855130996
 10
181.7302946826
 20
101.0585961577
 10
182.3022239838
 20
102.2907990047
 10
182.7098626743
 20
103.5445760342
 10
182.9508409161
 20
104.8126383202
 10
183.0237577645
 20
106.0876138885
 10
182.9281893119
 20
107.3620905736
 10
182.6646911525
 20
108.6286591109
  0
ARC
  5
2CA
330
1F
100
AcDbEntity
  8
0
  6
Continuous
 62
     7
370
    25
100
AcDbCircle
 10
193.1020779258
 20
111.3284013758
 30
0.0
 40
10.78089286429367
100
AcDbArc
 50
183.3476742768
 51
194.5023180059
  0
LINE
  5
2CB
330
1F
100
AcDbEntity
  8
0
  6
Continuous
 62
     7
370
    25
100
AcDbLine
 10
182.3395818623
 20
110.698854368
 30
0.0
 11
182.2361529604
 21
113.1586362956
 31
0.0
  0
LINE
  5
2CC
330
1F
100
AcDbEntity
  8
0
  6
Continuous
 62
     7
370
    25
100
AcDbLine
 10
173.1896183926
 20
102.2993720837
 30
0.0
 11
172.185922483
 21
102.9428846478
 31
0.0
  0
LINE
  5
2CD
330
1F
100
AcDbEntity
  8
0
  6
Continuous
 62
     7
370
    25
100
AcDbLine
 10
138.6628234217
 20
111.682913194
 30
0.0
 11
138.6628234217
 21
113.0174723379
 31
0.0
  0
ARC
  5
2CE
330
1F
100
AcDbEntity
  8
0
  6
Continuous
 62
     7
370
    25
100
AcDbCircle
 10
198.0412262401
 20
56.9831739751
 30
0.0
 40
80.73324093509503
100
AcDbArc
 50
137.348543934
 51
139.9197838925
  0
ARC
  5
2CF
330
1F
100
AcDbEntity
  8
0
  6
Continuous
 62
     7
370
    25
100
AcDbCircle
 10
114.843502652
 20
69.3593609773
 30
0.0
 40
48.56827254442594
100
AcDbArc
 50
57.3090780434
 51
57.7166478598
  0
ARC
  5
2D0
330
1F
100
AcDbEntity
  8
0
  6
Continuous
 62
     7
370
    25
100
AcDbCircle
 10
149.8702860595
 20
91.8610018958
 30
0.0
 40
1.535708753916411
100
AcDbArc
 50
184.5938962315
 51
267.5395748416
  0
LINE
  5
2D1
330
1F
100
AcDbEntity
  8
0
  6
Continuous
 62
     7
370
    25
100
AcDbLine
 10
144.1361449322
 20
91.2034896693
 30
0.0
 11
143.6719633262
 21
90.3787740845
 31
0.0
  0
LWPOLYLINE
  5
2D2
330
1F
100
AcDbEntity
  8
0
  6
Continuous
 62
     7
370
    25
100
AcDbPolyline
 90
        3
 70
   128
 43
0.0
 10
144.1361449322
 20
91.2034896693
 10
144.6748007887
 20
91.1828139381
 10
145.1027735713
 20
91.3466928635
  0
LINE
  5
2D3
330
1F
100
AcDbEntity
  8
0
  6
Continuous
 62
     7
370
    25
100
AcDbLine
 10
172.396221484
 20
95.4591856173
 30
0.0
 11
173.3999173936
 21
94.8156730533
 31
0.0
  0
LINE
  5
2D4
330
1F
100
AcDbEntity
  8
0
  6
Continuous
 62
     7
370
    25
100
AcDbLine
 10
172.396221484
 20
95.4591856173
 30
0.0
 11
172.185922483
 21
102.9428846478
 31
0.0
  0
LINE
  5
2D5
330
1F
100
AcDbEntity
  8
0
  6
Continuous
 62
     7
370
    25
100
AcDbLine
 10
126.9795882345
 20
100.0150771104
 30
0.0
 11
128.4081923215
 21
100.2830434478
 31
0.0
  0
LWPOLYLINE
  5
2D6
330
1F
100
AcDbEntity
  8
0
  6
Continuous
 62
     7
370
    25
100
AcDbPolyline
 90
       12
 70
   128
 43
0.0
 10
128.4081923215
 20
100.2830434478
 10
129.2313944639
 20
99.1795293821
 10
130.1968990819
 20
98.1151441706
 10
131.2991685636
 20
97.0959925507
 10
132.5318808877
 20
96.1279198245
 10
133.8879658837
 20
95.2164783332
 10
135.3596457819
 20
94.3668956118
 10
136.9384798229
 20
93.5840444071
 10
138.6154126693
 20
92.8724147298
 10
140.3808263418
 20
92.2360881027
 10
142.2245953832
 20
91.6787141507
 10
144.1361449322
 20
91.2034896693
  0
LWPOLYLINE
  5
2D7
330
1F
100
AcDbEntity
  8
0
  6
Continuous
 62
     7
370
    25
100
AcDbPolyline
 90
        3
 70
   128
 43
0.0
 10
138.6628234217
 20
111.682913194
 10
138.7953987895
 20
111.6084830061
 10
138.9223539836
 20
111.5366446111
  0
LINE
  5
2D8
330
1F
100
AcDbEntity
  8
0
  6
Continuous
 62
     7
370
    25
100
AcDbLine
 10
136.5415030781
 20
112.7919292624
 30
0.0
 11
136.5415030781
 21
114.1303248623
 31
0.0
  0
ARC
  5
2D9
330
1F
100
AcDbEntity
  8
0
  6
Continuous
 62
     7
370
    25
100
AcDbCircle
 10
195.7777589919
 20
58.2968532542
 30
0.0
 40
80.49004487407167
100
AcDbArc
 50
137.3871381403
 51
139.827429226
  0
ARC
  5
2DA
330
1F
100
AcDbEntity
  8
0
  6
Continuous
 62
     7
370
    25
100
AcDbCircle
 10
171.8281167918
 20
105.7414562142
 30
0.0
 40
9.707136906538164
100
AcDbArc
 50
3.2720222802
 51
23.5902748182
  0
LINE
  5
2DB
330
1F
100
AcDbEntity
  8
0
  6
Continuous
 62
     7
370
    25
100
AcDbLine
 10
180.7110888184
 20
109.9771477569
 30
0.0
 11
180.7240347726
 21
109.6261891781
 31
0.0
  0
ARC
  5
2DC
330
1F
100
AcDbEntity
  8
0
  6
Continuous
 62
     7
370
    25
100
AcDbCircle
 10
191.2867247699
 20
111.0624498568
 30
0.0
 40
10.42441402947545
100
AcDbArc
 50
184.2508239242
 51
194.5228122299
  0
LWPOLYLINE
  5
2DD
330
1F
100
AcDbEntity
  8
0
  6
Continuous
 62
     7
370
    25
100
AcDbPolyline
 90
       12
 70
   128
 43
0.0
 10
175.5390348363
 20
96.1178539015
 10
176.682412112
 20
97.0087793638
 10
177.7964106315
 20
98.0236719713
 10
178.7741689793
 20
99.0843228055
 10
179.6100792627
 20
100.1846485472
 10
180.2993471526
 20
101.3183383236
 10
180.8380193816
 20
102.4788899035
 10
181.2230064172
 20
103.6596469914
 10
181.4521001823
 20
104.8538374037
 10
181.523986719
 20
106.0546119104
 10
181.4382537249
 20
107.255083519
 10
181.1953929183
 20
108.4483669739
  0
LINE
  5
2DE
330
1F
100
AcDbEntity
  8
0
  6
Continuous
 62
     7
370
    25
100
AcDbLine
 10
143.6673403787
 20
114.775750155
 30
0.0
 11
143.6673403787
 21
116.0583516659
 31
0.0
  0
LINE
  5
2DF
330
1F
100
AcDbEntity
  8
0
  6
Continuous
 62
     7
370
    25
100
AcDbLine
 10
143.5475934008
 20
114.6628013917
 30
0.0
 11
143.6673403787
 21
114.775750155
 31
0.0
  0
LWPOLYLINE
  5
2E0
330
1F
100
AcDbEntity
  8
0
  6
Continuous
 62
     7
370
    25
100
AcDbPolyline
 90
        3
 70
   128
 43
0.0
 10
143.9290286079
 20
114.612091807
 10
143.7816153771
 20
114.7032256332
 10
143.6673403787
 20
114.775750155
  0
LWPOLYLINE
  5
2E1
330
1F
100
AcDbEntity
  8
0
  6
Continuous
 62
     7
370
    25
100
AcDbPolyline
 90
        3
 70
   128
 43
0.0
 10
136.5415030781
 20
112.7919292624
 10
136.6739634971
 20
112.7272068488
 10
136.7639967535
 20
112.6828696543
  0
ARC
  5
2E2
330
1F
100
AcDbEntity
  8
0
  6
Continuous
 62
     7
370
    25
100
AcDbCircle
 10
146.0862301086
 20
119.8625109831
 30
0.0
 40
7.773948594767075
100
AcDbArc
 50
127.8201492304
 51
170.4839936573
  0
LINE
  5
2E3
330
1F
100
AcDbEntity
  8
0
  6
Continuous
 62
     7
370
    25
100
AcDbLine
 10
158.1424015584
 20
120.1744783682
 30
0.0
 11
158.1424015584
 21
121.1445266958
 31
0.0
  0
LINE
  5
2E4
330
1F
100
AcDbEntity
  8
0
  6
Continuous
 62
     7
370
    25
100
AcDbLine
 10
151.707203201
 20
120.9003684284
 30
0.0
 11
151.707203201
 21
122.1304117567
 31
0.0
  0
LINE
  5
2E5
330
1F
100
AcDbEntity
  8
0
  6
Continuous
 62
     7
370
    25
100
AcDbLine
 10
166.5623634641
 20
128.0677734001
 30
0.0
 11
166.5623634641
 21
128.9516857291
 31
0.0
  0
ARC
  5
2E6
330
1F
100
AcDbEntity
  8
0
  6
Continuous
 62
     7
370
    25
100
AcDbCircle
 10
163.822734949
 20
122.5519596688
 30
0.0
 40
5.646387716473535
100
AcDbArc
 50
7.8285925778
 51
48.3405798648
  0
ARC
  5
2E7
330
1F
100
AcDbEntity
  8
0
  6
Continuous
 62
     7
370
    25
100
AcDbCircle
 10
146.055553016
 20
120.951383042
 30
0.0
 40
6.315211373870043
100
AcDbArc
 50
181.6285750069
 51
226.5725697694
  0
ARC
  5
2E8
330
1F
100
AcDbEntity
  8
0
  6
Continuous
 62
     7
370
    25
100
AcDbCircle
 10
163.0548424105
 20
123.0959110531
 30
0.0
 40
5.286645458791242
100
AcDbArc
 50
300.9014507509
 51
359.1460853303
  0
LINE
  5
2E9
330
1F
100
AcDbEntity
  8
0
  6
Continuous
 62
     7
370
    25
100
AcDbLine
 10
147.6266997811
 20
118.1282592458
 30
0.0
 11
147.6266997811
 21
119.3766340925
 31
0.0
  0
LINE
  5
2EA
330
1F
100
AcDbEntity
  8
0
  6
Continuous
 62
     7
370
    25
100
AcDbLine
 10
158.663166687
 20
65.8276179433
 30
0.0
 11
158.5977651713
 21
66.2591651844
 31
0.0
  0
LINE
  5
2EB
330
1F
100
AcDbEntity
  8
0
  6
Continuous
 62
     7
370
    25
100
AcDbLine
 10
158.5977651713
 20
66.2591651844
 30
0.0
 11
158.5977652923
 21
67.2026111134
 31
0.0
  0
ARC
  5
2EC
330
1F
100
AcDbEntity
  8
0
  6
Continuous
 62
     7
370
    25
100
AcDbCircle
 10
170.3326428484
 20
95.4786748655
 30
0.0
 40
2.063670665617568
100
AcDbArc
 50
297.6128034825
 51
359.4588922129
  0
LINE
  5
2ED
330
1F
100
AcDbEntity
  8
0
  6
Continuous
 62
     7
370
    25
100
AcDbLine
 10
173.7444954131
 20
115.7415238639
 30
0.0
 11
173.7444954131
 21
116.8540730623
 31
0.0
  0
ARC
  5
2EE
330
1F
100
AcDbEntity
  8
0
  6
Continuous
 62
     7
370
    25
100
AcDbCircle
 10
149.1452552833
 20
121.0875562137
 30
0.0
 40
5.333939722593011
100
AcDbArc
 50
121.4675994119
 51
167.8157732364
  0
LWPOLYLINE
  5
2EF
330
1F
100
AcDbEntity
  8
0
  6
Continuous
 62
     7
370
    25
100
AcDbPolyline
 90
       14
 70
   128
 43
0.0
 10
114.0423959125
 20
98.6529331046
 10
114.0850769204
 20
97.5864873775
 10
114.2745866416
 20
96.168492701
 10
114.6149492848
 20
94.7599223579
 10
115.1048737381
 20
93.3661195381
 10
115.74250155
 20
91.992371413
 10
116.52541398
 20
90.6438890798
 10
117.450641173
 20
89.3257877939
 10
118.5146734253
 20
88.043067565
 10
119.7134744982
 20
86.8005941902
 10
121.0424969286
 20
85.6030807966
 10
122.4966992791
 20
84.4550699628
 10
124.0705652622
 20
83.360916487
 10
125.758124665
 20
82.3247708681
  0
LINE
  5
2F0
330
1F
100
AcDbEntity
  8
0
  6
Continuous
 62
     7
370
    25
100
AcDbLine
 10
162.7120552859
 20
126.7337164755
 30
0.0
 11
162.7120552859
 21
127.9874759704
 31
0.0
  0
ARC
  5
2F1
330
1F
100
AcDbEntity
  8
0
  6
Continuous
 62
     7
370
    25
100
AcDbCircle
 10
160.3423982645
 20
123.6544250521
 30
0.0
 40
3.885525713383339
100
AcDbArc
 50
11.8829740096
 51
52.4200552908
  0
ARC
  5
2F2
330
1F
100
AcDbEntity
  8
0
  6
Continuous
 62
     7
370
    25
100
AcDbCircle
 10
148.5409963407
 20
121.7568998509
 30
0.0
 40
3.29469683642513
100
AcDbArc
 50
179.35141952
 51
212.0180485548
  0
ARC
  5
2F3
330
1F
100
AcDbEntity
  8
0
  6
Continuous
 62
     7
370
    25
100
AcDbCircle
 10
159.2375485814
 20
124.2522626611
 30
0.0
 40
3.607988650168431
100
AcDbArc
 50
298.7548118384
 51
356.6138031897
  0
LINE
  5
2F4
330
1F
100
AcDbEntity
  8
0
  6
Continuous
 62
     7
370
    25
100
AcDbLine
 10
192.515905987
 20
85.3703883616
 30
0.0
 11
192.5306929005
 21
86.757760912
 31
0.0
  0
LINE
  5
2F5
330
1F
100
AcDbEntity
  8
0
  6
Continuous
 62
     7
370
    25
100
AcDbLine
 10
192.7337953438
 20
86.8081157567
 30
0.0
 11
192.7916583625
 21
87.8998841992
 31
0.0
  0
LINE
  5
2F6
330
1F
100
AcDbEntity
  8
0
  6
Continuous
 62
     7
370
    25
100
AcDbLine
 10
192.7485822574
 20
88.1954883071
 30
0.0
 11
192.7337953438
 21
86.8081157567
 31
0.0
  0
LWPOLYLINE
  5
2F7
330
1F
100
AcDbEntity
  8
0
  6
Continuous
 62
     7
370
    25
100
AcDbPolyline
 90
       11
 70
   128
 43
0.0
 10
181.4427836835
 20
72.2199953835
 10
183.2052184687
 20
73.3075348946
 10
184.8383988276
 20
74.4603618181
 10
186.3350862363
 20
75.6733666353
 10
187.68864713
 20
76.9411731095
 10
188.8930823041
 20
78.2581621137
 10
189.9430535038
 20
79.6184965361
 10
190.8339070842
 20
81.0161471507
 10
191.5616946356
 20
82.4449193403
 10
192.1231904838
 20
83.8984805514
 10
192.515905987
 20
85.3703883616
  0
ARC
  5
2F8
330
1F
100
AcDbEntity
  8
0
  6
Continuous
 62
     7
370
    25
100
AcDbCircle
 10
179.5866916191
 20
89.4548146406
 30
0.0
 40
13.22199939454559
100
AcDbArc
 50
348.2300701747
 51
354.5345918342
  0
LINE
  5
2F9
330
1F
100
AcDbEntity
  8
0
  6
Continuous
 62
     7
370
    25
100
AcDbLine
 10
151.4571419704
 20
121.0707308106
 30
0.0
 11
151.4571419704
 21
122.3005327405
 31
0.0
  0
LINE
  5
2FA
330
1F
100
AcDbEntity
  8
0
  6
Continuous
 62
     7
370
    25
100
AcDbLine
 10
174.5209525484
 20
117.526528462
 30
0.0
 11
174.5209525484
 21
118.5641431606
 31
0.0
  0
LWPOLYLINE
  5
2FB
330
1F
100
AcDbEntity
  8
0
  6
Continuous
 62
     7
370
    25
100
AcDbPolyline
 90
        3
 70
   128
 43
0.0
 10
181.3101722424
 20
104.025942978
 10
181.1625372802
 20
104.1172994108
 10
180.1423959125
 20
104.7206964408
  0
LWPOLYLINE
  5
2FC
330
1F
100
AcDbEntity
  8
0
  6
Continuous
 62
     7
370
    25
100
AcDbPolyline
 90
        3
 70
   128
 43
0.0
 10
140.3083936837
 20
109.3781450255
 10
139.8836432742
 20
109.2789541757
 10
139.7185731105
 20
109.2394529947
  0
LINE
  5
2FD
330
1F
100
AcDbEntity
  8
0
  6
Continuous
 62
     7
370
    25
100
AcDbLine
 10
180.5697838252
 20
109.7315974765
 30
0.0
 11
180.7240347726
 21
109.6261891781
 31
0.0
  0
LINE
  5
2FE
330
1F
100
AcDbEntity
  8
0
  6
Continuous
 62
     7
370
    25
100
AcDbLine
 10
154.6787920156
 20
123.4350860804
 30
0.0
 11
154.6787920156
 21
123.9051517173
 31
0.0
  0
LINE
  5
2FF
330
1F
100
AcDbEntity
  8
0
  6
Continuous
 62
     7
370
    25
100
AcDbLine
 10
155.527320153
 20
123.9249309475
 30
0.0
 11
154.6787920156
 21
123.4350860804
 31
0.0
  0
LINE
  5
300
330
1F
100
AcDbEntity
  8
0
  6
Continuous
 62
     7
370
    25
100
AcDbLine
 10
155.527320153
 20
123.9249309475
 30
0.0
 11
155.527320153
 21
124.3949965844
 31
0.0
  0
LINE
  5
301
330
1F
100
AcDbEntity
  8
0
  6
Continuous
 62
     7
370
    25
100
AcDbLine
 10
157.2243764278
 20
125.3088823481
 30
0.0
 11
157.2243764278
 21
124.0842701803
 31
0.0
  0
LINE
  5
302
330
1F
100
AcDbEntity
  8
0
  6
Continuous
 62
     7
370
    25
100
AcDbLine
 10
149.7997552254
 20
124.6450979456
 30
0.0
 11
149.7997552254
 21
123.4163307153
 31
0.0
  0
LINE
  5
303
330
1F
100
AcDbEntity
  8
0
  6
Continuous
 62
     7
370
    25
100
AcDbLine
 10
149.7997552254
 20
123.4163307153
 30
0.0
 11
149.518824617
 21
122.7719155733
 31
0.0
  0
LINE
  5
304
330
1F
100
AcDbEntity
  8
0
  6
Continuous
 62
     7
370
    25
100
AcDbLine
 10
180.7788292771
 20
109.496319196
 30
0.0
 11
180.6190817839
 21
109.7592218727
 31
0.0
  0
LINE
  5
305
330
1F
100
AcDbEntity
  8
0
  6
Continuous
 62
     7
370
    25
100
AcDbLine
 10
181.1953929183
 20
108.4483669739
 30
0.0
 11
182.6646911525
 21
108.6286591109
 31
0.0
  0
LINE
  5
306
330
1F
100
AcDbEntity
  8
0
  6
Continuous
 62
     7
370
    25
100
AcDbLine
 10
175.2974096837
 20
119.1620301827
 30
0.0
 11
175.2974096837
 21
120.1252348482
 31
0.0
  0
LINE
  5
307
330
1F
100
AcDbEntity
  8
0
  6
Continuous
 62
     7
370
    25
100
AcDbLine
 10
153.4059998094
 20
125.1495431152
 30
0.0
 11
152.9739640935
 21
124.9001342052
 31
0.0
  0
LINE
  5
308
330
1F
100
AcDbEntity
  8
0
  6
Continuous
 62
     7
370
    25
100
AcDbLine
 10
155.527320153
 20
123.9249309475
 30
0.0
 11
153.4059998094
 21
125.1495431152
 31
0.0
  0
LINE
  5
309
330
1F
100
AcDbEntity
  8
0
  6
Continuous
 62
     7
370
    25
100
AcDbLine
 10
126.5289377491
 20
102.0658531814
 30
0.0
 11
127.9555225236
 21
102.3334407519
 31
0.0
  0
LINE
  5
30A
330
1F
100
AcDbEntity
  8
0
  6
Continuous
 62
     7
370
    25
100
AcDbLine
 10
127.9555225236
 20
102.3334407519
 30
0.0
 11
128.2148976752
 21
108.7590881454
 31
0.0
  0
LINE
  5
30B
330
1F
100
AcDbEntity
  8
0
  6
Continuous
 62
     7
370
    25
100
AcDbLine
 10
153.4059998094
 20
125.1495431152
 30
0.0
 11
153.4059998094
 21
125.6196087521
 31
0.0
  0
LINE
  5
30C
330
1F
100
AcDbEntity
  8
0
  6
Continuous
 62
     7
370
    25
100
AcDbLine
 10
158.5903080102
 20
125.2602243091
 30
0.0
 11
158.5903080102
 21
126.2836097097
 31
0.0
  0
LINE
  5
30D
330
1F
100
AcDbEntity
  8
0
  6
Continuous
 62
     7
370
    25
100
AcDbLine
 10
154.0423959125
 20
125.9726062336
 30
0.0
 11
154.0423959125
 21
127.094322281
 31
0.0
  0
ARC
  5
30E
330
1F
100
AcDbEntity
  8
0
  6
Continuous
 62
     7
370
    25
100
AcDbCircle
 10
175.4211477862
 20
84.0559611193
 30
0.0
 40
46.95860605216364
100
AcDbArc
 50
117.9577471475
 51
119.0639393491
  0
ARC
  5
30F
330
1F
100
AcDbEntity
  8
0
  6
Continuous
 62
     7
370
    25
100
AcDbCircle
 10
178.1265190693
 20
79.4324962958
 30
0.0
 40
52.31618525953438
100
AcDbArc
 50
121.422880265
 51
122.7826166553
  0
LINE
  5
310
330
1F
100
AcDbEntity
  8
0
  6
Continuous
 62
     7
370
    25
100
AcDbLine
 10
157.3385487457
 20
124.4533371928
 30
0.0
 11
157.3385487457
 21
125.6811986434
 31
0.0
  0
LWPOLYLINE
  5
311
330
1F
100
AcDbEntity
  8
0
  6
Continuous
 62
     7
370
    25
100
AcDbPolyline
 90
        3
 70
   128
 43
0.0
 10
157.3385487457
 20
124.4533371928
 10
157.2921794789
 20
124.2436618885
 10
157.2243764278
 20
124.0816031115
  0
ARC
  5
312
330
1F
100
AcDbEntity
  8
0
  6
Continuous
 62
     7
370
    25
100
AcDbCircle
 10
176.5748167167
 20
85.8586360834
 30
0.0
 40
43.12290527295147
100
AcDbArc
 50
114.846367588
 51
116.4924611215
  0
ARC
  5
313
330
1F
100
AcDbEntity
  8
0
  6
Continuous
 62
     7
370
    25
100
AcDbCircle
 10
131.8929382201
 20
102.1275438963
 30
0.0
 40
3.942795440107808
100
AcDbArc
 50
177.0065935629
 51
207.8925829866
  0
LINE
  5
314
330
1F
100
AcDbEntity
  8
0
  6
Continuous
 62
     7
370
    25
100
AcDbLine
 10
147.051274397
 20
126.2796533356
 30
0.0
 11
147.051274397
 21
127.3194166803
 31
0.0
  0
ARC
  5
315
330
1F
100
AcDbEntity
  8
0
  6
Continuous
 62
     7
370
    25
100
AcDbCircle
 10
173.3521938976
 20
93.6879543343
 30
0.0
 40
34.71649384906609
100
AcDbArc
 50
107.847621006
 51
108.2861222591
  0
LINE
  5
316
330
1F
100
AcDbEntity
  8
0
  6
Continuous
 62
     7
370
    25
100
AcDbLine
 10
143.1606511617
 20
127.6824258114
 30
0.0
 11
143.1606511617
 21
128.5747988956
 31
0.0
  0
LINE
  5
317
330
1F
100
AcDbEntity
  8
0
  6
Continuous
 62
     7
370
    25
100
AcDbLine
 10
145.2949189505
 20
132.3885411419
 30
0.0
 11
145.2949189505
 21
133.3474041058
 31
0.0
  0
LINE
  5
318
330
1F
100
AcDbEntity
  8
0
  6
Continuous
 62
     7
370
    25
100
AcDbLine
 10
148.1698098715
 20
132.9288622598
 30
0.0
 11
148.1698098715
 21
133.8449516043
 31
0.0
  0
LINE
  5
319
330
1F
100
AcDbEntity
  8
0
  6
Continuous
 62
     7
370
    25
100
AcDbLine
 10
151.1364877291
 20
133.3327369264
 30
0.0
 11
151.1364877291
 21
134.1447471704
 31
0.0
  0
LINE
  5
31A
330
1F
100
AcDbEntity
  8
0
  6
Continuous
 62
     7
370
    25
100
AcDbLine
 10
192.7337953438
 20
86.8081157567
 30
0.0
 11
192.5430299734
 21
86.8177505774
 31
0.0
  0
ARC
  5
31B
330
1F
100
AcDbEntity
  8
0
  6
Continuous
 62
     7
370
    25
100
AcDbCircle
 10
128.6375988329
 20
88.722973698
 30
0.0
 40
3.842012018930145
100
AcDbArc
 50
2.6054784857
 51
57.39452166
  0
LWPOLYLINE
  5
31C
330
1F
100
AcDbEntity
  8
0
  6
Continuous
 62
     7
370
    25
100
AcDbPolyline
 90
       36
 70
   128
 43
0.0
 10
117.0064090198
 20
81.458388208
 10
117.4455173398
 20
80.1309654062
 10
118.0313826996
 20
78.813713235
 10
118.7593670767
 20
77.5202969221
 10
119.6265974494
 20
76.2558209908
 10
120.6296512554
 20
75.0252757498
 10
121.7645698999
 20
73.8335175991
 10
123.0268743772
 20
72.6852498636
 10
124.4115829484
 20
71.5850042315
 10
125.9132308014
 20
70.5371228697
 10
127.525891618
 20
69.545741287
 10
129.2432009629
 20
68.6147720138
 10
131.0583814005
 20
67.7478891604
 10
132.964269243
 20
66.9485139174
 10
134.9533428219
 20
66.2198010538
 10
137.0177521723
 20
65.5646264661
 10
139.1493500137
 20
64.9855758293
 10
141.3397239033
 20
64.4849343916
 10
143.580229436
 20
64.0646779561
 10
145.8620243601
 20
63.726465083
 10
148.1761034735
 20
63.4716305439
 10
150.5133341631
 20
63.3011800543
 10
152.8644924471
 20
63.2157863044
 10
155.2202993779
 20
63.2157863044
 10
157.5714576619
 20
63.3011800543
 10
159.9086883515
 20
63.4716305439
 10
162.2227674649
 20
63.726465083
 10
164.504562389
 20
64.0646779561
 10
166.7450679217
 20
64.4849343916
 10
168.9354418113
 20
64.9855758293
 10
171.0670396527
 20
65.5646264661
 10
173.1314490031
 20
66.2198010538
 10
175.120522582
 20
66.9485139174
 10
177.0264104245
 20
67.7478891604
 10
178.8415908621
 20
68.6147720138
 10
180.558900207
 20
69.545741287
  0
LWPOLYLINE
  5
31D
330
1F
100
AcDbEntity
  8
0
  6
Continuous
 62
     7
370
    25
100
AcDbPolyline
 90
       11
 70
   128
 43
0.0
 10
180.558900207
 20
69.545741287
 10
182.1715610236
 20
70.5371228697
 10
183.6732088766
 20
71.5850042315
 10
185.0579174478
 20
72.6852498636
 10
186.3202219251
 20
73.8335175991
 10
187.4551405696
 20
75.0252757498
 10
188.4581943757
 20
76.2558209908
 10
189.3254247483
 20
77.5202969221
 10
190.0534091254
 20
78.813713235
 10
190.6392744852
 20
80.1309654062
 10
191.0783828052
 20
81.458388208
  0
LWPOLYLINE
  5
31E
330
1F
100
AcDbEntity
  8
0
  6
Continuous
 62
     7
370
    25
100
AcDbPolyline
 90
        3
 70
   128
 43
0.0
 10
158.5977652004
 20
66.4861965357
 10
157.7632934134
 20
66.4330660464
 10
156.1732987171
 20
66.3616926358
  0
LINE
  5
31F
330
1F
100
AcDbEntity
  8
0
  6
Continuous
 62
     1
370
    25
100
AcDbLine
 10
188.1511352144
 20
75.44080168
 30
0.0
 11
188.1511352144
 21
75.8572593844
 31
0.0
  0
LINE
  5
320
330
1F
100
AcDbEntity
  8
0
  6
Continuous
 62
     1
370
    25
100
AcDbLine
 10
157.7588410283
 20
62.6314811731
 30
0.0
 11
157.7588410283
 21
63.3116795481
 31
0.0
  0
LWPOLYLINE
  5
321
330
1F
100
AcDbEntity
  8
0
  6
Continuous
 62
     1
370
    25
100
AcDbPolyline
 90
       26
 70
   128
 43
0.0
 10
181.4427836835
 20
84.4681075618
 10
183.1091998607
 20
85.4925351972
 10
184.6609026421
 20
86.5753459378
 10
186.0917681656
 20
87.7122664243
 10
187.3961494589
 20
88.8988097509
 10
188.5688987248
 20
90.1302931733
 10
189.6053876578
 20
91.401856589
 10
190.5015257095
 20
92.7084817181
 10
191.2537762325
 20
94.0450119081
 10
191.8591704376
 20
95.4061724849
 10
192.3153191106
 20
96.7865915698
 10
192.6204220409
 20
98.1808212791
 10
192.7732751267
 20
99.5833592252
 10
192.7732751267
 20
100.9886702315
 10
192.6204220409
 20
102.3912081776
 10
192.3153191106
 20
103.7854378869
 10
191.8591704376
 20
105.1658569717
 10
191.2537762325
 20
106.5270175486
 10
190.5015257095
 20
107.8635477386
 10
189.6053876578
 20
109.1701728677
 10
188.5688987248
 20
110.4417362833
 10
187.3961494589
 20
111.6732197057
 10
186.0917681656
 20
112.8597630324
 10
184.6609026421
 20
113.9966835189
 10
183.1091998607
 20
115.0794942595
 10
182.5970160491
 20
115.408266273
  0
LWPOLYLINE
  5
322
330
1F
100
AcDbEntity
  8
0
  6
Continuous
 62
     1
370
    25
100
AcDbPolyline
 90
       26
 70
   128
 43
0.0
 10
125.4877757759
 20
115.408266273
 10
124.9755919643
 20
115.0794942595
 10
123.4238891829
 20
113.9966835189
 10
121.9930236594
 20
112.8597630324
 10
120.6886423661
 20
111.6732197057
 10
119.5158931002
 20
110.4417362833
 10
118.4794041672
 20
109.1701728677
 10
117.5832661155
 20
107.8635477386
 10
116.8310155925
 20
106.5270175486
 10
116.2256213874
 20
105.1658569717
 10
115.7694727144
 20
103.7854378869
 10
115.4643697841
 20
102.3912081776
 10
115.3115166983
 20
100.9886702315
 10
115.3115166983
 20
99.5833592252
 10
115.4643697841
 20
98.1808212791
 10
115.7694727144
 20
96.7865915698
 10
116.2256213874
 20
95.4061724849
 10
116.8310155925
 20
94.0450119081
 10
117.5832661155
 20
92.7084817181
 10
118.4794041672
 20
91.401856589
 10
119.5158931002
 20
90.1302931733
 10
120.6886423661
 20
88.8988097509
 10
121.9930236594
 20
87.7122664243
 10
123.4238891829
 20
86.5753459378
 10
124.9755919643
 20
85.4925351972
 10
126.6420081415
 20
84.4681075618
  0
LINE
  5
323
330
1F
100
AcDbEntity
  8
0
  6
Continuous
 62
     1
370
    25
100
AcDbLine
 10
181.5160298386
 20
81.8698434945
 30
0.0
 11
181.4427836835
 21
72.2199953835
 31
0.0
  0
LINE
  5
324
330
1F
100
AcDbEntity
  8
0
  6
Continuous
 62
     1
370
    25
100
AcDbLine
 10
148.3054753731
 20
98.9944321477
 30
0.0
 11
148.0929872881
 21
98.4173304132
 31
0.0
  0
LINE
  5
325
330
1F
100
AcDbEntity
  8
0
  6
Continuous
 62
     1
370
    25
100
AcDbLine
 10
142.9641266238
 20
127.5361164224
 30
0.0
 11
142.9641266238
 21
128.4577043036
 31
0.0
  0
LINE
  5
326
330
1F
100
AcDbEntity
  8
0
  6
Continuous
 62
     1
370
    25
100
AcDbLine
 10
164.1557632171
 20
118.4858346896
 30
0.0
 11
164.1557632171
 21
118.7613809803
 31
0.0
  0
LINE
  5
327
330
1F
100
AcDbEntity
  8
0
  6
Continuous
 62
     1
370
    25
100
AcDbLine
 10
146.8532139204
 20
126.1161865062
 30
0.0
 11
146.8532139204
 21
127.2033009908
 31
0.0
  0
LINE
  5
328
330
1F
100
AcDbEntity
  8
0
  6
Continuous
 62
     1
370
    25
100
AcDbLine
 10
160.2666759206
 20
121.6241285298
 30
0.0
 11
160.2666759206
 21
121.8753884187
 31
0.0
  0
LINE
  5
329
330
1F
100
AcDbEntity
  8
0
  6
Continuous
 62
     1
370
    25
100
AcDbLine
 10
133.2371614552
 20
89.4878847979
 30
0.0
 11
133.2371614552
 21
90.2792903755
 31
0.0
  0
LINE
  5
32A
330
1F
100
AcDbEntity
  8
0
  6
Continuous
 62
     1
370
    25
100
AcDbLine
 10
176.5548578195
 20
95.4652243789
 30
0.0
 11
175.5554337218
 21
95.98471722
 31
0.0
  0
LINE
  5
32B
330
1F
100
AcDbEntity
  8
0
  6
Continuous
 62
     1
370
    25
100
AcDbLine
 10
127.5690728909
 20
109.6098208711
 30
0.0
 11
126.8278423775
 21
109.4707866716
 31
0.0
  0
LINE
  5
32C
330
1F
100
AcDbEntity
  8
0
  6
Continuous
 62
     1
370
    25
100
AcDbLine
 10
157.3424906732
 20
127.3223982865
 30
0.0
 11
157.3424906853
 21
127.5168383201
 31
0.0
  0
LINE
  5
32D
330
1F
100
AcDbEntity
  8
0
  6
Continuous
 62
     1
370
    25
100
AcDbLine
 10
161.2315779046
 20
128.7819825773
 30
0.0
 11
161.2315779046
 21
129.0149029323
 31
0.0
  0
LINE
  5
32E
330
1F
100
AcDbEntity
  8
0
  6
Continuous
 62
     1
370
    25
100
AcDbLine
 10
164.9535411508
 20
129.8389688548
 30
0.0
 11
164.9535411508
 21
129.9846451046
 31
0.0
  0
LINE
  5
32F
330
1F
100
AcDbEntity
  8
0
  6
Continuous
 62
     1
370
    25
100
AcDbLine
 10
125.708650477
 20
103.4103485885
 30
0.0
 11
125.4201006725
 21
103.3749417122
 31
0.0
  0
LINE
  5
330
330
1F
100
AcDbEntity
  8
0
  6
Continuous
 62
     1
370
    25
100
AcDbLine
 10
181.1178361737
 20
110.5489384858
 30
0.0
 11
182.3395818623
 21
110.698854368
 31
0.0
  0
LINE
  5
331
330
1F
100
AcDbEntity
  8
0
  6
Continuous
 62
     1
370
    25
100
AcDbLine
 10
134.5287096422
 20
110.4762721994
 30
0.0
 11
134.5587918011
 21
110.146967554
 31
0.0
  0
LWPOLYLINE
  5
332
330
1F
100
AcDbEntity
  8
0
  6
Continuous
 62
     1
370
    25
100
AcDbPolyline
 90
       10
 70
   128
 43
0.0
 10
128.2078721333
 20
89.9181359684
 10
128.2930575676
 20
89.5446033324
 10
128.5428086239
 20
89.1965263283
 10
128.9401051804
 20
88.8976258286
 10
129.4578721333
 20
88.6682714085
 10
130.0608245206
 20
88.5240931927
 10
130.7078721333
 20
88.4749166882
 10
131.3549197461
 20
88.5240931927
 10
131.9578721333
 20
88.6682714085
 10
132.4756390863
 20
88.8976258286
  0
ARC
  5
333
330
1F
100
AcDbEntity
  8
0
  6
Continuous
 62
     1
370
    25
100
AcDbCircle
 10
129.9755719962
 20
90.9372846753
 30
0.0
 40
1.257443089754482
100
AcDbArc
 50
54.3824225248
 51
114.3071190461
  0
LINE
  5
334
330
1F
100
AcDbEntity
  8
0
  6
Continuous
 62
     1
370
    25
100
AcDbLine
 10
132.4756390863
 20
88.2389006583
 30
0.0
 11
132.4756390863
 21
88.8976258286
 31
0.0
  0
ARC
  5
335
330
1F
100
AcDbEntity
  8
0
  6
Continuous
 62
     1
370
    25
100
AcDbCircle
 10
131.9590459781
 20
90.0412397826
 30
0.0
 40
1.254879004165183
100
AcDbArc
 50
294.3096379775
 51
354.3702210649
  0
LINE
  5
336
330
1F
100
AcDbEntity
  8
0
  6
Continuous
 62
     1
370
    25
100
AcDbLine
 10
180.558900207
 20
69.545741287
 30
0.0
 11
180.558900207
 21
71.725693578
 31
0.0
  0
LINE
  5
337
330
1F
100
AcDbEntity
  8
0
  6
Continuous
 62
     7
370
    25
100
AcDbLine
 10
73.5691320925
 20
161.180239808
 30
0.0
 11
73.5691320925
 21
158.180239808
 31
0.0
  0
ARC
  5
338
330
1F
100
AcDbEntity
  8
0
  6
Continuous
 62
     7
370
    25
100
AcDbCircle
 10
69.19383626
 20
159.5549987491
 30
0.0
 40
4.667399931574853
100
AcDbArc
 50
20.3779447596
 51
57.9717587852
  0
LINE
  5
339
330
1F
100
AcDbEntity
  8
0
  6
Continuous
 62
     7
370
    25
100
AcDbLine
 10
71.6691320925
 20
161.7417038484
 30
0.0
 11
71.6691320925
 21
163.5119587771
 31
0.0
  0
LWPOLYLINE
  5
33A
330
1F
100
AcDbEntity
  8
0
  6
Continuous
 62
     7
370
    25
100
AcDbPolyline
 90
        3
 70
   128
 43
0.0
 10
72.0691320925
 20
161.180239808
 10
71.8594087821
 20
161.5052523725
 10
71.6691320925
 20
161.7417038484
  0
LINE
  5
33B
330
1F
100
AcDbEntity
  8
0
  6
Continuous
 62
     7
370
    25
100
AcDbLine
 10
72.0691320925
 20
158.780239808
 30
0.0
 11
72.0691320925
 21
161.180239808
 31
0.0
  0
LINE
  5
33C
330
1F
100
AcDbEntity
  8
0
  6
Continuous
 62
     7
370
    25
100
AcDbLine
 10
69.0691320925
 20
158.780239808
 30
0.0
 11
72.0691320925
 21
158.780239808
 31
0.0
  0
LINE
  5
33D
330
1F
100
AcDbEntity
  8
0
  6
Continuous
 62
     7
370
    25
100
AcDbLine
 10
69.0691320925
 20
161.180239808
 30
0.0
 11
69.0691320925
 21
158.780239808
 31
0.0
  0
LINE
  5
33E
330
1F
100
AcDbEntity
  8
0
  6
Continuous
 62
     7
370
    25
100
AcDbLine
 10
67.5691320925
 20
161.180239808
 30
0.0
 11
69.0691320925
 21
161.180239808
 31
0.0
  0
LINE
  5
33F
330
1F
100
AcDbEntity
  8
0
  6
Continuous
 62
     7
370
    25
100
AcDbLine
 10
67.5691320925
 20
158.180239808
 30
0.0
 11
67.5691320925
 21
161.180239808
 31
0.0
  0
LINE
  5
340
330
1F
100
AcDbEntity
  8
0
  6
Continuous
 62
     7
370
    25
100
AcDbLine
 10
67.5691320925
 20
158.180239808
 30
0.0
 11
42.1052755608
 21
158.180239808
 31
0.0
  0
ARC
  5
341
330
1F
100
AcDbEntity
  8
0
  6
Continuous
 62
     7
370
    25
100
AcDbCircle
 10
70.5691320925
 20
158.180239808
 30
0.0
 40
28.4638565317
100
AcDbArc
 50
0.0
 51
180.0
  0
LINE
  5
342
330
1F
100
AcDbEntity
  8
0
  6
Continuous
 62
     7
370
    25
100
AcDbLine
 10
73.5691320925
 20
158.180239808
 30
0.0
 11
99.0329886242
 21
158.180239808
 31
0.0
  0
ARC
  5
343
330
1F
100
AcDbEntity
  8
0
  6
Continuous
 62
     7
370
    25
100
AcDbCircle
 10
70.5691320925
 20
158.180239808
 30
0.0
 40
25.50000000000196
100
AcDbArc
 50
141.5434806647
 51
144.9379070357
  0
LINE
  5
344
330
1F
100
AcDbEntity
  8
0
  6
Continuous
 62
     7
370
    25
100
AcDbLine
 10
53.507598613
 20
170.6287969665
 30
0.0
 11
49.6966180284
 21
172.8290676329
 31
0.0
  0
LINE
  5
345
330
1F
100
AcDbEntity
  8
0
  6
Continuous
 62
     7
370
    25
100
AcDbLine
 10
54.257598613
 20
171.9278350722
 30
0.0
 11
53.507598613
 21
170.6287969665
 31
0.0
  0
LINE
  5
346
330
1F
100
AcDbEntity
  8
0
  6
Continuous
 62
     7
370
    25
100
AcDbLine
 10
50.6005832737
 20
174.0392138628
 30
0.0
 11
54.257598613
 21
171.9278350722
 31
0.0
  0
ARC
  5
347
330
1F
100
AcDbEntity
  8
0
  6
Continuous
 62
     7
370
    25
100
AcDbCircle
 10
70.5691320925
 20
158.180239808
 30
0.0
 40
25.50000000000384
100
AcDbArc
 50
155.0620929643
 51
158.4565193353
  0
LINE
  5
348
330
1F
100
AcDbEntity
  8
0
  6
Continuous
 62
     7
370
    25
100
AcDbLine
 10
50.507598613
 20
165.4326445438
 30
0.0
 11
46.8505832737
 21
167.5440233344
 31
0.0
  0
LINE
  5
349
330
1F
100
AcDbEntity
  8
0
  6
Continuous
 62
     7
370
    25
100
AcDbLine
 10
51.257598613
 20
166.7316826495
 30
0.0
 11
50.507598613
 21
165.4326445438
 31
0.0
  0
LINE
  5
34A
330
1F
100
AcDbEntity
  8
0
  6
Continuous
 62
     7
370
    25
100
AcDbLine
 10
47.4466180284
 20
168.9319533159
 30
0.0
 11
51.257598613
 21
166.7316826495
 31
0.0
  0
LINE
  5
34B
330
1F
100
AcDbEntity
  8
0
  6
Continuous
 62
     7
370
    25
100
AcDbLine
 10
94.2876809113
 20
167.5440233344
 30
0.0
 11
90.630665572
 21
165.4326445438
 31
0.0
  0
ARC
  5
34C
330
1F
100
AcDbEntity
  8
0
  6
Continuous
 62
     7
370
    25
100
AcDbCircle
 10
70.5691320925
 20
158.180239808
 30
0.0
 40
25.50000000000385
100
AcDbArc
 50
21.5434806647
 51
24.9379070357
  0
LINE
  5
34D
330
1F
100
AcDbEntity
  8
0
  6
Continuous
 62
     7
370
    25
100
AcDbLine
 10
89.880665572
 20
166.7316826495
 30
0.0
 11
93.6916461566
 21
168.9319533159
 31
0.0
  0
LINE
  5
34E
330
1F
100
AcDbEntity
  8
0
  6
Continuous
 62
     7
370
    25
100
AcDbLine
 10
90.630665572
 20
165.4326445438
 30
0.0
 11
89.880665572
 21
166.7316826495
 31
0.0
  0
LINE
  5
34F
330
1F
100
AcDbEntity
  8
0
  6
Continuous
 62
     7
370
    25
100
AcDbLine
 10
91.4416461566
 20
172.8290676329
 30
0.0
 11
87.630665572
 21
170.6287969665
 31
0.0
  0
ARC
  5
350
330
1F
100
AcDbEntity
  8
0
  6
Continuous
 62
     7
370
    25
100
AcDbCircle
 10
70.5691320925
 20
158.180239808
 30
0.0
 40
25.50000000000196
100
AcDbArc
 50
35.0620929643
 51
38.4565193353
  0
LINE
  5
351
330
1F
100
AcDbEntity
  8
0
  6
Continuous
 62
     7
370
    25
100
AcDbLine
 10
86.880665572
 20
171.9278350722
 30
0.0
 11
90.5376809113
 21
174.0392138628
 31
0.0
  0
LINE
  5
352
330
1F
100
AcDbEntity
  8
0
  6
Continuous
 62
     7
370
    25
100
AcDbLine
 10
87.630665572
 20
170.6287969665
 30
0.0
 11
86.880665572
 21
171.9278350722
 31
0.0
  0
LINE
  5
353
330
1F
100
AcDbEntity
  8
0
  6
Continuous
 62
     7
370
    25
100
AcDbLine
 10
89.130665572
 20
168.0307207552
 30
0.0
 11
88.380665572
 21
169.3297588608
 31
0.0
  0
LINE
  5
354
330
1F
100
AcDbEntity
  8
0
  6
Continuous
 62
     7
370
    25
100
AcDbLine
 10
93.0182260717
 20
170.2752048561
 30
0.0
 11
89.130665572
 21
168.0307207552
 31
0.0
  0
ARC
  5
355
330
1F
100
AcDbEntity
  8
0
  6
Continuous
 62
     7
370
    25
100
AcDbCircle
 10
70.5691320925
 20
158.180239808
 30
0.0
 40
25.49999999999977
100
AcDbArc
 50
28.3145869598
 51
31.6854130402
  0
LINE
  5
356
330
1F
100
AcDbEntity
  8
0
  6
Continuous
 62
     7
370
    25
100
AcDbLine
 10
88.380665572
 20
169.3297588608
 30
0.0
 11
92.2682260717
 21
171.5742429618
 31
0.0
  0
LWPOLYLINE
  5
357
330
1F
100
AcDbEntity
  8
0
  6
Continuous
 62
     7
370
    25
100
AcDbPolyline
 90
        3
 70
   128
 43
0.0
 10
77.9903426098
 20
159.280239808
 10
77.9953829883
 20
159.4342059031
 10
77.9965932959
 20
159.555239808
  0
LINE
  5
358
330
1F
100
AcDbEntity
  8
0
  6
Continuous
 62
     7
370
    25
100
AcDbLine
 10
79.356070956
 20
159.280239808
 30
0.0
 11
77.9903426098
 21
159.280239808
 31
0.0
  0
LWPOLYLINE
  5
359
330
1F
100
AcDbEntity
  8
0
  6
Continuous
 62
     7
370
    25
100
AcDbPolyline
 90
        3
 70
   128
 43
0.0
 10
79.3611707682
 20
159.555239808
 10
79.3595713409
 20
159.4012155792
 10
79.356070956
 20
159.280239808
  0
ARC
  5
35A
330
1F
100
AcDbEntity
  8
0
  6
Continuous
 62
     7
370
    25
100
AcDbCircle
 10
69.1947636738
 20
159.5557376262
 30
0.0
 40
10.16640710653086
100
AcDbArc
 50
359.9971943992
 51
76.4938109457
  0
LINE
  5
35B
330
1F
100
AcDbEntity
  8
0
  6
Continuous
 62
     7
370
    25
100
AcDbLine
 10
71.5691320925
 20
168.0312470188
 30
0.0
 11
71.5691320925
 21
169.440989675
 31
0.0
  0
ARC
  5
35C
330
1F
100
AcDbEntity
  8
0
  6
Continuous
 62
     7
370
    25
100
AcDbCircle
 10
69.1936271632
 20
159.5548569138
 30
0.0
 40
8.80296614107669
100
AcDbArc
 50
0.0024921396
 51
74.3444931087
  0
LWPOLYLINE
  5
35D
330
1F
100
AcDbEntity
  8
0
  6
Continuous
 62
     7
370
    25
100
AcDbPolyline
 90
        3
 70
   128
 43
0.0
 10
69.5691320925
 20
168.3497095611
 10
69.359171861
 20
168.3561536865
 10
69.1941320925
 20
168.3577010114
  0
LINE
  5
35E
330
1F
100
AcDbEntity
  8
0
  6
Continuous
 62
     7
370
    25
100
AcDbLine
 10
69.5691320925
 20
169.7153603994
 30
0.0
 11
69.5691320925
 21
168.3497095611
 31
0.0
  0
LWPOLYLINE
  5
35F
330
1F
100
AcDbEntity
  8
0
  6
Continuous
 62
     7
370
    25
100
AcDbPolyline
 90
        3
 70
   128
 43
0.0
 10
69.1941320925
 20
169.7222784837
 10
69.4041641972
 20
169.7201088153
 10
69.5691320925
 20
169.7153603994
  0
ARC
  5
360
330
1F
100
AcDbEntity
  8
0
  6
Continuous
 62
     7
370
    25
100
AcDbCircle
 10
69.1944658351
 20
156.8048346102
 30
0.0
 40
12.91744387775749
100
AcDbArc
 50
90.0014803271
 51
168.9519154562
  0
LINE
  5
361
330
1F
100
AcDbEntity
  8
0
  6
Continuous
 62
     7
370
    25
100
AcDbLine
 10
57.909907048
 20
159.280239808
 30
0.0
 11
56.5164247624
 21
159.280239808
 31
0.0
  0
ARC
  5
362
330
1F
100
AcDbEntity
  8
0
  6
Continuous
 62
     7
370
    25
100
AcDbCircle
 10
69.1936895781
 20
156.8057898993
 30
0.0
 40
11.5519111206369
100
AcDbArc
 50
89.9978051937
 51
167.6312475869
  0
LWPOLYLINE
  5
363
330
1F
100
AcDbEntity
  8
0
  6
Continuous
 62
     7
370
    25
100
AcDbPolyline
 90
        3
 70
   128
 43
0.0
 10
69.4691320925
 20
162.8462312999
 10
69.3151956269
 20
162.8554812523
 10
69.1941320925
 20
162.8577010114
  0
LINE
  5
364
330
1F
100
AcDbEntity
  8
0
  6
Continuous
 62
     7
370
    25
100
AcDbLine
 10
69.4691320925
 20
164.2141694061
 30
0.0
 11
69.4691320925
 21
162.8462312999
 31
0.0
  0
LWPOLYLINE
  5
365
330
1F
100
AcDbEntity
  8
0
  6
Continuous
 62
     7
370
    25
100
AcDbPolyline
 90
        3
 70
   128
 43
0.0
 10
69.1941322019
 20
164.2222784835
 10
69.3481943649
 20
164.2197349361
 10
69.4691320925
 20
164.2141694061
  0
ARC
  5
366
330
1F
100
AcDbEntity
  8
0
  6
Continuous
 62
     7
370
    25
100
AcDbCircle
 10
69.1951094648
 20
156.803857038
 30
0.0
 40
7.418421509866213
100
AcDbArc
 50
90.0075478376
 51
160.4994855731
  0
LINE
  5
367
330
1F
100
AcDbEntity
  8
0
  6
Continuous
 62
     7
370
    25
100
AcDbLine
 10
63.6708485022
 20
159.280239808
 30
0.0
 11
62.202219785
 21
159.280239808
 31
0.0
  0
ARC
  5
368
330
1F
100
AcDbEntity
  8
0
  6
Continuous
 62
     7
370
    25
100
AcDbCircle
 10
69.1935385746
 20
156.8061561472
 30
0.0
 40
6.051544893299031
100
AcDbArc
 50
89.9943805963
 51
155.8683245329
  0
LWPOLYLINE
  5
369
330
1F
100
AcDbEntity
  8
0
  6
Continuous
 62
     7
370
    25
100
AcDbPolyline
 90
        3
 70
   128
 43
0.0
 10
83.4933197201
 20
159.280239808
 10
83.4959595102
 20
159.4342308604
 10
83.4965932959
 20
159.555239808
  0
LINE
  5
36A
330
1F
100
AcDbEntity
  8
0
  6
Continuous
 62
     7
370
    25
100
AcDbLine
 10
84.6218394226
 20
159.280239808
 30
0.0
 11
83.4933197201
 21
159.280239808
 31
0.0
  0
LWPOLYLINE
  5
36B
330
1F
100
AcDbEntity
  8
0
  6
Continuous
 62
     7
370
    25
100
AcDbPolyline
 90
        3
 70
   128
 43
0.0
 10
84.6248216695
 20
159.555239808
 10
84.6238864152
 20
159.4012318099
 10
84.6218394226
 20
159.280239808
  0
ARC
  5
36C
330
1F
100
AcDbEntity
  8
0
  6
Continuous
 62
     7
370
    25
100
AcDbCircle
 10
69.1942827929
 20
159.5553679966
 30
0.0
 40
15.43053887710834
100
AcDbArc
 50
359.9995240178
 51
80.7706723325
  0
LINE
  5
36D
330
1F
100
AcDbEntity
  8
0
  6
Continuous
 62
     7
370
    25
100
AcDbLine
 10
71.6691320925
 20
173.6419275477
 30
0.0
 11
71.6691320925
 21
174.7861477199
 31
0.0
  0
ARC
  5
36E
330
1F
100
AcDbEntity
  8
0
  6
Continuous
 62
     7
370
    25
100
AcDbCircle
 10
69.1942243039
 20
159.5553172305
 30
0.0
 40
14.3023689921931
100
AcDbArc
 50
359.9996898427
 51
80.0352764701
  0
LWPOLYLINE
  5
36F
330
1F
100
AcDbEntity
  8
0
  6
Continuous
 62
     7
370
    25
100
AcDbPolyline
 90
        3
 70
   128
 43
0.0
 10
69.4691320925
 20
173.8550569913
 10
69.315137822
 20
173.8571891188
 10
69.194132344
 20
173.8577010114
  0
LINE
  5
370
330
1F
100
AcDbEntity
  8
0
  6
Continuous
 62
     7
370
    25
100
AcDbLine
 10
69.4691320925
 20
174.9834787166
 30
0.0
 11
69.4691320925
 21
173.8550569913
 31
0.0
  0
LWPOLYLINE
  5
371
330
1F
100
AcDbEntity
  8
0
  6
Continuous
 62
     7
370
    25
100
AcDbPolyline
 90
        3
 70
   128
 43
0.0
 10
69.1941320925
 20
174.985929385
 10
69.34813738
 20
174.9851608445
 10
69.4691320925
 20
174.9834787166
  0
ARC
  5
372
330
1F
100
AcDbEntity
  8
0
  6
Continuous
 62
     7
370
    25
100
AcDbCircle
 10
69.1938242936
 20
156.8055927948
 30
0.0
 40
18.18033659283996
100
AcDbArc
 50
89.9990299641
 51
172.1768031122
  0
LINE
  5
373
330
1F
100
AcDbEntity
  8
0
  6
Continuous
 62
     7
370
    25
100
AcDbLine
 10
52.3222380645
 20
159.280239808
 30
0.0
 11
51.1826954898
 21
159.280239808
 31
0.0
  0
ARC
  5
374
330
1F
100
AcDbEntity
  8
0
  6
Continuous
 62
     7
370
    25
100
AcDbCircle
 10
69.1929596818
 20
156.8065967514
 30
0.0
 40
17.0511043003517
100
AcDbArc
 50
89.9960595753
 51
171.6585335875
  0
LINE
  5
375
330
1F
100
AcDbEntity
  8
0
  6
Continuous
 62
     7
370
    25
100
AcDbLine
 10
52.757598613
 20
169.3297588608
 30
0.0
 11
52.007598613
 21
168.0307207552
 31
0.0
  0
LINE
  5
376
330
1F
100
AcDbEntity
  8
0
  6
Continuous
 62
     7
370
    25
100
AcDbLine
 10
48.8700381134
 20
171.5742429618
 30
0.0
 11
52.757598613
 21
169.3297588608
 31
0.0
  0
ARC
  5
377
330
1F
100
AcDbEntity
  8
0
  6
Continuous
 62
     7
370
    25
100
AcDbCircle
 10
70.5691320925
 20
158.180239808
 30
0.0
 40
25.49999999999977
100
AcDbArc
 50
148.3145869598
 51
151.6854130402
  0
LINE
  5
378
330
1F
100
AcDbEntity
  8
0
  6
Continuous
 62
     7
370
    25
100
AcDbLine
 10
52.007598613
 20
168.0307207552
 30
0.0
 11
48.1200381134
 21
170.2752048561
 31
0.0
  0
LINE
  5
379
330
1F
100
AcDbEntity
  8
0
  6
Continuous
 62
     7
370
    25
100
AcDbLine
 10
67.5691320925
 20
155.180239808
 30
0.0
 11
67.5691320925
 21
158.180239808
 31
0.0
  0
ARC
  5
37A
330
1F
100
AcDbEntity
  8
0
  6
Continuous
 62
     7
370
    25
100
AcDbCircle
 10
71.9441320925
 20
156.805239808
 30
0.0
 40
4.667038675647173
100
AcDbArc
 50
200.3764352138
 51
239.4102113482
  0
LINE
  5
37B
330
1F
100
AcDbEntity
  8
0
  6
Continuous
 62
     7
370
    25
100
AcDbLine
 10
69.5691320925
 20
154.5105448392
 30
0.0
 11
69.5691320925
 21
152.787700138
 31
0.0
  0
LWPOLYLINE
  5
37C
330
1F
100
AcDbEntity
  8
0
  6
Continuous
 62
     7
370
    25
100
AcDbPolyline
 90
        3
 70
   128
 43
0.0
 10
69.0691320925
 20
155.180239808
 10
69.3284298129
 20
154.7892167312
 10
69.5691320925
 20
154.5105448392
  0
LINE
  5
37D
330
1F
100
AcDbEntity
  8
0
  6
Continuous
 62
     7
370
    25
100
AcDbLine
 10
69.0691320925
 20
157.580239808
 30
0.0
 11
69.0691320925
 21
155.180239808
 31
0.0
  0
LINE
  5
37E
330
1F
100
AcDbEntity
  8
0
  6
Continuous
 62
     7
370
    25
100
AcDbLine
 10
72.0691320925
 20
157.580239808
 30
0.0
 11
69.0691320925
 21
157.580239808
 31
0.0
  0
LINE
  5
37F
330
1F
100
AcDbEntity
  8
0
  6
Continuous
 62
     7
370
    25
100
AcDbLine
 10
72.0691320925
 20
155.180239808
 30
0.0
 11
72.0691320925
 21
157.580239808
 31
0.0
  0
LINE
  5
380
330
1F
100
AcDbEntity
  8
0
  6
Continuous
 62
     7
370
    25
100
AcDbLine
 10
73.5691320925
 20
155.180239808
 30
0.0
 11
72.0691320925
 21
155.180239808
 31
0.0
  0
LINE
  5
381
330
1F
100
AcDbEntity
  8
0
  6
Continuous
 62
     7
370
    25
100
AcDbLine
 10
73.5691320925
 20
158.180239808
 30
0.0
 11
73.5691320925
 21
155.180239808
 31
0.0
  0
ARC
  5
382
330
1F
100
AcDbEntity
  8
0
  6
Continuous
 62
     7
370
    25
100
AcDbCircle
 10
70.5691320925
 20
158.180239808
 30
0.0
 40
28.4638565317
100
AcDbArc
 50
180.0
 51
0.0
  0
LINE
  5
383
330
1F
100
AcDbEntity
  8
0
  6
Continuous
 62
     7
370
    25
100
AcDbLine
 10
69.8191320925
 20
137.180239808
 30
0.0
 11
71.3191320925
 21
137.180239808
 31
0.0
  0
LINE
  5
384
330
1F
100
AcDbEntity
  8
0
  6
Continuous
 62
     7
370
    25
100
AcDbLine
 10
69.8191320925
 20
132.6912716061
 30
0.0
 11
69.8191320925
 21
137.180239808
 31
0.0
  0
ARC
  5
385
330
1F
100
AcDbEntity
  8
0
  6
Continuous
 62
     7
370
    25
100
AcDbCircle
 10
70.5691320925
 20
158.180239808
 30
0.0
 40
25.50000000000036
100
AcDbArc
 50
268.3145869598
 51
271.6854130402
  0
LINE
  5
386
330
1F
100
AcDbEntity
  8
0
  6
Continuous
 62
     7
370
    25
100
AcDbLine
 10
71.3191320925
 20
137.180239808
 30
0.0
 11
71.3191320925
 21
132.6912716061
 31
0.0
  0
ARC
  5
387
330
1F
100
AcDbEntity
  8
0
  6
Continuous
 62
     7
370
    25
100
AcDbCircle
 10
70.5691320925
 20
158.180239808
 30
0.0
 40
25.49999999999965
100
AcDbArc
 50
275.0620929643
 51
278.4565193353
  0
LINE
  5
388
330
1F
100
AcDbEntity
  8
0
  6
Continuous
 62
     7
370
    25
100
AcDbLine
 10
74.3191320925
 20
137.180239808
 30
0.0
 11
74.3191320925
 21
132.9574822268
 31
0.0
  0
LINE
  5
389
330
1F
100
AcDbEntity
  8
0
  6
Continuous
 62
     7
370
    25
100
AcDbLine
 10
72.8191320925
 20
137.180239808
 30
0.0
 11
74.3191320925
 21
137.180239808
 31
0.0
  0
LINE
  5
38A
330
1F
100
AcDbEntity
  8
0
  6
Continuous
 62
     7
370
    25
100
AcDbLine
 10
72.8191320925
 20
132.7796984752
 30
0.0
 11
72.8191320925
 21
137.180239808
 31
0.0
  0
LWPOLYLINE
  5
38B
330
1F
100
AcDbEntity
  8
0
  6
Continuous
 62
     7
370
    25
100
AcDbPolyline
 90
        3
 70
   128
 43
0.0
 10
71.5691320925
 20
153.5241386209
 10
71.7789237072
 20
153.5069135529
 10
71.9441320925
 20
153.5027786046
  0
LINE
  5
38C
330
1F
100
AcDbEntity
  8
0
  6
Continuous
 62
     7
370
    25
100
AcDbLine
 10
71.5691320925
 20
152.1532912915
 30
0.0
 11
71.5691320925
 21
153.5241386209
 31
0.0
  0
LWPOLYLINE
  5
38D
330
1F
100
AcDbEntity
  8
0
  6
Continuous
 62
     7
370
    25
100
AcDbPolyline
 90
        3
 70
   128
 43
0.0
 10
71.9441320925
 20
152.1382011324
 10
71.7339754653
 20
152.1429352127
 10
71.5691320925
 20
152.1532912915
  0
ARC
  5
38E
330
1F
100
AcDbEntity
  8
0
  6
Continuous
 62
     7
370
    25
100
AcDbCircle
 10
71.9431547189
 20
159.5566225795
 30
0.0
 40
7.418421511549457
100
AcDbArc
 50
270.0075486922
 51
340.4994855656
  0
LINE
  5
38F
330
1F
100
AcDbEntity
  8
0
  6
Continuous
 62
     7
370
    25
100
AcDbLine
 10
77.4674156828
 20
157.080239808
 30
0.0
 11
78.9360444
 21
157.080239808
 31
0.0
  0
ARC
  5
390
330
1F
100
AcDbEntity
  8
0
  6
Continuous
 62
     7
370
    25
100
AcDbCircle
 10
71.9447256105
 20
159.5543234688
 30
0.0
 40
6.051544893304064
100
AcDbArc
 50
269.9943805963
 51
335.8683245329
  0
LWPOLYLINE
  5
391
330
1F
100
AcDbEntity
  8
0
  6
Continuous
 62
     7
370
    25
100
AcDbPolyline
 90
        3
 70
   128
 43
0.0
 10
57.644944465
 20
157.080239808
 10
57.6423046748
 20
156.9262487556
 10
57.6416708891
 20
156.805239808
  0
LINE
  5
392
330
1F
100
AcDbEntity
  8
0
  6
Continuous
 62
     7
370
    25
100
AcDbLine
 10
56.2800210837
 20
157.080239808
 30
0.0
 11
57.644944465
 21
157.080239808
 31
0.0
  0
LWPOLYLINE
  5
393
330
1F
100
AcDbEntity
  8
0
  6
Continuous
 62
     7
370
    25
100
AcDbPolyline
 90
        3
 70
   128
 43
0.0
 10
56.2770934169
 20
156.805239808
 10
56.2780115536
 20
156.9592475026
 10
56.2800210837
 20
157.080239808
  0
ARC
  5
394
330
1F
100
AcDbEntity
  8
0
  6
Continuous
 62
     7
370
    25
100
AcDbCircle
 10
71.943974912
 20
156.8051048957
 30
0.0
 40
15.66688149574949
100
AcDbArc
 50
179.9995066085
 51
261.2812884147
  0
LINE
  5
395
330
1F
100
AcDbEntity
  8
0
  6
Continuous
 62
     7
370
    25
100
AcDbLine
 10
69.5691320925
 20
142.7013477397
 30
0.0
 11
69.5691320925
 21
141.3192630592
 31
0.0
  0
ARC
  5
396
330
1F
100
AcDbEntity
  8
0
  6
Continuous
 62
     7
370
    25
100
AcDbCircle
 10
71.9440440297
 20
156.8051653346
 30
0.0
 40
14.30237314080762
100
AcDbArc
 50
179.9997016569
 51
260.4417517845
  0
LWPOLYLINE
  5
397
330
1F
100
AcDbEntity
  8
0
  6
Continuous
 62
     7
370
    25
100
AcDbPolyline
 90
        3
 70
   128
 43
0.0
 10
71.5691320925
 20
142.5076955617
 10
71.7791174936
 20
142.5037305642
 10
71.9441320925
 20
142.5027786046
  0
LINE
  5
398
330
1F
100
AcDbEntity
  8
0
  6
Continuous
 62
     7
370
    25
100
AcDbLine
 10
71.5691320925
 20
141.1426897007
 30
0.0
 11
71.5691320925
 21
142.5076955617
 31
0.0
  0
LWPOLYLINE
  5
399
330
1F
100
AcDbEntity
  8
0
  6
Continuous
 62
     7
370
    25
100
AcDbPolyline
 90
        3
 70
   128
 43
0.0
 10
71.9441320925
 20
141.1382011324
 10
71.7341189732
 20
141.139608785
 10
71.5691320925
 20
141.1426897007
  0
ARC
  5
39A
330
1F
100
AcDbEntity
  8
0
  6
Continuous
 62
     7
370
    25
100
AcDbCircle
 10
71.9444436118
 20
159.5548831899
 30
0.0
 40
18.41668206020758
100
AcDbArc
 50
269.9990308386
 51
352.2778277934
  0
LINE
  5
39B
330
1F
100
AcDbEntity
  8
0
  6
Continuous
 62
     7
370
    25
100
AcDbLine
 10
88.8160261206
 20
157.080239808
 30
0.0
 11
90.1941098618
 21
157.080239808
 31
0.0
  0
ARC
  5
39C
330
1F
100
AcDbEntity
  8
0
  6
Continuous
 62
     7
370
    25
100
AcDbCircle
 10
71.9453045059
 20
159.5538828615
 30
0.0
 40
17.05110429720424
100
AcDbArc
 50
269.9960604111
 51
351.6585335966
  0
LINE
  5
39D
330
1F
100
AcDbEntity
  8
0
  6
Continuous
 62
     7
370
    25
100
AcDbLine
 10
66.8191320925
 20
132.9574822268
 30
0.0
 11
66.8191320925
 21
137.180239808
 31
0.0
  0
ARC
  5
39E
330
1F
100
AcDbEntity
  8
0
  6
Continuous
 62
     7
370
    25
100
AcDbCircle
 10
70.5691320925
 20
158.180239808
 30
0.0
 40
25.49999999999965
100
AcDbArc
 50
261.5434806647
 51
264.9379070357
  0
LINE
  5
39F
330
1F
100
AcDbEntity
  8
0
  6
Continuous
 62
     7
370
    25
100
AcDbLine
 10
68.3191320925
 20
137.180239808
 30
0.0
 11
68.3191320925
 21
132.7796984752
 31
0.0
  0
LINE
  5
3A0
330
1F
100
AcDbEntity
  8
0
  6
Continuous
 62
     7
370
    25
100
AcDbLine
 10
66.8191320925
 20
137.180239808
 30
0.0
 11
68.3191320925
 21
137.180239808
 31
0.0
  0
LWPOLYLINE
  5
3A1
330
1F
100
AcDbEntity
  8
0
  6
Continuous
 62
     7
370
    25
100
AcDbPolyline
 90
        3
 70
   128
 43
0.0
 10
63.1479215753
 20
157.080239808
 10
63.1428811967
 20
156.9262737129
 10
63.1416708891
 20
156.805239808
  0
LINE
  5
3A2
330
1F
100
AcDbEntity
  8
0
  6
Continuous
 62
     7
370
    25
100
AcDbLine
 10
61.782193229
 20
157.080239808
 30
0.0
 11
63.1479215753
 21
157.080239808
 31
0.0
  0
LWPOLYLINE
  5
3A3
330
1F
100
AcDbEntity
  8
0
  6
Continuous
 62
     7
370
    25
100
AcDbPolyline
 90
        3
 70
   128
 43
0.0
 10
61.7770934169
 20
156.805239808
 10
61.7786928441
 20
156.9592640368
 10
61.782193229
 20
157.080239808
  0
ARC
  5
3A4
330
1F
100
AcDbEntity
  8
0
  6
Continuous
 62
     7
370
    25
100
AcDbCircle
 10
71.9433290924
 20
156.8046134426
 30
0.0
 40
10.16623569483201
100
AcDbArc
 50
179.9964698738
 51
255.9142400659
  0
LINE
  5
3A5
330
1F
100
AcDbEntity
  8
0
  6
Continuous
 62
     7
370
    25
100
AcDbLine
 10
69.4691320925
 20
148.3578912159
 30
0.0
 11
69.4691320925
 21
146.9440507097
 31
0.0
  0
ARC
  5
3A6
330
1F
100
AcDbEntity
  8
0
  6
Continuous
 62
     7
370
    25
100
AcDbCircle
 10
71.9446176403
 20
156.8056035061
 30
0.0
 40
8.802946758664136
100
AcDbArc
 50
180.0023672034
 51
253.6675051443
  0
LWPOLYLINE
  5
3A7
330
1F
100
AcDbEntity
  8
0
  6
Continuous
 62
     7
370
    25
100
AcDbPolyline
 90
        3
 70
   128
 43
0.0
 10
71.6691320925
 20
148.0070753269
 10
71.8231163658
 20
148.0036105028
 10
71.9441320925
 20
148.0027786046
  0
LINE
  5
3A8
330
1F
100
AcDbEntity
  8
0
  6
Continuous
 62
     7
370
    25
100
AcDbLine
 10
71.6691320925
 20
146.641920939
 30
0.0
 11
71.6691320925
 21
148.0070753269
 31
0.0
  0
LWPOLYLINE
  5
3A9
330
1F
100
AcDbEntity
  8
0
  6
Continuous
 62
     7
370
    25
100
AcDbPolyline
 90
        3
 70
   128
 43
0.0
 10
71.9441318047
 20
146.6382011325
 10
71.7901194451
 20
146.6393677091
 10
71.6691320925
 20
146.641920939
  0
ARC
  5
3AA
330
1F
100
AcDbEntity
  8
0
  6
Continuous
 62
     7
370
    25
100
AcDbCircle
 10
71.9437983498
 20
159.5556450061
 30
0.0
 40
12.91744387795865
100
AcDbArc
 50
270.0014790512
 51
348.951915455
  0
LINE
  5
3AB
330
1F
100
AcDbEntity
  8
0
  6
Continuous
 62
     7
370
    25
100
AcDbLine
 10
83.2283571371
 20
157.080239808
 30
0.0
 11
84.6218394226
 21
157.080239808
 31
0.0
  0
ARC
  5
3AC
330
1F
100
AcDbEntity
  8
0
  6
Continuous
 62
     7
370
    25
100
AcDbCircle
 10
71.9445746071
 20
159.5546897166
 30
0.0
 40
11.55191112042741
100
AcDbArc
 50
269.9978051929
 51
347.6312475878
  0
LINE
  5
3AD
330
1F
100
AcDbEntity
  8
0
  6
Continuous
 62
     7
370
    25
100
AcDbLine
 10
72.0691320925
 20
158.780239808
 30
0.0
 11
72.0691320925
 21
157.580239808
 31
0.0
  0
LINE
  5
3AE
330
1F
100
AcDbEntity
  8
0
  6
Continuous
 62
     7
370
    25
100
AcDbLine
 10
69.0691320925
 20
158.780239808
 30
0.0
 11
69.0691320925
 21
157.580239808
 31
0.0
  0
LINE
  5
3AF
330
1F
100
AcDbEntity
  8
0
  6
Continuous
 62
     7
370
    25
100
AcDbLine
 10
99.0329886242
 20
158.180239808
 30
0.0
 11
99.5993551143
 21
158.180239808
 31
0.0
  0
LINE
  5
3B0
330
1F
100
AcDbEntity
  8
0
  6
Continuous
 62
     7
370
    25
100
AcDbLine
 10
42.1052755608
 20
158.180239808
 30
0.0
 11
41.5389090707
 21
158.180239808
 31
0.0
  0
ARC
  5
3B1
330
1F
100
AcDbEntity
  8
0
  6
Continuous
 62
     7
370
    25
100
AcDbCircle
 10
70.5691320925
 20
158.180239808
 30
0.0
 40
29.0302230218
100
AcDbArc
 50
0.0
 51
180.0
  0
ARC
  5
3B2
330
1F
100
AcDbEntity
  8
0
  6
Continuous
 62
     7
370
    25
100
AcDbCircle
 10
70.5691320925
 20
158.180239808
 30
0.0
 40
28.56269383728003
100
AcDbArc
 50
6.0103331076
 51
53.9896668924
  0
ARC
  5
3B3
330
1F
100
AcDbEntity
  8
0
  6
Continuous
 62
     7
370
    25
100
AcDbCircle
 10
119.9504753709
 20
162.8053103661
 30
0.0
 40
21.03923154224166
100
AcDbArc
 50
184.4552398395
 51
188.5486767169
  0
LINE
  5
3B4
330
1F
100
AcDbEntity
  8
0
  6
Continuous
 62
     7
370
    25
100
AcDbLine
 10
99.4588473244
 20
159.6942856274
 30
0.0
 11
99.1449911183
 21
159.6778371207
 31
0.0
  0
ARC
  5
3B5
330
1F
100
AcDbEntity
  8
0
  6
Continuous
 62
     7
370
    25
100
AcDbCircle
 10
91.9142495532
 20
160.1178705068
 30
0.0
 40
7.556479317694393
100
AcDbArc
 50
356.7865519006
 51
8.1792810423
  0
ARC
  5
3B6
330
1F
100
AcDbEntity
  8
0
  6
Continuous
 62
     7
370
    25
100
AcDbCircle
 10
70.5691320925
 20
158.180239808
 30
0.0
 40
28.98174307118001
100
AcDbArc
 50
5.9667672428
 51
54.0332327572
  0
ARC
  5
3B7
330
1F
100
AcDbEntity
  8
0
  6
Continuous
 62
     7
370
    25
100
AcDbCircle
 10
82.9197282312
 20
175.6968384263
 30
0.0
 40
7.556479317725936
100
AcDbArc
 50
51.8207189577
 51
63.2134480994
  0
LINE
  5
3B8
330
1F
100
AcDbEntity
  8
0
  6
Continuous
 62
     7
370
    25
100
AcDbLine
 10
86.3251918506
 20
182.4424441972
 30
0.0
 11
86.1540189228
 21
182.1788610029
 31
0.0
  0
ARC
  5
3B9
330
1F
100
AcDbEntity
  8
0
  6
Continuous
 62
     7
370
    25
100
AcDbCircle
 10
99.2652323295
 20
198.6332022814
 30
0.0
 40
21.0392315425962
100
AcDbArc
 50
231.4513232832
 51
235.5447601604
  0
ARC
  5
3BA
330
1F
100
AcDbEntity
  8
0
  6
Continuous
 62
     7
370
    25
100
AcDbCircle
 10
70.5691320925
 20
158.180239808
 30
0.0
 40
28.56269383728001
100
AcDbArc
 50
66.0103331076
 51
113.9896668924
  0
ARC
  5
3BB
330
1F
100
AcDbEntity
  8
0
  6
Continuous
 62
     7
370
    25
100
AcDbCircle
 10
91.254375134
 20
203.2582728388
 30
0.0
 40
21.03923154186161
100
AcDbArc
 50
244.4552398395
 51
248.5486767169
  0
LINE
  5
3BC
330
1F
100
AcDbEntity
  8
0
  6
Continuous
 62
     7
370
    25
100
AcDbLine
 10
83.7027875663
 20
183.9564900166
 30
0.0
 11
83.560104288
 21
183.6764583156
 31
0.0
  0
ARC
  5
3BD
330
1F
100
AcDbEntity
  8
0
  6
Continuous
 62
     7
370
    25
100
AcDbCircle
 10
79.5636534145
 20
177.6344691251
 30
0.0
 40
7.556479317752856
100
AcDbArc
 50
56.7865519006
 51
68.1792810423
  0
ARC
  5
3BE
330
1F
100
AcDbEntity
  8
0
  6
Continuous
 62
     7
370
    25
100
AcDbCircle
 10
70.5691320925
 20
158.180239808
 30
0.0
 40
28.98174307117998
100
AcDbArc
 50
65.9667672428
 51
114.0332327572
  0
ARC
  5
3BF
330
1F
100
AcDbEntity
  8
0
  6
Continuous
 62
     7
370
    25
100
AcDbCircle
 10
61.5746107705
 20
177.6344691251
 30
0.0
 40
7.55647931774995
100
AcDbArc
 50
111.8207189577
 51
123.2134480994
  0
LINE
  5
3C0
330
1F
100
AcDbEntity
  8
0
  6
Continuous
 62
     7
370
    25
100
AcDbLine
 10
57.4354766187
 20
183.9564900166
 30
0.0
 11
57.578159897
 21
183.6764583156
 31
0.0
  0
ARC
  5
3C1
330
1F
100
AcDbEntity
  8
0
  6
Continuous
 62
     7
370
    25
100
AcDbCircle
 10
49.8838890511
 20
203.2582728387
 30
0.0
 40
21.03923154179
100
AcDbArc
 50
291.4513232831
 51
295.5447601605
  0
ARC
  5
3C2
330
1F
100
AcDbEntity
  8
0
  6
Continuous
 62
     7
370
    25
100
AcDbCircle
 10
70.5691320925
 20
158.180239808
 30
0.0
 40
28.56269383728003
100
AcDbArc
 50
126.0103331076
 51
173.9896668924
  0
ARC
  5
3C3
330
1F
100
AcDbEntity
  8
0
  6
Continuous
 62
     7
370
    25
100
AcDbCircle
 10
41.8730318555
 20
198.6332022814
 30
0.0
 40
21.03923154259569
100
AcDbArc
 50
304.4552398396
 51
308.5486767168
  0
LINE
  5
3C4
330
1F
100
AcDbEntity
  8
0
  6
Continuous
 62
     7
370
    25
100
AcDbLine
 10
54.8130723345
 20
182.4424441972
 30
0.0
 11
54.9842452623
 21
182.1788610029
 31
0.0
  0
ARC
  5
3C5
330
1F
100
AcDbEntity
  8
0
  6
Continuous
 62
     7
370
    25
100
AcDbCircle
 10
58.2185359538
 20
175.6968384263
 30
0.0
 40
7.556479317734481
100
AcDbArc
 50
116.7865519006
 51
128.1792810423
  0
ARC
  5
3C6
330
1F
100
AcDbEntity
  8
0
  6
Continuous
 62
     7
370
    25
100
AcDbCircle
 10
70.5691320925
 20
158.180239808
 30
0.0
 40
28.98174307118
100
AcDbArc
 50
125.9667672428
 51
174.0332327572
  0
ARC
  5
3C7
330
1F
100
AcDbEntity
  8
0
  6
Continuous
 62
     7
370
    25
100
AcDbCircle
 10
49.2240146318
 20
160.1178705068
 30
0.0
 40
7.556479317697375
100
AcDbArc
 50
171.8207189577
 51
183.2134480994
  0
LINE
  5
3C8
330
1F
100
AcDbEntity
  8
0
  6
Continuous
 62
     7
370
    25
100
AcDbLine
 10
41.6794168607
 20
159.6942856274
 30
0.0
 11
41.9932730668
 21
159.6778371207
 31
0.0
  0
ARC
  5
3C9
330
1F
100
AcDbEntity
  8
0
  6
Continuous
 62
     7
370
    25
100
AcDbCircle
 10
21.1877888141
 20
162.8053103661
 30
0.0
 40
21.03923154225734
100
AcDbArc
 50
351.4513232831
 51
355.5447601605
  0
ARC
  5
3CA
330
1F
100
AcDbEntity
  8
0
  6
Continuous
 62
     7
370
    25
100
AcDbCircle
 10
70.5691320925
 20
158.180239808
 30
0.0
 40
29.0302230218
100
AcDbArc
 50
180.0
 51
0.0
  0
LINE
  5
3CB
330
1F
100
AcDbEntity
  8
0
  6
Continuous
 62
     7
370
    25
100
AcDbLine
 10
54.8130723345
 20
133.9180354188
 30
0.0
 11
54.9842452623
 21
134.1816186131
 31
0.0
  0
ARC
  5
3CC
330
1F
100
AcDbEntity
  8
0
  6
Continuous
 62
     7
370
    25
100
AcDbCircle
 10
41.8730318556
 20
117.7272773347
 30
0.0
 40
21.03923154252692
100
AcDbArc
 50
51.4513232831
 51
55.5447601604
  0
ARC
  5
3CD
330
1F
100
AcDbEntity
  8
0
  6
Continuous
 62
     7
370
    25
100
AcDbCircle
 10
70.5691320925
 20
158.180239808
 30
0.0
 40
28.56269383728002
100
AcDbArc
 50
186.0103331076
 51
233.9896668924
  0
ARC
  5
3CE
330
1F
100
AcDbEntity
  8
0
  6
Continuous
 62
     7
370
    25
100
AcDbCircle
 10
21.1877888141
 20
153.5551692499
 30
0.0
 40
21.03923154226203
100
AcDbArc
 50
4.4552398395
 51
8.5486767169
  0
LINE
  5
3CF
330
1F
100
AcDbEntity
  8
0
  6
Continuous
 62
     7
370
    25
100
AcDbLine
 10
41.6794168607
 20
156.6661939886
 30
0.0
 11
41.9932730668
 21
156.6826424954
 31
0.0
  0
ARC
  5
3D0
330
1F
100
AcDbEntity
  8
0
  6
Continuous
 62
     7
370
    25
100
AcDbCircle
 10
49.2240146318
 20
156.2426091092
 30
0.0
 40
7.556479317697602
100
AcDbArc
 50
176.7865519006
 51
188.1792810423
  0
ARC
  5
3D1
330
1F
100
AcDbEntity
  8
0
  6
Continuous
 62
     7
370
    25
100
AcDbCircle
 10
70.5691320925
 20
158.180239808
 30
0.0
 40
28.98174307118
100
AcDbArc
 50
185.9667672428
 51
234.0332327572
  0
ARC
  5
3D2
330
1F
100
AcDbEntity
  8
0
  6
Continuous
 62
     7
370
    25
100
AcDbCircle
 10
58.2185359538
 20
140.6636411897
 30
0.0
 40
7.556479317720468
100
AcDbArc
 50
231.8207189577
 51
243.2134480994
  0
ARC
  5
3D3
330
1F
100
AcDbEntity
  8
0
  6
Continuous
 62
     7
370
    25
100
AcDbCircle
 10
70.5691320925
 20
158.180239808
 30
0.0
 40
28.98174307117998
100
AcDbArc
 50
245.9667672428
 51
294.0332327572
  0
ARC
  5
3D4
330
1F
100
AcDbEntity
  8
0
  6
Continuous
 62
     7
370
    25
100
AcDbCircle
 10
79.5636534145
 20
138.7260104909
 30
0.0
 40
7.556479317745583
100
AcDbArc
 50
291.8207189577
 51
303.2134480994
  0
LINE
  5
3D5
330
1F
100
AcDbEntity
  8
0
  6
Continuous
 62
     7
370
    25
100
AcDbLine
 10
83.7027875663
 20
132.4039895994
 30
0.0
 11
83.560104288
 21
132.6840213004
 31
0.0
  0
ARC
  5
3D6
330
1F
100
AcDbEntity
  8
0
  6
Continuous
 62
     7
370
    25
100
AcDbCircle
 10
91.254375134
 20
113.1022067772
 30
0.0
 40
21.03923154190711
100
AcDbArc
 50
111.4513232831
 51
115.5447601605
  0
ARC
  5
3D7
330
1F
100
AcDbEntity
  8
0
  6
Continuous
 62
     7
370
    25
100
AcDbCircle
 10
70.5691320925
 20
158.180239808
 30
0.0
 40
28.56269383728001
100
AcDbArc
 50
246.0103331076
 51
293.9896668924
  0
ARC
  5
3D8
330
1F
100
AcDbEntity
  8
0
  6
Continuous
 62
     7
370
    25
100
AcDbCircle
 10
49.8838890511
 20
113.1022067773
 30
0.0
 40
21.0392315418472
100
AcDbArc
 50
64.4552398395
 51
68.5486767169
  0
LINE
  5
3D9
330
1F
100
AcDbEntity
  8
0
  6
Continuous
 62
     7
370
    25
100
AcDbLine
 10
57.4354766187
 20
132.4039895994
 30
0.0
 11
57.578159897
 21
132.6840213004
 31
0.0
  0
ARC
  5
3DA
330
1F
100
AcDbEntity
  8
0
  6
Continuous
 62
     7
370
    25
100
AcDbCircle
 10
61.5746107705
 20
138.7260104909
 30
0.0
 40
7.556479317747476
100
AcDbArc
 50
236.7865519006
 51
248.1792810423
  0
ARC
  5
3DB
330
1F
100
AcDbEntity
  8
0
  6
Continuous
 62
     7
370
    25
100
AcDbCircle
 10
70.5691320925
 20
158.180239808
 30
0.0
 40
28.98174307118001
100
AcDbArc
 50
305.9667672428
 51
354.0332327572
  0
ARC
  5
3DC
330
1F
100
AcDbEntity
  8
0
  6
Continuous
 62
     7
370
    25
100
AcDbCircle
 10
91.9142495532
 20
156.2426091092
 30
0.0
 40
7.556479317696743
100
AcDbArc
 50
351.8207189577
 51
3.2134480994
  0
LINE
  5
3DD
330
1F
100
AcDbEntity
  8
0
  6
Continuous
 62
     7
370
    25
100
AcDbLine
 10
99.4588473244
 20
156.6661939886
 30
0.0
 11
99.1449911183
 21
156.6826424954
 31
0.0
  0
ARC
  5
3DE
330
1F
100
AcDbEntity
  8
0
  6
Continuous
 62
     7
370
    25
100
AcDbCircle
 10
119.9504753709
 20
153.5551692499
 30
0.0
 40
21.03923154225152
100
AcDbArc
 50
171.4513232831
 51
175.5447601605
  0
ARC
  5
3DF
330
1F
100
AcDbEntity
  8
0
  6
Continuous
 62
     7
370
    25
100
AcDbCircle
 10
70.5691320925
 20
158.180239808
 30
0.0
 40
28.56269383728002
100
AcDbArc
 50
306.0103331076
 51
353.9896668924
  0
ARC
  5
3E0
330
1F
100
AcDbEntity
  8
0
  6
Continuous
 62
     7
370
    25
100
AcDbCircle
 10
99.2652323295
 20
117.7272773347
 30
0.0
 40
21.03923154256177
100
AcDbArc
 50
124.4552398396
 51
128.5486767169
  0
LINE
  5
3E1
330
1F
100
AcDbEntity
  8
0
  6
Continuous
 62
     7
370
    25
100
AcDbLine
 10
86.3251918506
 20
133.9180354188
 30
0.0
 11
86.1540189228
 21
134.1816186131
 31
0.0
  0
ARC
  5
3E2
330
1F
100
AcDbEntity
  8
0
  6
Continuous
 62
     7
370
    25
100
AcDbCircle
 10
82.9197282312
 20
140.6636411897
 30
0.0
 40
7.556479317717273
100
AcDbArc
 50
296.7865519006
 51
308.1792810423
  0
LINE
  5
3E3
330
1F
100
AcDbEntity
  8
0
  6
Continuous
 62
     7
370
    25
100
AcDbLine
 10
41.5389090707
 20
158.180239808
 30
0.0
 11
31.8191320925
 21
158.180239808
 31
0.0
  0
ARC
  5
3E4
330
1F
100
AcDbEntity
  8
0
  6
Continuous
 62
     7
370
    25
100
AcDbCircle
 10
70.5691320925
 20
158.180239808
 30
0.0
 40
38.75
100
AcDbArc
 50
180.0
 51
270.0
  0
LINE
  5
3E5
330
1F
100
AcDbEntity
  8
0
  6
Continuous
 62
     7
370
    25
100
AcDbLine
 10
70.5691320925
 20
119.430239808
 30
0.0
 11
70.5691320925
 21
118.180239808
 31
0.0
  0
ARC
  5
3E6
330
1F
100
AcDbEntity
  8
0
  6
Continuous
 62
     7
370
    25
100
AcDbCircle
 10
70.5691320925
 20
158.180239808
 30
0.0
 40
40.0
100
AcDbArc
 50
90.0
 51
270.0
  0
LINE
  5
3E7
330
1F
100
AcDbEntity
  8
0
  6
Continuous
 62
     7
370
    25
100
AcDbLine
 10
70.5691320925
 20
196.930239808
 30
0.0
 11
70.5691320925
 21
198.180239808
 31
0.0
  0
ARC
  5
3E8
330
1F
100
AcDbEntity
  8
0
  6
Continuous
 62
     7
370
    25
100
AcDbCircle
 10
70.5691320925
 20
158.180239808
 30
0.0
 40
38.75
100
AcDbArc
 50
0.0
 51
90.0
  0
LINE
  5
3E9
330
1F
100
AcDbEntity
  8
0
  6
Continuous
 62
     7
370
    25
100
AcDbLine
 10
99.5993551143
 20
158.180239808
 30
0.0
 11
109.3191320925
 21
158.180239808
 31
0.0
  0
ARC
  5
3EA
330
1F
100
AcDbEntity
  8
0
  6
Continuous
 62
     7
370
    25
100
AcDbCircle
 10
70.5691320925
 20
158.180239808
 30
0.0
 40
40.0
100
AcDbArc
 50
270.0
 51
90.0
  0
ARC
  5
3EB
330
1F
100
AcDbEntity
  8
0
  6
Continuous
 62
     7
370
    25
100
AcDbCircle
 10
70.5691320925
 20
125.180239808
 30
0.0
 40
2.699999999999989
100
AcDbArc
 50
139.9182011935
 51
265.7519773333
  0
LINE
  5
3EC
330
1F
100
AcDbEntity
  8
0
  6
Continuous
 62
     7
370
    25
100
AcDbLine
 10
70.3691320925
 20
122.5216611642
 30
0.0
 11
70.3691320925
 21
122.4876574044
 31
0.0
  0
LINE
  5
3ED
330
1F
100
AcDbEntity
  8
0
  6
Continuous
 62
     7
370
    25
100
AcDbLine
 10
70.4984214144
 20
122.6509504861
 30
0.0
 11
70.3691320925
 21
122.5216611642
 31
0.0
  0
ARC
  5
3EE
330
1F
100
AcDbEntity
  8
0
  6
Continuous
 62
     7
370
    25
100
AcDbCircle
 10
70.5691320925
 20
122.5812105066
 30
0.0
 40
0.0993159843390358
100
AcDbArc
 50
44.6040171861
 51
135.3959828139
  0
LINE
  5
3EF
330
1F
100
AcDbEntity
  8
0
  6
Continuous
 62
     7
370
    25
100
AcDbLine
 10
70.7691320925
 20
122.5216611642
 30
0.0
 11
70.6398427706
 21
122.6509504861
 31
0.0
  0
LINE
  5
3F0
330
1F
100
AcDbEntity
  8
0
  6
Continuous
 62
     7
370
    25
100
AcDbLine
 10
70.7691320925
 20
122.4876574044
 30
0.0
 11
70.7691320925
 21
122.5216611642
 31
0.0
  0
ARC
  5
3F1
330
1F
100
AcDbEntity
  8
0
  6
Continuous
 62
     7
370
    25
100
AcDbCircle
 10
70.5691320925
 20
125.180239808
 30
0.0
 40
2.699999999999991
100
AcDbArc
 50
274.2480226667
 51
40.0817988065
  0
LINE
  5
3F2
330
1F
100
AcDbEntity
  8
0
  6
Continuous
 62
     7
370
    25
100
AcDbLine
 10
72.4076097236
 20
126.9187174391
 30
0.0
 11
72.6349722427
 21
126.9187174391
 31
0.0
  0
ARC
  5
3F3
330
1F
100
AcDbEntity
  8
0
  6
Continuous
 62
     7
370
    25
100
AcDbCircle
 10
72.406752018
 20
127.0178597335
 30
0.0
 40
0.0991460044062655
100
AcDbArc
 50
179.5043317524
 51
270.4956682478
  0
LINE
  5
3F4
330
1F
100
AcDbEntity
  8
0
  6
Continuous
 62
     7
370
    25
100
AcDbLine
 10
72.3076097236
 20
127.2460799582
 30
0.0
 11
72.3076097236
 21
127.0187174391
 31
0.0
  0
ARC
  5
3F5
330
1F
100
AcDbEntity
  8
0
  6
Continuous
 62
     7
370
    25
100
AcDbCircle
 10
70.5691320925
 20
125.1805396435
 30
0.0
 40
2.699770594984677
100
AcDbArc
 50
49.9141040221
 51
130.0858959779
  0
LINE
  5
3F6
330
1F
100
AcDbEntity
  8
0
  6
Continuous
 62
     7
370
    25
100
AcDbLine
 10
68.8306544614
 20
127.0187174391
 30
0.0
 11
68.8306544614
 21
127.2460799582
 31
0.0
  0
ARC
  5
3F7
330
1F
100
AcDbEntity
  8
0
  6
Continuous
 62
     7
370
    25
100
AcDbCircle
 10
68.7312064746
 20
127.0181654259
 30
0.0
 40
0.0994495188508455
100
AcDbArc
 50
269.6819674077
 51
0.3180325921
  0
LINE
  5
3F8
330
1F
100
AcDbEntity
  8
0
  6
Continuous
 62
     7
370
    25
100
AcDbLine
 10
68.5032919423
 20
126.9187174391
 30
0.0
 11
68.7306544614
 21
126.9187174391
 31
0.0
  0
ARC
  5
3F9
330
1F
100
AcDbEntity
  8
0
  6
Continuous
 62
     7
370
    25
100
AcDbCircle
 10
70.5691320925
 20
125.180239808
 30
0.0
 40
2.500000000000005
100
AcDbArc
 50
0.0
 51
42.8756448834
  0
ARC
  5
3FA
330
1F
100
AcDbEntity
  8
0
  6
Continuous
 62
     7
370
    25
100
AcDbCircle
 10
70.5691320925
 20
125.180239808
 30
0.0
 40
2.5
100
AcDbArc
 50
46.61050649
 51
180.0
  0
LINE
  5
3FB
330
1F
100
AcDbEntity
  8
0
  6
Continuous
 62
     7
370
    25
100
AcDbLine
 10
70.5691320925
 20
125.180239808
 30
0.0
 11
73.0691320925
 21
125.180239808
 31
0.0
  0
LINE
  5
3FC
330
1F
100
AcDbEntity
  8
0
  6
Continuous
 62
     7
370
    25
100
AcDbLine
 10
70.5691320925
 20
125.180239808
 30
0.0
 11
68.0691320925
 21
125.180239808
 31
0.0
  0
ARC
  5
3FD
330
1F
100
AcDbEntity
  8
0
  6
Continuous
 62
     7
370
    25
100
AcDbCircle
 10
70.5691320925
 20
125.180239808
 30
0.0
 40
2.5
100
AcDbArc
 50
180.0
 51
0.0
  0
LINE
  5
3FE
330
1F
100
AcDbEntity
  8
0
  6
Continuous
 62
     7
370
    25
100
AcDbLine
 10
91.1691320925
 20
166.180239808
 30
0.0
 11
91.0957185668
 21
165.7011430156
 31
0.0
  0
ARC
  5
3FF
330
1F
100
AcDbEntity
  8
0
  6
Continuous
 62
     7
370
    25
100
AcDbCircle
 10
89.5691320925
 20
166.180239808
 30
0.0
 40
1.600000000000011
100
AcDbArc
 50
0.0
 51
41.6026355873
  0
LINE
  5
400
330
1F
100
AcDbEntity
  8
0
  6
Continuous
 62
     1
370
    25
100
AcDbLine
 10
82.372423714
 20
184.6495378407
 30
0.0
 11
82.1819202669
 21
184.2756537741
 31
0.0
  0
LINE
  5
401
330
1F
100
AcDbEntity
  8
0
  6
Continuous
 62
     1
370
    25
100
AcDbLine
 10
58.7658404711
 20
131.7109417753
 30
0.0
 11
58.9563439182
 21
132.084825842
 31
0.0
  0
LINE
  5
402
330
1F
100
AcDbEntity
  8
0
  6
Continuous
 62
     1
370
    25
100
AcDbLine
 10
99.3938624199
 20
161.1929384319
 30
0.0
 11
98.9748175966
 21
161.1709772233
 31
0.0
  0
LINE
  5
403
330
1F
100
AcDbEntity
  8
0
  6
Continuous
 62
     1
370
    25
100
AcDbLine
 10
41.7444017651
 20
155.1675411841
 30
0.0
 11
42.1634465885
 21
155.1895023927
 31
0.0
  0
LINE
  5
404
330
1F
100
AcDbEntity
  8
0
  6
Continuous
 62
     1
370
    25
100
AcDbLine
 10
53.5476933866
 20
181.6368392168
 30
0.0
 11
53.7762347628
 21
181.2849163588
 31
0.0
  0
LINE
  5
405
330
1F
100
AcDbEntity
  8
0
  6
Continuous
 62
     1
370
    25
100
AcDbLine
 10
87.5905707984
 20
134.7236403992
 30
0.0
 11
87.3620294222
 21
135.0755632572
 31
0.0
  0
LINE
  5
406
330
1F
100
AcDbEntity
  8
0
  6
Continuous
 62
     1
370
    25
100
AcDbLine
 10
42.1634465885
 20
161.1709772233
 30
0.0
 11
41.7444017651
 21
161.1929384319
 31
0.0
  0
LINE
  5
407
330
1F
100
AcDbEntity
  8
0
  6
Continuous
 62
     1
370
    25
100
AcDbLine
 10
98.9748175966
 20
155.1895023927
 30
0.0
 11
99.3938624199
 21
155.1675411841
 31
0.0
  0
LINE
  5
408
330
1F
100
AcDbEntity
  8
0
  6
Continuous
 62
     1
370
    25
100
AcDbLine
 10
58.9563439182
 20
184.2756537741
 30
0.0
 11
58.7658404711
 21
184.6495378407
 31
0.0
  0
LINE
  5
409
330
1F
100
AcDbEntity
  8
0
  6
Continuous
 62
     1
370
    25
100
AcDbLine
 10
82.1819202669
 20
132.084825842
 30
0.0
 11
82.372423714
 21
131.7109417753
 31
0.0
  0
LINE
  5
40A
330
1F
100
AcDbEntity
  8
0
  6
Continuous
 62
     1
370
    25
100
AcDbLine
 10
87.3620294222
 20
181.2849163588
 30
0.0
 11
87.5905707984
 21
181.6368392168
 31
0.0
  0
LINE
  5
40B
330
1F
100
AcDbEntity
  8
0
  6
Continuous
 62
     1
370
    25
100
AcDbLine
 10
53.7762347628
 20
135.0755632572
 30
0.0
 11
53.5476933866
 21
134.7236403992
 31
0.0
  0
DIMENSION
  5
40C
330
1F
100
AcDbEntity
  8
FORMAT
 62
     7
100
AcDbDimension
  2
_D_3
 10
30.5273112072
 20
203.0863356934
 30
0.0
 11
70.5272938753
 21
203.1235720948
 31
0.0
 70
   160
  1
%%c<>
 71
     2
 42
-1.0
  3
SLDDIMSTYLE0
100
AcDbAlignedDimension
 13
110.5691147606
 23
158.2174762094
 33
0.0
 14
30.5691494244
 24
158.1430034066
 34
0.0
 50
0.0533372239
100
AcDbRotatedDimension
  0
ENDSEC
  0
SECTION
  2
OBJECTS
  0
DICTIONARY
  5
C
330
0
100
AcDbDictionary
281
     1
  3
ACAD_GROUP
350
D
  3
ACAD_LAYOUT
350
1A
  3
ACAD_MLINESTYLE
350
17
  3
ACAD_PLOTSETTINGS
350
19
  3
ACAD_PLOTSTYLENAME
350
E
  3
ACAD_SCALELIST
350
47
  3
DWGPROPS
350
417
  0
DICTIONARY
  5
D
102
{ACAD_REACTORS
330
C
102
}
330
C
100
AcDbDictionary
281
     1
  0
DICTIONARY
  5
1A
102
{ACAD_REACTORS
330
C
102
}
330
C
100
AcDbDictionary
281
     1
  3
Layout1
350
1E
  3
Layout2
350
26
  3
Model
350
22
  0
DICTIONARY
  5
17
102
{ACAD_REACTORS
330
C
102
}
330
C
100
AcDbDictionary
281
     1
  3
Standard
350
18
  0
DICTIONARY
  5
19
102
{ACAD_REACTORS
330
C
102
}
330
C
100
AcDbDictionary
281
     1
  0
ACDBDICTIONARYWDFLT
  5
E
102
{ACAD_REACTORS
330
C
102
}
330
C
100
AcDbDictionary
281
     1
  3
Normal
350
F
100
AcDbDictionaryWithDefault
340
F
  0
DICTIONARY
  5
47
102
{ACAD_REACTORS
330
C
102
}
330
C
100
AcDbDictionary
281
     1
  3
A0
350
48
  3
A1
350
49
  3
A2
350
4A
  3
A3
350
4B
  3
A4
350
4C
  3
A5
350
4D
  3
A6
350
4E
  3
A7
350
4F
  3
A8
350
50
  3
A9
350
51
  3
B0
350
52
  3
B1
350
53
  3
B2
350
54
  3
B3
350
55
  3
B4
350
56
  3
B5
350
57
  3
B6
350
58
  3
B7
350
59
  3
B8
350
5A
  3
B9
350
5B
  3
C0
350
5C
  3
C1
350
5D
  3
C2
350
5E
  3
C3
350
5F
  3
C4
350
60
  3
C5
350
61
  3
C6
350
62
  3
C7
350
63
  3
C8
350
64
  3
C9
350
65
  3
D0
350
66
  3
D1
350
67
  3
D2
350
68
  0
XRECORD
  5
417
102
{ACAD_REACTORS
330
C
102
}
330
C
100
AcDbXrecord
280
     1
  1
DWGPROPS COOKIE
  2

  3

  4

  6

  7

  8
beland
  9

300
=
301
=
302
=
303
=
304
=
305
=
306
=
307
=
308
=
309
=
 40
0.0
 41
2459998.552650556
 42
2459998.55265191
  1

 90
        0
  0
LAYOUT
  5
1E
102
{ACAD_REACTORS
330
1A
102
}
330
1A
100
AcDbPlotSettings
  1

  2
none_device
  4

  6

 40
0.0
 41
0.0
 42
0.0
 43
0.0
 44
0.0
 45
0.0
 46
0.0
 47
0.0
 48
0.0
 49
0.0
140
0.0
141
0.0
142
1.0
143
1.0
 70
   688
 72
     1
 73
     0
 74
     5
  7

 75
    16
147
1.0
148
0.0
149
0.0
100
AcDbLayout
  1
Layout1
 70
     1
 71
     1
 10
0.0
 20
0.0
 11
420.0
 21
297.0
 12
0.0
 22
0.0
 32
0.0
 14
1.0000000000E+20
 24
1.0000000000E+20
 34
1.0000000000E+20
 15
-1.0000000000E+20
 25
-1.0000000000E+20
 35
-1.0000000000E+20
146
0.0
 13
0.0
 23
0.0
 33
0.0
 16
1.0
 26
0.0
 36
0.0
 17
0.0
 27
1.0
 37
0.0
 76
     0
330
1B
  0
LAYOUT
  5
26
102
{ACAD_REACTORS
330
1A
102
}
330
1A
100
AcDbPlotSettings
  1

  2
none_device
  4

  6

 40
0.0
 41
0.0
 42
0.0
 43
0.0
 44
0.0
 45
0.0
 46
0.0
 47
0.0
 48
0.0
 49
0.0
140
0.0
141
0.0
142
1.0
143
1.0
 70
   688
 72
     1
 73
     0
 74
     5
  7

 75
    16
147
1.0
148
0.0
149
0.0
100
AcDbLayout
  1
Layout2
 70
     1
 71
     2
 10
0.0
 20
0.0
 11
0.0
 21
0.0
 12
0.0
 22
0.0
 32
0.0
 14
0.0
 24
0.0
 34
0.0
 15
0.0
 25
0.0
 35
0.0
146
0.0
 13
0.0
 23
0.0
 33
0.0
 16
1.0
 26
0.0
 36
0.0
 17
0.0
 27
1.0
 37
0.0
 76
     0
330
23
  0
LAYOUT
  5
22
102
{ACAD_REACTORS
330
1A
102
}
330
1A
100
AcDbPlotSettings
  1

  2
none_device
  4
Letter_(8.50_x_11.00_Inches)
  6

 40
6.35
 41
6.35
 42
6.35000508
 43
6.35000508
 44
215.9
 45
279.4
 46
0.0
 47
0.0
 48
0.0
 49
0.0
140
0.0
141
0.0
142
1.0
143
1.0
 70
  1712
 72
     1
 73
     0
 74
     0
  7

 75
     0
147
1.0
148
0.0
149
0.0
100
AcDbLayout
  1
Model
 70
     1
 71
     0
 10
0.0
 20
0.0
 11
210.0
 21
297.0
 12
0.0
 22
0.0
 32
0.0
 14
0.0
 24
0.0
 34
0.0
 15
210.0
 25
297.0
 35
0.0
146
0.0
 13
0.0
 23
0.0
 33
0.0
 16
1.0
 26
0.0
 36
0.0
 17
0.0
 27
1.0
 37
0.0
 76
     0
330
1F
331
29
  0
MLINESTYLE
  5
18
102
{ACAD_REACTORS
330
17
102
}
330
17
100
AcDbMlineStyle
  2
Standard
 70
     0
  3

 62
   256
 51
90.0
 52
90.0
 71
     2
 49
0.5
 62
   256
  6
BYLAYER
 49
-0.5
 62
   256
  6
BYLAYER
  0
ACDBPLACEHOLDER
  5
F
102
{ACAD_REACTORS
330
E
102
}
330
E
  0
SCALE
  5
48
102
{ACAD_REACTORS
330
47
102
}
330
47
100
AcDbScale
 70
     0
300
1:1
140
1.0
141
1.0
290
     1
  0
SCALE
  5
49
102
{ACAD_REACTORS
330
47
102
}
330
47
100
AcDbScale
 70
     0
300
1:2
140
1.0
141
2.0
290
     0
  0
SCALE
  5
4A
102
{ACAD_REACTORS
330
47
102
}
330
47
100
AcDbScale
 70
     0
300
1:4
140
1.0
141
4.0
290
     0
  0
SCALE
  5
4B
102
{ACAD_REACTORS
330
47
102
}
330
47
100
AcDbScale
 70
     0
300
1:5
140
1.0
141
5.0
290
     0
  0
SCALE
  5
4C
102
{ACAD_REACTORS
330
47
102
}
330
47
100
AcDbScale
 70
     0
300
1:8
140
1.0
141
8.0
290
     0
  0
SCALE
  5
4D
102
{ACAD_REACTORS
330
47
102
}
330
47
100
AcDbScale
 70
     0
300
1:10
140
1.0
141
10.0
290
     0
  0
SCALE
  5
4E
102
{ACAD_REACTORS
330
47
102
}
330
47
100
AcDbScale
 70
     0
300
1:16
140
1.0
141
16.0
290
     0
  0
SCALE
  5
4F
102
{ACAD_REACTORS
330
47
102
}
330
47
100
AcDbScale
 70
     0
300
1:20
140
1.0
141
20.0
290
     0
  0
SCALE
  5
50
102
{ACAD_REACTORS
330
47
102
}
330
47
100
AcDbScale
 70
     0
300
1:30
140
1.0
141
30.0
290
     0
  0
SCALE
  5
51
102
{ACAD_REACTORS
330
47
102
}
330
47
100
AcDbScale
 70
     0
300
1:40
140
1.0
141
40.0
290
     0
  0
SCALE
  5
52
102
{ACAD_REACTORS
330
47
102
}
330
47
100
AcDbScale
 70
     0
300
1:50
140
1.0
141
50.0
290
     0
  0
SCALE
  5
53
102
{ACAD_REACTORS
330
47
102
}
330
47
100
AcDbScale
 70
     0
300
1:100
140
1.0
141
100.0
290
     0
  0
SCALE
  5
54
102
{ACAD_REACTORS
330
47
102
}
330
47
100
AcDbScale
 70
     0
300
2:1
140
2.0
141
1.0
290
     0
  0
SCALE
  5
55
102
{ACAD_REACTORS
330
47
102
}
330
47
100
AcDbScale
 70
     0
300
4:1
140
4.0
141
1.0
290
     0
  0
SCALE
  5
56
102
{ACAD_REACTORS
330
47
102
}
330
47
100
AcDbScale
 70
     0
300
8:1
140
8.0
141
1.0
290
     0
  0
SCALE
  5
57
102
{ACAD_REACTORS
330
47
102
}
330
47
100
AcDbScale
 70
     0
300
10:1
140
10.0
141
1.0
290
     0
  0
SCALE
  5
58
102
{ACAD_REACTORS
330
47
102
}
330
47
100
AcDbScale
 70
     0
300
100:1
140
100.0
141
1.0
290
     0
  0
SCALE
  5
59
102
{ACAD_REACTORS
330
47
102
}
330
47
100
AcDbScale
 70
     0
300
1/128" = 1'-0"
140
0.0078125
141
12.0
290
     0
  0
SCALE
  5
5A
102
{ACAD_REACTORS
330
47
102
}
330
47
100
AcDbScale
 70
     0
300
1/64" = 1'-0"
140
0.015625
141
12.0
290
     0
  0
SCALE
  5
5B
102
{ACAD_REACTORS
330
47
102
}
330
47
100
AcDbScale
 70
     0
300
1/32" = 1'-0"
140
0.03125
141
12.0
290
     0
  0
SCALE
  5
5C
102
{ACAD_REACTORS
330
47
102
}
330
47
100
AcDbScale
 70
     0
300
1/16" = 1'-0"
140
0.0625
141
12.0
290
     0
  0
SCALE
  5
5D
102
{ACAD_REACTORS
330
47
102
}
330
47
100
AcDbScale
 70
     0
300
3/32" = 1'-0"
140
0.09375
141
12.0
290
     0
  0
SCALE
  5
5E
102
{ACAD_REACTORS
330
47
102
}
330
47
100
AcDbScale
 70
     0
300
1/8" = 1'-0"
140
0.125
141
12.0
290
     0
  0
SCALE
  5
5F
102
{ACAD_REACTORS
330
47
102
}
330
47
100
AcDbScale
 70
     0
300
3/16" = 1'-0"
140
0.1875
141
12.0
290
     0
  0
SCALE
  5
60
102
{ACAD_REACTORS
330
47
102
}
330
47
100
AcDbScale
 70
     0
300
1/4" = 1'-0"
140
0.25
141
12.0
290
     0
  0
SCALE
  5
61
102
{ACAD_REACTORS
330
47
102
}
330
47
100
AcDbScale
 70
     0
300
3/8" = 1'-0"
140
0.375
141
12.0
290
     0
  0
SCALE
  5
62
102
{ACAD_REACTORS
330
47
102
}
330
47
100
AcDbScale
 70
     0
300
1/2" = 1'-0"
140
0.5
141
12.0
290
     0
  0
SCALE
  5
63
102
{ACAD_REACTORS
330
47
102
}
330
47
100
AcDbScale
 70
     0
300
3/4" = 1'-0"
140
0.75
141
12.0
290
     0
  0
SCALE
  5
64
102
{ACAD_REACTORS
330
47
102
}
330
47
100
AcDbScale
 70
     0
300
1" = 1'-0"
140
1.0
141
12.0
290
     0
  0
SCALE
  5
65
102
{ACAD_REACTORS
330
47
102
}
330
47
100
AcDbScale
 70
     0
300
1-1/2" = 1'-0"
140
1.5
141
12.0
290
     0
  0
SCALE
  5
66
102
{ACAD_REACTORS
330
47
102
}
330
47
100
AcDbScale
 70
     0
300
3" = 1'-0"
140
3.0
141
12.0
290
     0
  0
SCALE
  5
67
102
{ACAD_REACTORS
330
47
102
}
330
47
100
AcDbScale
 70
     0
300
6" = 1'-0"
140
6.0
141
12.0
290
     0
  0
SCALE
  5
68
102
{ACAD_REACTORS
330
47
102
}
330
47
100
AcDbScale
 70
     0
300
1'-0" = 1'-0"
140
12.0
141
12.0
290
     0
  0
ENDSEC
  0
EOF
