  0
SECTION
  2
HEADER
  9
$ACADVER
  1
AC1015
  9
$ACADMAINTVER
 70
     6
  9
$DWGCODEPAGE
  3
ANSI_1252
  9
$INSBASE
 10
0.0
 20
0.0
 30
0.0
  9
$EXTMIN
 10
0.0
 20
0.0
 30
0.0
  9
$EXTMAX
 10
210.0
 20
297.0
 30
0.0
  9
$LIMMIN
 10
0.0
 20
0.0
  9
$LIMMAX
 10
210.0
 20
297.0
  9
$ORTHOMODE
 70
     0
  9
$REGENMODE
 70
     1
  9
$FILLMODE
 70
     1
  9
$QTEXTMODE
 70
     0
  9
$MIRRTEXT
 70
     1
  9
$LTSCALE
 40
1.0
  9
$ATTMODE
 70
     1
  9
$TEXTSIZE
 40
3.5
  9
$TRACEWID
 40
1.0
  9
$TEXTSTYLE
  7
STANDARD
  9
$CLAYER
  8
0
  9
$CELTYPE
  6
ByLayer
  9
$CECOLOR
 62
   256
  9
$CELTSCALE
 40
1.0
  9
$DISPSILH
 70
     0
  9
$DIMSCALE
 40
1.0
  9
$DIMASZ
 40
3.302
  9
$DIMEXO
 40
1.0
  9
$DIMDLI
 40
3.75
  9
$DIMRND
 40
0.0
  9
$DIMDLE
 40
0.0
  9
$DIMEXE
 40
1.0
  9
$DIMTP
 40
0.0
  9
$DIMTM
 40
0.0
  9
$DIMTXT
 40
3.5
  9
$DIMCEN
 40
2.5
  9
$DIMTSZ
 40
0.0
  9
$DIMTOL
 70
     0
  9
$DIMLIM
 70
     0
  9
$DIMTIH
 70
     1
  9
$DIMTOH
 70
     1
  9
$DIMSE1
 70
     0
  9
$DIMSE2
 70
     0
  9
$DIMTAD
 70
     1
  9
$DIMZIN
 70
     0
  9
$DIMBLK
  1

  9
$DIMASO
 70
     1
  9
$DIMSHO
 70
     1
  9
$DIMPOST
  1

  9
$DIMAPOST
  1

  9
$DIMALT
 70
     0
  9
$DIMALTD
 70
     3
  9
$DIMALTF
 40
0.0393700787
  9
$DIMLFAC
 40
1.0
  9
$DIMTOFL
 70
     1
  9
$DIMTVP
 40
0.0
  9
$DIMTIX
 70
     0
  9
$DIMSOXD
 70
     0
  9
$DIMSAH
 70
     0
  9
$DIMBLK1
  1

  9
$DIMBLK2
  1

  9
$DIMSTYLE
  2
ISO-25
  9
$DIMCLRD
 70
     0
  9
$DIMCLRE
 70
     0
  9
$DIMCLRT
 70
     0
  9
$DIMTFAC
 40
1.0
  9
$DIMGAP
 40
3.0
  9
$DIMJUST
 70
     0
  9
$DIMSD1
 70
     0
  9
$DIMSD2
 70
     0
  9
$DIMTOLJ
 70
     0
  9
$DIMTZIN
 70
     0
  9
$DIMALTZ
 70
     0
  9
$DIMALTTZ
 70
     0
  9
$DIMUPT
 70
     0
  9
$DIMDEC
 70
     2
  9
$DIMTDEC
 70
     2
  9
$DIMALTU
 70
     2
  9
$DIMALTTD
 70
     3
  9
$DIMTXSTY
  7
STANDARD
  9
$DIMAUNIT
 70
     0
  9
$DIMADEC
 70
     2
  9
$DIMALTRND
 40
0.0
  9
$DIMAZIN
 70
     0
  9
$DIMDSEP
 70
    44
  9
$DIMATFIT
 70
     3
  9
$DIMFRAC
 70
     0
  9
$DIMLDRBLK
  1

  9
$DIMLUNIT
 70
     2
  9
$DIMLWD
 70
    -2
  9
$DIMLWE
 70
    -2
  9
$DIMTMOVE
 70
     0
  9
$LUNITS
 70
     2
  9
$LUPREC
 70
     2
  9
$SKETCHINC
 40
1.0
  9
$FILLETRAD
 40
10.0
  9
$AUNITS
 70
     0
  9
$AUPREC
 70
     2
  9
$MENU
  1
.
  9
$ELEVATION
 40
0.0
  9
$PELEVATION
 40
0.0
  9
$THICKNESS
 40
0.0
  9
$LIMCHECK
 70
     0
  9
$CHAMFERA
 40
0.0
  9
$CHAMFERB
 40
0.0
  9
$CHAMFERC
 40
0.0
  9
$CHAMFERD
 40
0.0
  9
$SKPOLY
 70
     0
  9
$TDCREATE
 40
2459551.451846979
  9
$TDUCREATE
 40
2459551.410180313
  9
$TDUPDATE
 40
2459551.451850347
  9
$TDUUPDATE
 40
2459551.410183681
  9
$TDINDWG
 40
0.0000000116
  9
$TDUSRTIMER
 40
0.0000000116
  9
$USRTIMER
 70
     1
  9
$ANGBASE
 50
0.0
  9
$ANGDIR
 70
     0
  9
$PDMODE
 70
     0
  9
$PDSIZE
 40
-1.0
  9
$PLINEWID
 40
0.0
  9
$SPLFRAME
 70
     0
  9
$SPLINETYPE
 70
     6
  9
$SPLINESEGS
 70
     8
  9
$HANDSEED
  5
29F
  9
$SURFTAB1
 70
     6
  9
$SURFTAB2
 70
     6
  9
$SURFTYPE
 70
     6
  9
$SURFU
 70
     6
  9
$SURFV
 70
     6
  9
$UCSBASE
  2

  9
$UCSNAME
  2

  9
$UCSORG
 10
0.0
 20
0.0
 30
0.0
  9
$UCSXDIR
 10
1.0
 20
0.0
 30
0.0
  9
$UCSYDIR
 10
0.0
 20
1.0
 30
0.0
  9
$UCSORTHOREF
  2

  9
$UCSORTHOVIEW
 70
     0
  9
$UCSORGTOP
 10
0.0
 20
0.0
 30
0.0
  9
$UCSORGBOTTOM
 10
0.0
 20
0.0
 30
0.0
  9
$UCSORGLEFT
 10
0.0
 20
0.0
 30
0.0
  9
$UCSORGRIGHT
 10
0.0
 20
0.0
 30
0.0
  9
$UCSORGFRONT
 10
0.0
 20
0.0
 30
0.0
  9
$UCSORGBACK
 10
0.0
 20
0.0
 30
0.0
  9
$PUCSBASE
  2

  9
$PUCSNAME
  2

  9
$PUCSORG
 10
0.0
 20
0.0
 30
0.0
  9
$PUCSXDIR
 10
1.0
 20
0.0
 30
0.0
  9
$PUCSYDIR
 10
0.0
 20
1.0
 30
0.0
  9
$PUCSORTHOREF
  2

  9
$PUCSORTHOVIEW
 70
     0
  9
$PUCSORGTOP
 10
0.0
 20
0.0
 30
0.0
  9
$PUCSORGBOTTOM
 10
0.0
 20
0.0
 30
0.0
  9
$PUCSORGLEFT
 10
0.0
 20
0.0
 30
0.0
  9
$PUCSORGRIGHT
 10
0.0
 20
0.0
 30
0.0
  9
$PUCSORGFRONT
 10
0.0
 20
0.0
 30
0.0
  9
$PUCSORGBACK
 10
0.0
 20
0.0
 30
0.0
  9
$USERI1
 70
     0
  9
$USERI2
 70
     0
  9
$USERI3
 70
     0
  9
$USERI4
 70
     0
  9
$USERI5
 70
     0
  9
$USERR1
 40
0.0
  9
$USERR2
 40
0.0
  9
$USERR3
 40
0.0
  9
$USERR4
 40
0.0
  9
$USERR5
 40
0.0
  9
$WORLDVIEW
 70
     1
  9
$SHADEDGE
 70
     3
  9
$SHADEDIF
 70
    70
  9
$TILEMODE
 70
     1
  9
$MAXACTVP
 70
    64
  9
$PINSBASE
 10
0.0
 20
0.0
 30
0.0
  9
$PLIMCHECK
 70
     0
  9
$PEXTMIN
 10
1.0000000000E+20
 20
1.0000000000E+20
 30
1.0000000000E+20
  9
$PEXTMAX
 10
-1.0000000000E+20
 20
-1.0000000000E+20
 30
-1.0000000000E+20
  9
$PLIMMIN
 10
0.0
 20
0.0
  9
$PLIMMAX
 10
420.0
 20
297.0
  9
$UNITMODE
 70
     0
  9
$VISRETAIN
 70
     1
  9
$PLINEGEN
 70
     0
  9
$PSLTSCALE
 70
     1
  9
$TREEDEPTH
 70
  3020
  9
$CMLSTYLE
  2
Standard
  9
$CMLJUST
 70
     0
  9
$CMLSCALE
 40
20.0
  9
$PROXYGRAPHICS
 70
     1
  9
$MEASUREMENT
 70
     1
  9
$CELWEIGHT
370
    -1
  9
$ENDCAPS
280
     0
  9
$JOINSTYLE
280
     0
  9
$LWDISPLAY
290
     1
  9
$INSUNITS
 70
     4
  9
$HYPERLINKBASE
  1

  9
$STYLESHEET
  1

  9
$XEDIT
290
     1
  9
$CEPSNTYPE
380
     0
  9
$PSTYLEMODE
290
     1
  9
$FINGERPRINTGUID
  2
{0de18d2c-8101-4e67-85a5-ee55be4f81d5}
  9
$VERSIONGUID
  2
{FAEB1C32-E019-11D5-929B-00C0DF256EC4}
  9
$EXTNAMES
290
     1
  9
$PSVPSCALE
 40
0.0
  9
$OLESTARTUP
290
     0
  0
ENDSEC
  0
SECTION
  2
CLASSES
  0
CLASS
  1
ACDBDICTIONARYWDFLT
  2
AcDbDictionaryWithDefault
  3
ObjectDBX Classes
 90
        0
280
     0
281
     0
  0
CLASS
  1
VISUALSTYLE
  2
AcDbVisualStyle
  3
ObjectDBX Classes
 90
     4095
280
     0
281
     0
  0
CLASS
  1
MATERIAL
  2
AcDbMaterial
  3
ObjectDBX Classes
 90
     1153
280
     0
281
     0
  0
CLASS
  1
SCALE
  2
AcDbScale
  3
ObjectDBX Classes
 90
     1153
280
     0
281
     0
  0
CLASS
  1
TABLESTYLE
  2
AcDbTableStyle
  3
ObjectDBX Classes
 90
     4095
280
     0
281
     0
  0
CLASS
  1
MLEADERSTYLE
  2
AcDbMLeaderStyle
  3
ACDB_MLEADERSTYLE_CLASS
 90
     4095
280
     0
281
     0
  0
CLASS
  1
SUN
  2
AcDbSun
  3
SCENEOE
 90
     1153
280
     0
281
     0
  0
CLASS
  1
ACDBPLACEHOLDER
  2
AcDbPlaceHolder
  3
ObjectDBX Classes
 90
        0
280
     0
281
     0
  0
CLASS
  1
LAYOUT
  2
AcDbLayout
  3
ObjectDBX Classes
 90
        0
280
     0
281
     0
  0
ENDSEC
  0
SECTION
  2
TABLES
  0
TABLE
  2
VPORT
  5
8
330
0
100
AcDbSymbolTable
 70
     1
  0
VPORT
  5
29
330
8
100
AcDbSymbolTableRecord
100
AcDbViewportTableRecord
  2
*Active
 70
     0
 10
0.0
 20
0.0
 11
1.0
 21
1.0
 12
105.0
 22
148.5
 13
0.0
 23
0.0
 14
10.0
 24
10.0
 15
10.0
 25
10.0
 16
0.0
 26
0.0
 36
1.0
 17
0.0
 27
0.0
 37
0.0
 40
297.0
 41
0.7070707071
 42
50.0
 43
0.0
 44
0.0
 50
0.0
 51
0.0
 71
     0
 72
  2000
 73
     1
 74
     3
 75
     0
 76
     0
 77
     0
 78
     0
281
     0
 65
     1
110
0.0
120
0.0
130
0.0
111
1.0
121
0.0
131
0.0
112
0.0
122
1.0
132
0.0
 79
     0
146
0.0
  0
ENDTAB
  0
TABLE
  2
LTYPE
  5
5
330
0
100
AcDbSymbolTable
 70
     6
  0
LTYPE
  5
14
330
5
100
AcDbSymbolTableRecord
100
AcDbLinetypeTableRecord
  2
ByBlock
 70
     0
  3

 72
    65
 73
     0
 40
0.0
  0
LTYPE
  5
15
330
5
100
AcDbSymbolTableRecord
100
AcDbLinetypeTableRecord
  2
ByLayer
 70
     0
  3

 72
    65
 73
     0
 40
0.0
  0
LTYPE
  5
16
330
5
100
AcDbSymbolTableRecord
100
AcDbLinetypeTableRecord
  2
Continuous
 70
     0
  3
Solid line
 72
    65
 73
     0
 40
0.0
  0
LTYPE
  5
6E
330
5
100
AcDbSymbolTableRecord
100
AcDbLinetypeTableRecord
  2
HIDDEN
 70
     0
  3
Hidden __ __ __ __ __ __ __ __ __ __ __ __ __ __
 72
    65
 73
     2
 40
1.905
 49
1.27
 74
     0
 49
-0.635
 74
     0
  0
LTYPE
  5
6F
330
5
100
AcDbSymbolTableRecord
100
AcDbLinetypeTableRecord
  2
PHANTOM
 70
     0
  3
Phantom ______  __  __  ______  __  __  ______
 72
    65
 73
     6
 40
12.7
 49
6.35
 74
     0
 49
-1.27
 74
     0
 49
1.27
 74
     0
 49
-1.27
 74
     0
 49
1.27
 74
     0
 49
-1.27
 74
     0
  0
LTYPE
  5
70
330
5
100
AcDbSymbolTableRecord
100
AcDbLinetypeTableRecord
  2
CENTER
 70
     0
  3
Center ____ _ ____ _ ____ _ ____ _ ____ _ ____
 72
    65
 73
     4
 40
10.16
 49
6.35
 74
     0
 49
-1.27
 74
     0
 49
1.27
 74
     0
 49
-1.27
 74
     0
  0
LTYPE
  5
71
330
5
100
AcDbSymbolTableRecord
100
AcDbLinetypeTableRecord
  2
CENTERX2
 70
     0
  3
Center (2x) ________  __  ________  __  _____
 72
    65
 73
     4
 40
20.32
 49
12.7
 74
     0
 49
-2.54
 74
     0
 49
2.54
 74
     0
 49
-2.54
 74
     0
  0
LTYPE
  5
72
330
5
100
AcDbSymbolTableRecord
100
AcDbLinetypeTableRecord
  2
DOT2
 70
     0
  3
Dot (.5x) ........................................
 72
    65
 73
     2
 40
0.635
 49
0.0
 74
     0
 49
-0.635
 74
     0
  0
ENDTAB
  0
TABLE
  2
LAYER
  5
2
330
0
100
AcDbSymbolTable
 70
     7
  0
LAYER
  5
10
330
2
100
AcDbSymbolTableRecord
100
AcDbLayerTableRecord
  2
0
 70
     0
 62
     7
  6
Continuous
370
    -3
390
F
  0
LAYER
  5
73
330
2
100
AcDbSymbolTableRecord
100
AcDbLayerTableRecord
  2
FORMAT
 70
     0
 62
     7
  6
Continuous
370
    -3
390
F
  0
LAYER
  5
74
330
2
100
AcDbSymbolTableRecord
100
AcDbLayerTableRecord
  2
VORLAGE
 70
     0
 62
     7
  6
Continuous
370
    -3
390
F
  0
LAYER
  5
75
330
2
100
AcDbSymbolTableRecord
100
AcDbLayerTableRecord
  2
1
 70
     0
 62
   179
  6
Continuous
370
    -3
390
F
  0
LAYER
  5
76
330
2
100
AcDbSymbolTableRecord
100
AcDbLayerTableRecord
  2
LAYER0
 70
     0
 62
     7
  6
Continuous
370
    -3
390
F
  0
LAYER
  5
77
330
2
100
AcDbSymbolTableRecord
100
AcDbLayerTableRecord
  2
BEMASSUNG
 70
     0
 62
     1
  6
Continuous
370
    -3
390
F
  0
LAYER
  5
78
330
2
100
AcDbSymbolTableRecord
100
AcDbLayerTableRecord
  2
LOGOS
 70
     0
 62
     7
  6
Continuous
370
    -3
390
F
  0
ENDTAB
  0
TABLE
  2
STYLE
  5
3
330
0
100
AcDbSymbolTable
 70
     5
  0
STYLE
  5
11
330
3
100
AcDbSymbolTableRecord
100
AcDbTextStyleTableRecord
  2
STANDARD
 70
     0
 40
0.0
 41
1.0
 50
0.0
 71
     0
 42
3.5
  3
ARIAL.TTF
  4

1001
ACAD
1000
ARIAL
1071
       34
  0
STYLE
  5
83
330
3
100
AcDbSymbolTableRecord
100
AcDbTextStyleTableRecord
  2
SLDTEXTSTYLE0
 70
     0
 40
0.0
 41
0.948
 50
0.0
 71
     0
 42
3.5
  3
ARIAL.TTF
  4

1001
ACAD
1000
Arial
1071
      290
  0
STYLE
  5
FB
330
3
100
AcDbSymbolTableRecord
100
AcDbTextStyleTableRecord
  2
SLDTEXTSTYLE1
 70
     0
 40
0.0
 41
1.0
 50
0.0
 71
     0
 42
3.5
  3
ARIALUNI.TTF
  4

1001
ACAD
1000
Arial Unicode MS
1071
 33554722
  0
STYLE
  5
101
330
3
100
AcDbSymbolTableRecord
100
AcDbTextStyleTableRecord
  2
SLDTEXTSTYLE2
 70
     0
 40
0.0
 41
0.87
 50
0.0
 71
     0
 42
3.5
  3
ARIALN.TTF
  4

1001
ACAD
1000
Arial Narrow
1071
      290
  0
STYLE
  5
116
330
3
100
AcDbSymbolTableRecord
100
AcDbTextStyleTableRecord
  2
SLDTEXTSTYLE3
 70
     0
 40
0.0
 41
0.948
 50
0.0
 71
     0
 42
3.5
  3
ARIALBD.TTF
  4

1001
ACAD
1000
Arial
1071
 33554722
  0
ENDTAB
  0
TABLE
  2
VIEW
  5
6
330
0
100
AcDbSymbolTable
 70
     0
  0
ENDTAB
  0
TABLE
  2
UCS
  5
7
330
0
100
AcDbSymbolTable
 70
     0
  0
ENDTAB
  0
TABLE
  2
APPID
  5
9
330
0
100
AcDbSymbolTable
 70
     1
  0
APPID
  5
12
330
9
100
AcDbSymbolTableRecord
100
AcDbRegAppTableRecord
  2
ACAD
 70
     0
  0
ENDTAB
  0
TABLE
  2
DIMSTYLE
  5
A
330
0
100
AcDbSymbolTable
 70
     5
100
AcDbDimStyleTable
  0
DIMSTYLE
105
27
330
A
100
AcDbSymbolTableRecord
100
AcDbDimStyleTableRecord
  2
ISO-25
 70
     0
 41
2.5
 42
0.625
 43
3.75
 44
1.25
 73
     0
 74
     0
 77
     1
 78
     8
140
2.5
141
2.5
143
0.0393700787
147
0.625
171
     3
172
     1
178
     0
271
     2
272
     2
274
     3
278
    44
283
     0
284
     8
340
11
  0
DIMSTYLE
105
149
102
{ACAD_REACTORS
330
148
330
28A
102
}
330
A
100
AcDbSymbolTableRecord
100
AcDbDimStyleTableRecord
  2
SLDDIMSTYLE0
 70
     0
 41
3.302
 44
0.0
 45
0.000000001
 73
     0
 74
     0
 77
     1
 78
    12
 79
     3
140
3.5
141
0.0
147
0.875
173
     1
178
     0
271
     2
272
     2
276
     2
284
    12
340
83
  0
DIMSTYLE
105
151
102
{ACAD_REACTORS
330
150
330
15A
330
18B
330
195
330
19F
330
1A9
330
1B3
330
225
330
22F
330
239
102
}
330
A
100
AcDbSymbolTableRecord
100
AcDbDimStyleTableRecord
  2
SLDDIMSTYLE1
 70
     0
 41
3.302
 44
0.0
 45
0.000000001
 73
     0
 74
     0
 77
     1
 78
    12
 79
     3
140
3.5
147
0.875
173
     1
178
     0
271
     2
272
     2
276
     2
284
    12
340
83
  0
DIMSTYLE
105
164
102
{ACAD_REACTORS
330
163
330
171
330
17E
330
264
330
27D
330
291
102
}
330
A
100
AcDbSymbolTableRecord
100
AcDbDimStyleTableRecord
  2
SLDDIMSTYLE2
 70
     0
 41
3.302
 44
0.0
 45
0.000000001
 73
     0
 74
     0
 77
     1
 78
    12
 79
     3
140
3.5
147
0.875
172
     1
173
     1
178
     0
271
     2
272
     2
276
     2
284
    12
289
     0
340
83
  0
DIMSTYLE
105
272
102
{ACAD_REACTORS
330
271
102
}
330
A
100
AcDbSymbolTableRecord
100
AcDbDimStyleTableRecord
  2
SLDDIMSTYLE3
 70
     0
 41
3.302
 44
0.0
 73
     0
 74
     0
 77
     1
 78
    12
 79
     3
140
3.5
147
0.875
173
     1
178
     0
179
     2
272
     2
276
     2
284
    12
340
83
  0
ENDTAB
  0
TABLE
  2
BLOCK_RECORD
  5
1
330
0
100
AcDbSymbolTable
 70
    41
  0
BLOCK_RECORD
  5
1F
330
1
100
AcDbSymbolTableRecord
100
AcDbBlockTableRecord
  2
*Model_Space
340
22
  0
BLOCK_RECORD
  5
1B
330
1
100
AcDbSymbolTableRecord
100
AcDbBlockTableRecord
  2
*Paper_Space
340
1E
  0
BLOCK_RECORD
  5
23
330
1
100
AcDbSymbolTableRecord
100
AcDbBlockTableRecord
  2
*Paper_Space0
340
26
  0
BLOCK_RECORD
  5
79
330
1
100
AcDbSymbolTableRecord
100
AcDbBlockTableRecord
  2
Block1
340
0
  0
BLOCK_RECORD
  5
80
330
1
100
AcDbSymbolTableRecord
100
AcDbBlockTableRecord
  2
SW_NOTE_0
340
0
102
{BLKREFS
331
85
102
}
  0
BLOCK_RECORD
  5
86
330
1
100
AcDbSymbolTableRecord
100
AcDbBlockTableRecord
  2
Werkstückkanten DE
340
0
  0
BLOCK_RECORD
  5
9D
330
1
100
AcDbSymbolTableRecord
100
AcDbBlockTableRecord
  2
SW_NOTE_0_1
340
0
102
{BLKREFS
331
A2
102
}
  0
BLOCK_RECORD
  5
A5
330
1
100
AcDbSymbolTableRecord
100
AcDbBlockTableRecord
  2
Schleifrichtung+mattiert
340
0
  0
BLOCK_RECORD
  5
B2
330
1
100
AcDbSymbolTableRecord
100
AcDbBlockTableRecord
  2
SW_NOTE_0_2
340
0
102
{BLKREFS
331
B6
102
}
  0
BLOCK_RECORD
  5
B7
330
1
100
AcDbSymbolTableRecord
100
AcDbBlockTableRecord
  2
SW_NOTE_0_3
340
0
102
{BLKREFS
331
BB
102
}
  0
BLOCK_RECORD
  5
BC
330
1
100
AcDbSymbolTableRecord
100
AcDbBlockTableRecord
  2
Schleifrichtungspfeil senkrecht
340
0
  0
BLOCK_RECORD
  5
C4
330
1
100
AcDbSymbolTableRecord
100
AcDbBlockTableRecord
  2
Block1_1
340
0
102
{BLKREFS
331
114
102
}
  0
BLOCK_RECORD
  5
D2
330
1
100
AcDbSymbolTableRecord
100
AcDbBlockTableRecord
  2
SW_NOTE_0_4
340
0
102
{BLKREFS
331
D7
102
}
  0
BLOCK_RECORD
  5
D8
330
1
100
AcDbSymbolTableRecord
100
AcDbBlockTableRecord
  2
Block2
340
0
102
{BLKREFS
331
115
102
}
  0
BLOCK_RECORD
  5
F8
330
1
100
AcDbSymbolTableRecord
100
AcDbBlockTableRecord
  2
SW_NOTE_0_5
340
0
102
{BLKREFS
331
FD
102
}
  0
BLOCK_RECORD
  5
FE
330
1
100
AcDbSymbolTableRecord
100
AcDbBlockTableRecord
  2
SW_NOTE_0_6
340
0
102
{BLKREFS
331
105
102
}
  0
BLOCK_RECORD
  5
128
330
1
100
AcDbSymbolTableRecord
100
AcDbBlockTableRecord
  2
SW_NOTE_0_7
340
0
102
{BLKREFS
331
134
102
}
  0
BLOCK_RECORD
  5
14A
330
1
100
AcDbSymbolTableRecord
100
AcDbBlockTableRecord
  2
_D
340
0
  0
BLOCK_RECORD
  5
152
330
1
100
AcDbSymbolTableRecord
100
AcDbBlockTableRecord
  2
_D_1
340
0
  0
BLOCK_RECORD
  5
15B
330
1
100
AcDbSymbolTableRecord
100
AcDbBlockTableRecord
  2
_D_2
340
0
  0
BLOCK_RECORD
  5
165
330
1
100
AcDbSymbolTableRecord
100
AcDbBlockTableRecord
  2
_D_3
340
0
  0
BLOCK_RECORD
  5
172
330
1
100
AcDbSymbolTableRecord
100
AcDbBlockTableRecord
  2
_D_4
340
0
  0
BLOCK_RECORD
  5
17F
330
1
100
AcDbSymbolTableRecord
100
AcDbBlockTableRecord
  2
_D_5
340
0
  0
BLOCK_RECORD
  5
18C
330
1
100
AcDbSymbolTableRecord
100
AcDbBlockTableRecord
  2
_D_6
340
0
  0
BLOCK_RECORD
  5
196
330
1
100
AcDbSymbolTableRecord
100
AcDbBlockTableRecord
  2
_D_7
340
0
  0
BLOCK_RECORD
  5
1A0
330
1
100
AcDbSymbolTableRecord
100
AcDbBlockTableRecord
  2
_D_8
340
0
  0
BLOCK_RECORD
  5
1AA
330
1
100
AcDbSymbolTableRecord
100
AcDbBlockTableRecord
  2
_D_9
340
0
  0
BLOCK_RECORD
  5
1B4
330
1
100
AcDbSymbolTableRecord
100
AcDbBlockTableRecord
  2
_D_10
340
0
  0
BLOCK_RECORD
  5
1BD
330
1
100
AcDbSymbolTableRecord
100
AcDbBlockTableRecord
  2
SW_CENTERMARKSYMBOL_0
340
0
102
{BLKREFS
331
1C8
102
}
  0
BLOCK_RECORD
  5
1C9
330
1
100
AcDbSymbolTableRecord
100
AcDbBlockTableRecord
  2
SW_CENTERMARKSYMBOL_1
340
0
102
{BLKREFS
331
1D4
102
}
  0
BLOCK_RECORD
  5
1D5
330
1
100
AcDbSymbolTableRecord
100
AcDbBlockTableRecord
  2
SW_CENTERMARKSYMBOL_2
340
0
102
{BLKREFS
331
1E0
102
}
  0
BLOCK_RECORD
  5
1E1
330
1
100
AcDbSymbolTableRecord
100
AcDbBlockTableRecord
  2
SW_CENTERMARKSYMBOL_3
340
0
102
{BLKREFS
331
1EC
102
}
  0
BLOCK_RECORD
  5
1ED
330
1
100
AcDbSymbolTableRecord
100
AcDbBlockTableRecord
  2
SW_CENTERMARKSYMBOL_4
340
0
102
{BLKREFS
331
1F8
102
}
  0
BLOCK_RECORD
  5
1F9
330
1
100
AcDbSymbolTableRecord
100
AcDbBlockTableRecord
  2
SW_CENTERMARKSYMBOL_5
340
0
102
{BLKREFS
331
204
102
}
  0
BLOCK_RECORD
  5
205
330
1
100
AcDbSymbolTableRecord
100
AcDbBlockTableRecord
  2
SW_CENTERMARKSYMBOL_6
340
0
102
{BLKREFS
331
210
102
}
  0
BLOCK_RECORD
  5
226
330
1
100
AcDbSymbolTableRecord
100
AcDbBlockTableRecord
  2
_D_11
340
0
  0
BLOCK_RECORD
  5
230
330
1
100
AcDbSymbolTableRecord
100
AcDbBlockTableRecord
  2
_D_12
340
0
  0
BLOCK_RECORD
  5
23A
330
1
100
AcDbSymbolTableRecord
100
AcDbBlockTableRecord
  2
_D_13
340
0
  0
BLOCK_RECORD
  5
265
330
1
100
AcDbSymbolTableRecord
100
AcDbBlockTableRecord
  2
_D_14
340
0
  0
BLOCK_RECORD
  5
273
330
1
100
AcDbSymbolTableRecord
100
AcDbBlockTableRecord
  2
_D_15
340
0
  0
BLOCK_RECORD
  5
27E
330
1
100
AcDbSymbolTableRecord
100
AcDbBlockTableRecord
  2
_D_16
340
0
  0
BLOCK_RECORD
  5
28B
330
1
100
AcDbSymbolTableRecord
100
AcDbBlockTableRecord
  2
_D_17
340
0
  0
BLOCK_RECORD
  5
292
330
1
100
AcDbSymbolTableRecord
100
AcDbBlockTableRecord
  2
_D_18
340
0
  0
ENDTAB
  0
ENDSEC
  0
SECTION
  2
BLOCKS
  0
BLOCK
  5
20
330
1F
100
AcDbEntity
  8
0
100
AcDbBlockBegin
  2
*Model_Space
 70
     0
 10
0.0
 20
0.0
 30
0.0
  3
*Model_Space
  1

  0
ENDBLK
  5
21
330
1F
100
AcDbEntity
  8
0
100
AcDbBlockEnd
  0
BLOCK
  5
1C
330
1B
100
AcDbEntity
 67
     1
  8
0
100
AcDbBlockBegin
  2
*Paper_Space
 70
     0
 10
0.0
 20
0.0
 30
0.0
  3
*Paper_Space
  1

  0
ENDBLK
  5
1D
330
1B
100
AcDbEntity
 67
     1
  8
0
100
AcDbBlockEnd
  0
BLOCK
  5
24
330
23
100
AcDbEntity
  8
0
100
AcDbBlockBegin
  2
*Paper_Space0
 70
     0
 10
0.0
 20
0.0
 30
0.0
  3
*Paper_Space0
  1

  0
ENDBLK
  5
25
330
23
100
AcDbEntity
  8
0
100
AcDbBlockEnd
  0
BLOCK
  5
7A
330
79
100
AcDbEntity
  8
0
100
AcDbBlockBegin
  2
Block1
 70
     0
 10
0.0
 20
0.0
 30
0.0
  3
Block1
  1

  0
ARC
  5
7C
330
79
100
AcDbEntity
  8
0
  6
Continuous
 62
     7
370
    18
100
AcDbCircle
 10
540.152787322
 20
157.1730042205
 30
0.0
 40
2.041521022103069
100
AcDbArc
 50
270.0
 51
90.0
  0
ARC
  5
7D
330
79
100
AcDbEntity
  8
0
  6
Continuous
 62
     7
370
    18
100
AcDbCircle
 10
533.7278363882
 20
157.1730042205
 30
0.0
 40
2.041521022103069
100
AcDbArc
 50
90.0
 51
270.0
  0
LINE
  5
7E
330
79
100
AcDbEntity
  8
0
  6
Continuous
 62
     7
370
    18
100
AcDbLine
 10
533.7278363882
 20
159.2145252426
 30
0.0
 11
540.152787322
 21
159.2145252426
 31
0.0
  0
LINE
  5
7F
330
79
100
AcDbEntity
  8
0
  6
Continuous
 62
     7
370
    18
100
AcDbLine
 10
540.152787322
 20
155.1314831984
 30
0.0
 11
533.7278363882
 21
155.1314831984
 31
0.0
  0
INSERT
  5
85
330
79
100
AcDbEntity
  8
0
  6
Continuous
 62
     7
370
     0
100
AcDbBlockReference
  2
SW_NOTE_0
 10
545.3826769281
 20
154.3828978528
 30
0.0
  0
ENDBLK
  5
7B
330
79
100
AcDbEntity
  8
0
100
AcDbBlockEnd
  0
BLOCK
  5
81
330
80
100
AcDbEntity
  8
0
100
AcDbBlockBegin
  2
SW_NOTE_0
 70
     0
 10
0.0
 20
0.0
 30
0.0
  3
SW_NOTE_0
  1

  0
MTEXT
  5
84
330
80
100
AcDbEntity
  8
0
  6
Continuous
 62
     0
370
     0
100
AcDbMText
 10
0.0
 20
4.5117370892
 30
0.0
 40
3.5
 41
0.0
 71
     1
 72
     1
  1
Prüfmaß
  7
SLDTEXTSTYLE0
 73
     1
 44
1.0
  0
ENDBLK
  5
82
330
80
100
AcDbEntity
  8
0
100
AcDbBlockEnd
  0
BLOCK
  5
87
330
86
100
AcDbEntity
  8
0
100
AcDbBlockBegin
  2
Werkstückkanten DE
 70
     2
 10
0.0
 20
0.0
 30
0.0
  3
Werkstückkanten DE
  1

  0
LINE
  5
89
330
86
100
AcDbEntity
  8
0
  6
Continuous
 62
     7
370
    18
100
AcDbLine
 10
27.0931409182
 20
7.7123106012
 30
0.0
 11
27.0931409182
 21
12.7123106012
 31
0.0
  0
LINE
  5
8A
330
86
100
AcDbEntity
  8
0
  6
Continuous
 62
     7
370
    18
100
AcDbLine
 10
26.0931409182
 20
6.7123106012
 30
0.0
 11
36.0931409182
 21
6.7123106012
 31
0.0
  0
LINE
  5
8B
330
86
100
AcDbEntity
  8
0
  6
Continuous
 62
     7
370
    18
100
AcDbLine
 10
26.0931409182
 20
6.7123106012
 30
0.0
 11
20.880830317
 21
1.5
 31
0.0
  0
LINE
  5
8C
330
86
100
AcDbEntity
  8
0
  6
Continuous
 62
     7
370
    18
100
AcDbLine
 10
20.880830317
 20
1.5
 30
0.0
 11
22.4158663354
 21
3.5004978875
 31
0.0
  0
LINE
  5
8D
330
86
100
AcDbEntity
  8
0
  6
Continuous
 62
     7
370
    18
100
AcDbLine
 10
22.4158663354
 20
3.5004978875
 30
0.0
 11
22.8813282044
 21
3.0350360185
 31
0.0
  0
LINE
  5
8E
330
86
100
AcDbEntity
  8
0
  6
Continuous
 62
     7
370
    18
100
AcDbLine
 10
22.8813282044
 20
3.0350360185
 30
0.0
 11
20.880830317
 21
1.5
 31
0.0
  0
LINE
  5
8F
330
86
100
AcDbEntity
  8
0
  6
Continuous
 62
     7
370
    35
100
AcDbLine
 10
20.880830317
 20
1.5
 30
0.0
 11
20.880830317
 21
7.5
 31
0.0
  0
LINE
  5
90
330
86
100
AcDbEntity
  8
0
  6
Continuous
 62
     7
370
    35
100
AcDbLine
 10
20.880830317
 20
1.5
 30
0.0
 11
26.880830317
 21
1.5
 31
0.0
  0
LINE
  5
91
330
86
100
AcDbEntity
  8
0
  6
Continuous
 62
     7
370
    35
100
AcDbLine
 10
34.0931409182
 20
3.0
 30
0.0
 11
40.0931409182
 21
3.0
 31
0.0
  0
LINE
  5
92
330
86
100
AcDbEntity
  8
0
  6
Continuous
 62
     7
370
    35
100
AcDbLine
 10
40.0931409182
 20
3.0
 30
0.0
 11
40.0931409182
 21
-3.0
 31
0.0
  0
LINE
  5
93
330
86
100
AcDbEntity
  8
0
  6
Continuous
 62
     7
370
    18
100
AcDbLine
 10
40.0931409182
 20
3.0
 30
0.0
 11
43.8054515194
 21
6.7123106012
 31
0.0
  0
LINE
  5
94
330
86
100
AcDbEntity
  8
0
  6
Continuous
 62
     7
370
    18
100
AcDbLine
 10
43.8054515194
 20
6.7123106012
 30
0.0
 11
53.8054515194
 21
6.7123106012
 31
0.0
  0
LINE
  5
95
330
86
100
AcDbEntity
  8
0
  6
Continuous
 62
     7
370
    18
100
AcDbLine
 10
27.0931409182
 20
7.7123106012
 30
0.0
 11
32.0931409182
 21
7.7123106012
 31
0.0
  0
LINE
  5
96
330
86
100
AcDbEntity
  8
0
  6
Continuous
 62
     7
370
    18
100
AcDbLine
 10
40.0931409182
 20
3.0
 30
0.0
 11
41.6281769367
 21
5.0004978875
 31
0.0
  0
LINE
  5
97
330
86
100
AcDbEntity
  8
0
  6
Continuous
 62
     7
370
    18
100
AcDbLine
 10
41.6281769367
 20
5.0004978875
 30
0.0
 11
42.0936388057
 21
4.5350360185
 31
0.0
  0
LINE
  5
98
330
86
100
AcDbEntity
  8
0
  6
Continuous
 62
     7
370
    18
100
AcDbLine
 10
42.0936388057
 20
4.5350360185
 30
0.0
 11
40.0931409182
 21
3.0
 31
0.0
  0
LINE
  5
99
330
86
100
AcDbEntity
  8
0
  6
Continuous
 62
     7
370
    18
100
AcDbLine
 10
44.8054515194
 20
12.7123106012
 30
0.0
 11
44.8054515194
 21
7.7123106012
 31
0.0
  0
LINE
  5
9A
330
86
100
AcDbEntity
  8
0
  6
Continuous
 62
     7
370
    18
100
AcDbLine
 10
44.8054515194
 20
7.7123106012
 30
0.0
 11
49.8054515194
 21
7.7123106012
 31
0.0
  0
HATCH
  5
9B
330
86
100
AcDbEntity
  8
0
  6
Continuous
 62
     7
100
AcDbHatch
 10
0.0
 20
0.0
 30
0.0
210
0.0
220
0.0
230
1.0
  2
SOLID
 70
     1
 71
     0
 91
        1
 92
        0
 93
        3
 72
     1
 10
20.88083031696525
 20
1.499999999999918
 11
22.41586633542109
 21
3.500497887476778
 72
     1
 10
22.41586633542109
 20
3.500497887476778
 11
22.88132820444211
 21
3.035036018455783
 72
     1
 10
22.88132820444211
 20
3.035036018455783
 11
20.88083031696525
 21
1.499999999999918
 97
        0
 75
     0
 76
     1
 98
        1
 10
0.0
 20
0.0
  0
HATCH
  5
9C
330
86
100
AcDbEntity
  8
0
  6
Continuous
 62
     7
100
AcDbHatch
 10
0.0
 20
0.0
 30
0.0
210
0.0
220
0.0
230
1.0
  2
SOLID
 70
     1
 71
     0
 91
        1
 92
        0
 93
        3
 72
     1
 10
42.0936388056714
 20
4.535036018455754
 11
40.09314091819458
 21
2.999999999999892
 72
     1
 10
40.09314091819458
 20
2.999999999999892
 11
41.6281769366504
 21
5.000497887476764
 72
     1
 10
41.6281769366504
 20
5.000497887476764
 11
42.0936388056714
 21
4.535036018455754
 97
        0
 75
     0
 76
     1
 98
        1
 10
0.0
 20
0.0
  0
INSERT
  5
A2
330
86
100
AcDbEntity
  8
0
  6
Continuous
 62
     7
370
    18
100
AcDbBlockReference
  2
SW_NOTE_0_1
 10
-16.5296667739
 20
8.0719974576
 30
0.0
  0
ATTDEF
  5
A3
330
86
100
AcDbEntity
  8
0
  6
Continuous
 62
     7
370
    18
100
AcDbText
 10
45.5382827001
 20
8.730024094
 30
0.0
 40
3.5
  1
-0,3
 41
0.948
  7
SLDTEXTSTYLE0
 11
45.5382827001
 21
7.6943422758
 31
0.0
100
AcDbAttributeDefinition
  3

  2
WERT_2
 70
     0
 74
     1
  0
ATTDEF
  5
A4
330
86
100
AcDbEntity
  8
0
  6
Continuous
 62
     7
370
    18
100
AcDbText
 10
27.3508161078
 20
8.7387064472
 30
0.0
 40
3.5
  1
+0,3
 41
0.948
  7
SLDTEXTSTYLE0
 11
27.3508161078
 21
7.703024629
 31
0.0
100
AcDbAttributeDefinition
  3

  2
WERT_1
 70
     0
 74
     1
  0
ENDBLK
  5
88
330
86
100
AcDbEntity
  8
0
100
AcDbBlockEnd
  0
BLOCK
  5
9E
330
9D
100
AcDbEntity
  8
0
100
AcDbBlockBegin
  2
SW_NOTE_0_1
 70
     0
 10
0.0
 20
0.0
 30
0.0
  3
SW_NOTE_0_1
  1

  0
MTEXT
  5
A0
330
9D
100
AcDbEntity
  8
0
  6
Continuous
 62
     0
370
    18
100
AcDbMText
 10
0.0
 20
4.5117370892
 30
0.0
 40
3.5
 41
0.0
 71
     1
 72
     1
  1
Werkstückkanten
  7
SLDTEXTSTYLE0
 73
     1
 44
1.0
  0
MTEXT
  5
A1
330
9D
100
AcDbEntity
  8
0
  6
Continuous
 62
     0
370
    18
100
AcDbMText
 10
0.0
 20
0.0006261389
 30
0.0
 40
3.5
 41
0.0
 71
     1
 72
     1
  1
DIN ISO 13715
  7
SLDTEXTSTYLE0
 73
     1
 44
1.0
  0
ENDBLK
  5
9F
330
9D
100
AcDbEntity
  8
0
100
AcDbBlockEnd
  0
BLOCK
  5
A6
330
A5
100
AcDbEntity
  8
0
100
AcDbBlockBegin
  2
Schleifrichtung+mattiert
 70
     0
 10
0.0
 20
0.0
 30
0.0
  3
Schleifrichtung+mattiert
  1

  0
LINE
  5
A8
330
A5
100
AcDbEntity
  8
0
  6
CENTER
 62
     7
370
    25
100
AcDbLine
 10
257.5643835569
 20
128.8441861289
 30
0.0
 11
277.114664664
 21
128.8441861289
 31
0.0
  0
LINE
  5
A9
330
A5
100
AcDbEntity
  8
FORMAT
370
    18
100
AcDbLine
 10
204.5055437613
 20
129.9367184644
 30
0.0
 11
212.5055437613
 21
129.9367184644
 31
0.0
  0
LINE
  5
AA
330
A5
100
AcDbEntity
  8
FORMAT
370
    25
100
AcDbLine
 10
201.0055437613
 20
129.9367184644
 30
0.0
 11
204.5055437613
 21
130.3975022059
 31
0.0
  0
LINE
  5
AB
330
A5
100
AcDbEntity
  8
FORMAT
370
    25
100
AcDbLine
 10
204.5055437613
 20
130.3975022059
 30
0.0
 11
204.5055437613
 21
129.4759347228
 31
0.0
  0
LINE
  5
AC
330
A5
100
AcDbEntity
  8
FORMAT
370
    25
100
AcDbLine
 10
204.5055437613
 20
129.4759347228
 30
0.0
 11
201.0055437613
 21
129.9367184644
 31
0.0
  0
LINE
  5
AD
330
A5
100
AcDbEntity
  8
FORMAT
  6
Continuous
 62
     7
370
    25
100
AcDbLine
 10
212.5055437613
 20
130.3975022059
 30
0.0
 11
212.5055437613
 21
129.4759347228
 31
0.0
  0
LINE
  5
AE
330
A5
100
AcDbEntity
  8
FORMAT
  6
Continuous
 62
     7
370
    25
100
AcDbLine
 10
212.5055437613
 20
129.4759347228
 30
0.0
 11
216.0055437613
 21
129.9367184644
 31
0.0
  0
LINE
  5
AF
330
A5
100
AcDbEntity
  8
FORMAT
  6
Continuous
 62
     7
370
    25
100
AcDbLine
 10
216.0055437613
 20
129.9367184644
 30
0.0
 11
212.5055437613
 21
130.3975022059
 31
0.0
  0
HATCH
  5
B0
330
A5
100
AcDbEntity
  8
0
  6
Continuous
 62
     7
100
AcDbHatch
 10
0.0
 20
0.0
 30
0.0
210
0.0
220
0.0
230
1.0
  2
SOLID
 70
     1
 71
     0
 91
        1
 92
        0
 93
        3
 72
     1
 10
201.0055437612864
 20
129.9367184643777
 11
204.5055437612864
 21
129.4759347228218
 72
     1
 10
204.5055437612864
 20
129.4759347228218
 11
204.5055437612864
 21
130.3975022059335
 72
     1
 10
204.5055437612864
 20
130.3975022059335
 11
201.0055437612864
 21
129.9367184643777
 97
        0
 75
     0
 76
     1
 98
        1
 10
0.0
 20
0.0
  0
HATCH
  5
B1
330
A5
100
AcDbEntity
  8
0
  6
Continuous
 62
     7
100
AcDbHatch
 10
0.0
 20
0.0
 30
0.0
210
0.0
220
0.0
230
1.0
  2
SOLID
 70
     1
 71
     0
 91
        1
 92
        0
 93
        3
 72
     1
 10
212.5055437612864
 20
129.4759347228218
 11
216.0055437612864
 21
129.9367184643776
 72
     1
 10
216.0055437612864
 20
129.9367184643776
 11
212.5055437612864
 21
130.3975022059335
 72
     1
 10
212.5055437612864
 20
130.3975022059335
 11
212.5055437612864
 21
129.4759347228218
 97
        0
 75
     0
 76
     1
 98
        1
 10
0.0
 20
0.0
  0
INSERT
  5
B6
330
A5
100
AcDbEntity
  8
FORMAT
 62
     7
100
AcDbBlockReference
  2
SW_NOTE_0_2
 10
279.6337272995
 20
126.8964738875
 30
0.0
  0
INSERT
  5
BB
330
A5
100
AcDbEntity
  8
0
  6
Continuous
 62
     7
370
     0
100
AcDbBlockReference
  2
SW_NOTE_0_3
 10
218.8952299572
 20
127.4220030224
 30
0.0
  0
ENDBLK
  5
A7
330
A5
100
AcDbEntity
  8
0
100
AcDbBlockEnd
  0
BLOCK
  5
B3
330
B2
100
AcDbEntity
  8
0
100
AcDbBlockBegin
  2
SW_NOTE_0_2
 70
     0
 10
0.0
 20
0.0
 30
0.0
  3
SW_NOTE_0_2
  1

  0
MTEXT
  5
B5
330
B2
100
AcDbEntity
  8
FORMAT
 62
     0
100
AcDbMText
 10
0.0
 20
4.5117370892
 30
0.0
 40
3.5
 41
0.0
 71
     1
 72
     1
  1
geschliffen/mattiert
  7
SLDTEXTSTYLE0
 73
     1
 44
1.0
  0
ENDBLK
  5
B4
330
B2
100
AcDbEntity
  8
0
100
AcDbBlockEnd
  0
BLOCK
  5
B8
330
B7
100
AcDbEntity
  8
0
100
AcDbBlockBegin
  2
SW_NOTE_0_3
 70
     0
 10
0.0
 20
0.0
 30
0.0
  3
SW_NOTE_0_3
  1

  0
MTEXT
  5
BA
330
B7
100
AcDbEntity
  8
0
  6
Continuous
 62
     0
370
     0
100
AcDbMText
 10
0.0
 20
4.5117370892
 30
0.0
 40
3.5
 41
0.0
 71
     1
 72
     1
  1
Schleifrichtung
  7
SLDTEXTSTYLE0
 73
     1
 44
1.0
  0
ENDBLK
  5
B9
330
B7
100
AcDbEntity
  8
0
100
AcDbBlockEnd
  0
BLOCK
  5
BD
330
BC
100
AcDbEntity
  8
0
100
AcDbBlockBegin
  2
Schleifrichtungspfeil senkrecht
 70
     0
 10
0.0
 20
0.0
 30
0.0
  3
Schleifrichtungspfeil senkrecht
  1

  0
LINE
  5
BF
330
BC
100
AcDbEntity
  8
0
  6
Continuous
 62
     7
370
    18
100
AcDbLine
 10
-180.2961675747
 20
161.707847149
 30
0.0
 11
-180.2961675747
 21
153.5890355268
 31
0.0
  0
HATCH
  5
C0
330
BC
100
AcDbEntity
  8
FORMAT
100
AcDbHatch
 10
0.0
 20
0.0
 30
0.0
210
0.0
220
0.0
230
1.0
  2
SOLID
 70
     1
 71
     0
 91
        1
 92
        0
 93
        3
 72
     1
 10
-180.2797164503988
 20
165.1487704095346
 11
-180.7405001919547
 21
161.6487704095346
 72
     1
 10
-180.7405001919547
 20
161.6487704095346
 11
-180.2797164503988
 21
161.6487704095346
 72
     1
 10
-180.2797164503988
 20
161.6487704095346
 11
-180.2797164503988
 21
165.1487704095346
 97
        0
 75
     0
 76
     1
 98
        1
 10
0.0
 20
0.0
  0
HATCH
  5
C1
330
BC
100
AcDbEntity
  8
FORMAT
100
AcDbHatch
 10
0.0
 20
0.0
 30
0.0
210
0.0
220
0.0
230
1.0
  2
SOLID
 70
     1
 71
     0
 91
        1
 92
        0
 93
        3
 72
     1
 10
-180.2797164503988
 20
161.6487704095346
 11
-179.818932708843
 21
161.6487704095346
 72
     1
 10
-179.818932708843
 20
161.6487704095346
 11
-180.2797164503988
 21
165.1487704095346
 72
     1
 10
-180.2797164503988
 20
165.1487704095346
 11
-180.2797164503988
 21
161.6487704095346
 97
        0
 75
     0
 76
     1
 98
        1
 10
0.0
 20
0.0
  0
HATCH
  5
C2
330
BC
100
AcDbEntity
  8
FORMAT
100
AcDbHatch
 10
0.0
 20
0.0
 30
0.0
210
0.0
220
0.0
230
1.0
  2
SOLID
 70
     1
 71
     0
 91
        1
 92
        0
 93
        3
 72
     1
 10
-180.2797164503988
 20
153.6487704095346
 11
-180.7405001919547
 21
153.6487704095346
 72
     1
 10
-180.7405001919547
 20
153.6487704095346
 11
-180.2797164503988
 21
150.1487704095346
 72
     1
 10
-180.2797164503988
 20
150.1487704095346
 11
-180.2797164503988
 21
153.6487704095346
 97
        0
 75
     0
 76
     1
 98
        1
 10
0.0
 20
0.0
  0
HATCH
  5
C3
330
BC
100
AcDbEntity
  8
FORMAT
100
AcDbHatch
 10
0.0
 20
0.0
 30
0.0
210
0.0
220
0.0
230
1.0
  2
SOLID
 70
     1
 71
     0
 91
        1
 92
        0
 93
        3
 72
     1
 10
-180.2797164503988
 20
150.1487704095346
 11
-179.8189327088429
 21
153.6487704095346
 72
     1
 10
-179.8189327088429
 20
153.6487704095346
 11
-180.2797164503988
 21
153.6487704095346
 72
     1
 10
-180.2797164503988
 20
153.6487704095346
 11
-180.2797164503988
 21
150.1487704095346
 97
        0
 75
     0
 76
     1
 98
        1
 10
0.0
 20
0.0
  0
ENDBLK
  5
BE
330
BC
100
AcDbEntity
  8
0
100
AcDbBlockEnd
  0
BLOCK
  5
C5
330
C4
100
AcDbEntity
  8
0
100
AcDbBlockBegin
  2
Block1_1
 70
     0
 10
0.0
 20
0.0
 30
0.0
  3
Block1_1
  1

  0
CIRCLE
  5
C7
330
C4
100
AcDbEntity
  8
0
  6
Continuous
 62
     7
370
    18
100
AcDbCircle
 10
11.6137544821
 20
9.0896586992
 30
0.0
 40
1.255909011058753
  0
CIRCLE
  5
C8
330
C4
100
AcDbEntity
  8
0
  6
Continuous
 62
     7
370
    18
100
AcDbCircle
 10
11.6137544821
 20
9.0896586992
 30
0.0
 40
2.216014863655655
  0
LINE
  5
C9
330
C4
100
AcDbEntity
  8
0
  6
CENTERX2
 62
     7
370
    18
100
AcDbLine
 10
11.6137544821
 20
9.0896586992
 30
0.0
 11
7.8977396184
 21
9.0896586992
 31
0.0
  0
LINE
  5
CA
330
C4
100
AcDbEntity
  8
0
  6
Continuous
 62
     7
370
    18
100
AcDbLine
 10
8.165753588
 20
6.8736438356
 30
0.0
 11
8.165753588
 21
11.3071584591
 31
0.0
  0
LINE
  5
CB
330
C4
100
AcDbEntity
  8
0
  6
Continuous
 62
     7
370
    18
100
AcDbLine
 10
2.6797147895
 20
10.3455677103
 30
0.0
 11
2.6797147895
 21
7.8337496881
 31
0.0
  0
LINE
  5
CC
330
C4
100
AcDbEntity
  8
0
  6
Continuous
 62
     7
370
    18
100
AcDbLine
 10
2.6797147895
 20
7.8337496881
 30
0.0
 11
8.165753588
 21
6.8736438356
 31
0.0
  0
LINE
  5
CD
330
C4
100
AcDbEntity
  8
0
  6
CENTERX2
 62
     7
370
    18
100
AcDbLine
 10
9.665753588
 20
9.0896586992
 30
0.0
 11
1.1797147895
 21
9.0896586992
 31
0.0
  0
LINE
  5
CE
330
C4
100
AcDbEntity
  8
0
  6
Continuous
 62
     7
370
    18
100
AcDbLine
 10
8.165753588
 20
11.3071584591
 30
0.0
 11
2.6797147895
 21
10.3455677103
 31
0.0
  0
LINE
  5
CF
330
C4
100
AcDbEntity
  8
0
  6
CENTERX2
 62
     7
370
    18
100
AcDbLine
 10
11.6137544821
 20
9.0896586992
 30
0.0
 11
11.6137544821
 21
5.3736438356
 31
0.0
  0
LINE
  5
D0
330
C4
100
AcDbEntity
  8
0
  6
CENTERX2
 62
     7
370
    18
100
AcDbLine
 10
11.6137544821
 20
9.0896586992
 30
0.0
 11
11.6137544821
 21
12.8056735629
 31
0.0
  0
LINE
  5
D1
330
C4
100
AcDbEntity
  8
0
  6
CENTERX2
 62
     7
370
    18
100
AcDbLine
 10
11.6137544821
 20
9.0896586992
 30
0.0
 11
15.3297693458
 21
9.0896586992
 31
0.0
  0
INSERT
  5
D7
330
C4
100
AcDbEntity
  8
0
  6
Continuous
 62
     7
370
     0
100
AcDbBlockReference
  2
SW_NOTE_0_4
 10
2.1031832889
 20
2.3754472768
 30
0.0
  0
ENDBLK
  5
C6
330
C4
100
AcDbEntity
  8
0
100
AcDbBlockEnd
  0
BLOCK
  5
D3
330
D2
100
AcDbEntity
  8
0
100
AcDbBlockBegin
  2
SW_NOTE_0_4
 70
     0
 10
0.0
 20
0.0
 30
0.0
  3
SW_NOTE_0_4
  1

  0
MTEXT
  5
D5
330
D2
100
AcDbEntity
  8
0
  6
Continuous
 62
     0
370
     0
100
AcDbMText
 10
6.590625
 20
2.4492287056
 30
0.0
 40
1.9
 41
0.0
 71
     2
 72
     1
  1
DIN 6  T1 - 
  7
SLDTEXTSTYLE0
 73
     1
 44
1.0
  0
MTEXT
  5
D6
330
D2
100
AcDbEntity
  8
0
  6
Continuous
 62
     0
370
     0
100
AcDbMText
 10
6.6569262624
 20
0.0003397443
 30
0.0
 40
1.9
 41
0.0
 71
     2
 72
     1
  1
Proj.methode 1
  7
SLDTEXTSTYLE0
 73
     1
 44
1.0
  0
ENDBLK
  5
D4
330
D2
100
AcDbEntity
  8
0
100
AcDbBlockEnd
  0
BLOCK
  5
D9
330
D8
100
AcDbEntity
  8
0
100
AcDbBlockBegin
  2
Block2
 70
     0
 10
0.0
 20
0.0
 30
0.0
  3
Block2
  1

  0
ARC
  5
DB
330
D8
100
AcDbEntity
  8
FORMAT
100
AcDbCircle
 10
236.7496365382
 20
57.0990600997
 30
0.0
 40
3.75000000000001
100
AcDbArc
 50
93.8225537293
 51
266.1774462707
  0
ARC
  5
DC
330
D8
100
AcDbEntity
  8
FORMAT
100
AcDbCircle
 10
236.7496365382
 20
57.0990600997
 30
0.0
 40
3.000000000000012
100
AcDbArc
 50
94.7801918472
 51
265.2198081528
  0
ARC
  5
DD
330
D8
100
AcDbEntity
  8
FORMAT
100
AcDbCircle
 10
236.7496365382
 20
57.0990600997
 30
0.0
 40
3.75000000000001
100
AcDbArc
 50
273.8225537293
 51
86.1774462707
  0
ARC
  5
DE
330
D8
100
AcDbEntity
  8
FORMAT
100
AcDbCircle
 10
236.7496365382
 20
57.0990600997
 30
0.0
 40
3.000000000000012
100
AcDbArc
 50
274.7801918472
 51
85.2198081528
  0
ARC
  5
DF
330
D8
100
AcDbEntity
  8
FORMAT
100
AcDbCircle
 10
236.7496365382
 20
58.2320416436
 30
0.0
 40
0.8604027828068846
100
AcDbArc
 50
304.8395134495
 51
73.1084194601
  0
ARC
  5
E0
330
D8
100
AcDbEntity
  8
FORMAT
100
AcDbCircle
 10
236.7496365382
 20
58.2320416436
 30
0.0
 40
1.402314431660661
100
AcDbArc
 50
313.8988153445
 51
79.7306010333
  0
ARC
  5
E1
330
D8
100
AcDbEntity
  8
FORMAT
100
AcDbCircle
 10
236.7496365382
 20
55.4979572256
 30
0.0
 40
0.4915306686725103
100
AcDbArc
 50
300.5716370086
 51
0.0
  0
ARC
  5
E2
330
D8
100
AcDbEntity
  8
FORMAT
100
AcDbCircle
 10
236.7496365382
 20
58.2320416436
 30
0.0
 40
1.402314431660661
100
AcDbArc
 50
100.2693989667
 51
226.1011846555
  0
ARC
  5
E3
330
D8
100
AcDbEntity
  8
FORMAT
100
AcDbCircle
 10
236.7496365382
 20
55.4979572256
 30
0.0
 40
0.9723464985416115
100
AcDbArc
 50
180.0
 51
255.1013518888
  0
ARC
  5
E4
330
D8
100
AcDbEntity
  8
FORMAT
100
AcDbCircle
 10
236.7496365382
 20
55.4979572256
 30
0.0
 40
0.9723464985416115
100
AcDbArc
 50
284.8986481112
 51
0.0
  0
ARC
  5
E5
330
D8
100
AcDbEntity
  8
FORMAT
100
AcDbCircle
 10
236.7496365382
 20
55.4979572256
 30
0.0
 40
0.4915306686725099
100
AcDbArc
 50
180.0
 51
239.4283629914
  0
ARC
  5
E6
330
D8
100
AcDbEntity
  8
FORMAT
100
AcDbCircle
 10
236.7496365382
 20
58.2320416436
 30
0.0
 40
0.8604027828068846
100
AcDbArc
 50
106.8915805399
 51
235.1604865505
  0
LINE
  5
E7
330
D8
100
AcDbEntity
  8
FORMAT
100
AcDbLine
 10
232.5312401271
 20
52.8806636887
 30
0.0
 11
240.9680329492
 21
52.8806636887
 31
0.0
  0
LINE
  5
E8
330
D8
100
AcDbEntity
  8
FORMAT
100
AcDbLine
 10
232.5312401271
 20
61.3174565107
 30
0.0
 11
240.9680329492
 21
61.3174565107
 31
0.0
  0
LINE
  5
E9
330
D8
100
AcDbEntity
  8
FORMAT
100
AcDbLine
 10
232.5312401271
 20
61.3174565107
 30
0.0
 11
232.5312401271
 21
52.8806636887
 31
0.0
  0
LINE
  5
EA
330
D8
100
AcDbEntity
  8
FORMAT
100
AcDbLine
 10
240.9680329492
 20
61.3174565107
 30
0.0
 11
240.9680329492
 21
52.8806636887
 31
0.0
  0
LINE
  5
EB
330
D8
100
AcDbEntity
  8
FORMAT
100
AcDbLine
 10
236.4996365382
 20
60.8407174865
 30
0.0
 11
236.4996365382
 21
60.0886252855
 31
0.0
  0
LINE
  5
EC
330
D8
100
AcDbEntity
  8
FORMAT
100
AcDbLine
 10
236.9996365382
 20
60.8407174865
 30
0.0
 11
236.9996365382
 21
60.0886252855
 31
0.0
  0
LINE
  5
ED
330
D8
100
AcDbEntity
  8
FORMAT
100
AcDbLine
 10
236.4996365382
 20
54.1094949139
 30
0.0
 11
236.4996365382
 21
53.3574027129
 31
0.0
  0
LINE
  5
EE
330
D8
100
AcDbEntity
  8
FORMAT
100
AcDbLine
 10
236.9996365382
 20
54.1094949139
 30
0.0
 11
236.9996365382
 21
53.3574027129
 31
0.0
  0
LINE
  5
EF
330
D8
100
AcDbEntity
  8
FORMAT
100
AcDbLine
 10
236.9996365382
 20
59.6118915504
 30
0.0
 11
236.9996365382
 21
59.0553234597
 31
0.0
  0
LINE
  5
F0
330
D8
100
AcDbEntity
  8
FORMAT
100
AcDbLine
 10
236.4996365382
 20
59.6118915504
 30
0.0
 11
236.4996365382
 21
59.0553234597
 31
0.0
  0
LINE
  5
F1
330
D8
100
AcDbEntity
  8
FORMAT
100
AcDbLine
 10
235.7772900396
 20
55.4979572256
 30
0.0
 11
235.7772900396
 21
57.2215823164
 31
0.0
  0
LINE
  5
F2
330
D8
100
AcDbEntity
  8
FORMAT
100
AcDbLine
 10
237.7219830367
 20
55.4979572256
 30
0.0
 11
237.7219830367
 21
57.2215823164
 31
0.0
  0
LINE
  5
F3
330
D8
100
AcDbEntity
  8
FORMAT
100
AcDbLine
 10
237.2411672068
 20
55.4979572256
 30
0.0
 11
237.2411672068
 21
57.5258613901
 31
0.0
  0
LINE
  5
F4
330
D8
100
AcDbEntity
  8
FORMAT
100
AcDbLine
 10
236.2581058695
 20
55.4979572256
 30
0.0
 11
236.2581058695
 21
57.5258613901
 31
0.0
  0
LINE
  5
F5
330
D8
100
AcDbEntity
  8
FORMAT
100
AcDbLine
 10
236.4996365382
 20
55.0747523127
 30
0.0
 11
236.4996365382
 21
54.5582989296
 31
0.0
  0
LINE
  5
F6
330
D8
100
AcDbEntity
  8
FORMAT
100
AcDbLine
 10
236.9996365382
 20
55.0747523127
 30
0.0
 11
236.9996365382
 21
54.5582989296
 31
0.0
  0
HATCH
  5
F7
330
D8
100
AcDbEntity
  8
FORMAT
100
AcDbHatch
 10
0.0
 20
0.0
 30
0.0
210
0.0
220
0.0
230
1.0
  2
SOLID
 70
     1
 71
     0
 91
        5
 92
        0
 93
        4
 72
     1
 10
240.9680329492058
 20
61.31745651073599
 11
240.9680329492058
 21
52.88066368865002
 72
     1
 10
240.9680329492058
 20
52.88066368865002
 11
232.5312401271199
 21
52.88066368865002
 72
     1
 10
232.5312401271199
 20
52.88066368865002
 11
232.5312401271199
 21
61.31745651073599
 72
     1
 10
232.5312401271199
 20
61.31745651073599
 11
240.9680329492058
 21
61.31745651073599
 97
        0
 92
        0
 93
        4
 72
     2
 10
236.7496365381628
 20
57.09906009969301
 40
3.000000000000011
 50
94.78019184719915
 51
265.2198081528016
 73
     0
 72
     1
 10
236.4996365381628
 20
60.08862528546836
 11
236.4996365381628
 21
60.84071748646695
 72
     2
 10
236.7496365381628
 20
57.09906009969301
 40
3.750000000000007
 50
93.82255372927435
 51
266.1774462707265
 73
     1
 72
     1
 10
236.4996365381628
 20
53.35740271291905
 11
236.4996365381628
 21
54.10949491391764
 97
        0
 92
        0
 93
        8
 72
     1
 10
237.7219830367044
 20
55.49795722557887
 11
237.7219830367044
 21
57.22158231636488
 72
     2
 10
236.7496365381628
 20
58.23204164361047
 40
1.402314431660656
 50
313.8988153445118
 51
439.730601033339
 73
     1
 72
     1
 10
236.9996365381628
 20
59.61189155039155
 11
236.9996365381628
 21
59.05532345967459
 72
     2
 10
236.7496365381628
 20
58.23204164361047
 40
0.8604027828068782
 50
286.8915805399266
 51
415.1604865505413
 73
     0
 72
     1
 10
237.2411672068353
 20
57.52586139012261
 11
237.2411672068353
 21
55.49795722557887
 72
     2
 10
236.7496365381628
 20
55.49795722557887
 40
0.4915306686725041
 50
0.0
 51
59.42836299135124
 73
     0
 72
     1
 10
236.9996365381628
 20
55.07475231274628
 11
236.9996365381628
 21
54.55829892958712
 72
     2
 10
236.7496365381628
 20
55.49795722557887
 40
0.9723464985416097
 50
284.8986481111874
 51
360.0000000000008
 73
     1
 97
        0
 92
        0
 93
        8
 72
     2
 10
236.7496365381628
 20
55.49795722557887
 40
0.4915306686725041
 50
120.5716370086484
 51
180.0
 73
     0
 72
     1
 10
236.2581058694904
 20
55.49795722557887
 11
236.2581058694904
 21
57.52586139012261
 72
     2
 10
236.7496365381628
 20
58.23204164361047
 40
0.8604027828068782
 50
124.839513449458
 51
253.108419460075
 73
     0
 72
     1
 10
236.4996365381628
 20
59.05532345967459
 11
236.4996365381628
 21
59.61189155039155
 72
     2
 10
236.7496365381628
 20
58.23204164361047
 40
1.402314431660656
 50
100.2693989666618
 51
226.1011846554898
 73
     1
 72
     1
 10
235.7772900396212
 20
57.22158231636488
 11
235.7772900396212
 21
55.49795722557887
 72
     2
 10
236.7496365381628
 20
55.49795722557887
 40
0.9723464985416097
 50
180.0
 51
255.1013518888143
 73
     1
 72
     1
 10
236.4996365381628
 20
54.55829892958712
 11
236.4996365381628
 21
55.07475231274628
 97
        0
 92
        0
 93
        4
 72
     2
 10
236.7496365381628
 20
57.09906009969301
 40
3.000000000000011
 50
274.7801918471999
 51
445.2198081528016
 73
     0
 72
     1
 10
236.9996365381628
 20
54.10949491391764
 11
236.9996365381628
 21
53.35740271291905
 72
     2
 10
236.7496365381628
 20
57.09906009969301
 40
3.750000000000007
 50
273.8225537292751
 51
446.1774462707265
 73
     1
 72
     1
 10
236.9996365381628
 20
60.84071748646695
 11
236.9996365381628
 21
60.08862528546836
 97
        0
 75
     0
 76
     1
 98
        1
 10
0.0
 20
0.0
  0
INSERT
  5
FD
330
D8
100
AcDbEntity
  8
FORMAT
 62
     7
100
AcDbBlockReference
  2
SW_NOTE_0_5
 10
232.2514665163
 20
47.7232938825
 30
0.0
  0
INSERT
  5
105
330
D8
100
AcDbEntity
  8
0
  6
Continuous
 62
     7
370
     0
100
AcDbBlockReference
  2
SW_NOTE_0_6
 10
244.0723034979
 20
57.1176018272
 30
0.0
  0
ENDBLK
  5
DA
330
D8
100
AcDbEntity
  8
0
100
AcDbBlockEnd
  0
BLOCK
  5
F9
330
F8
100
AcDbEntity
  8
0
100
AcDbBlockBegin
  2
SW_NOTE_0_5
 70
     0
 10
0.0
 20
0.0
 30
0.0
  3
SW_NOTE_0_5
  1

  0
MTEXT
  5
FC
330
F8
100
AcDbEntity
  8
FORMAT
 62
     0
100
AcDbMText
 10
0.0
 20
3.8651911469
 30
0.0
 40
3.0
 41
0.0
 71
     1
 72
     1
  1
ECO
  7
SLDTEXTSTYLE1
 73
     1
 44
1.0
  0
ENDBLK
  5
FA
330
F8
100
AcDbEntity
  8
0
100
AcDbBlockEnd
  0
BLOCK
  5
FF
330
FE
100
AcDbEntity
  8
0
100
AcDbBlockBegin
  2
SW_NOTE_0_6
 70
     0
 10
0.0
 20
0.0
 30
0.0
  3
SW_NOTE_0_6
  1

  0
MTEXT
  5
102
330
FE
100
AcDbEntity
  8
0
  6
Continuous
 62
     0
370
     0
100
AcDbMText
 10
0.0
 20
3.2226693494
 30
0.0
 40
2.5
 41
0.0
 71
     1
 72
     1
  1
ECO Schulte GmbH & Co. KG
  7
SLDTEXTSTYLE2
 73
     1
 44
1.0
  0
MTEXT
  5
103
330
FE
100
AcDbEntity
  8
0
  6
Continuous
 62
     0
370
     0
100
AcDbMText
 10
0.0
 20
-0.2773307586
 30
0.0
 40
2.5
 41
0.0
 71
     1
 72
     1
  1
Postfach 206
  7
SLDTEXTSTYLE2
 73
     1
 44
1.0
  0
MTEXT
  5
104
330
FE
100
AcDbEntity
  8
0
  6
Continuous
 62
     0
370
     0
100
AcDbMText
 10
0.0
 20
-3.7773308666
 30
0.0
 40
2.5
 41
0.0
 71
     1
 72
     1
  1
58682 Menden
  7
SLDTEXTSTYLE2
 73
     1
 44
1.0
  0
ENDBLK
  5
100
330
FE
100
AcDbEntity
  8
0
100
AcDbBlockEnd
  0
BLOCK
  5
129
330
128
100
AcDbEntity
  8
0
100
AcDbBlockBegin
  2
SW_NOTE_0_7
 70
     0
 10
0.0
 20
0.0
 30
0.0
  3
SW_NOTE_0_7
  1

  0
MTEXT
  5
12B
330
128
100
AcDbEntity
  8
FORMAT
 62
     0
100
AcDbMText
 10
0.0
 20
2.5781354795
 30
0.0
 40
2.0
 41
0.0
 71
     1
 72
     1
  1
Technische Änderungen und Irrtümer vorbehalten. Aus dem Gebrauch der 
  7
SLDTEXTSTYLE0
 73
     1
 44
1.0
  0
MTEXT
  5
12C
330
128
100
AcDbEntity
  8
FORMAT
 62
     0
100
AcDbMText
 10
0.0
 20
-0.4218645465
 30
0.0
 40
2.0
 41
0.0
 71
     1
 72
     1
  1
Zeichnung können keinerlei Ansprüche (inkl. Schadenersatz-ansprüche) 
  7
SLDTEXTSTYLE0
 73
     1
 44
1.0
  0
MTEXT
  5
12D
330
128
100
AcDbEntity
  8
FORMAT
 62
     0
100
AcDbMText
 10
0.0
 20
-3.4218645726
 30
0.0
 40
2.0
 41
0.0
 71
     1
 72
     1
  1
erhoben und gegen ECO Schulte geltend gemacht werden. Die Zeichnung bleibt 
  7
SLDTEXTSTYLE0
 73
     1
 44
1.0
  0
MTEXT
  5
12E
330
128
100
AcDbEntity
  8
FORMAT
 62
     0
100
AcDbMText
 10
0.0
 20
-6.4218645987
 30
0.0
 40
2.0
 41
0.0
 71
     1
 72
     1
  1
unser Eigentum. Sämtliche sich aus der Zeichnung ergebenden Ansprüche 
  7
SLDTEXTSTYLE0
 73
     1
 44
1.0
  0
MTEXT
  5
12F
330
128
100
AcDbEntity
  8
FORMAT
 62
     0
100
AcDbMText
 10
0.0
 20
-9.4218646248
 30
0.0
 40
2.0
 41
0.0
 71
     1
 72
     1
  1
stehen ausschließlich ECO Schulte zu. 
  7
SLDTEXTSTYLE0
 73
     1
 44
1.0
  0
MTEXT
  5
130
330
128
100
AcDbEntity
  8
FORMAT
 62
     0
100
AcDbMText
 10
0.0
 20
-15.4218646769
 30
0.0
 40
2.0
 41
0.0
 71
     1
 72
     1
  1
Technical changes and errors excepted. No claims (including compensation 
  7
SLDTEXTSTYLE0
 73
     1
 44
1.0
  0
MTEXT
  5
131
330
128
100
AcDbEntity
  8
FORMAT
 62
     0
100
AcDbMText
 10
0.0
 20
-18.421864703
 30
0.0
 40
2.0
 41
0.0
 71
     1
 72
     1
  1
claims) may be raised against ECO Schulte by using of this drawing. The 
  7
SLDTEXTSTYLE0
 73
     1
 44
1.0
  0
MTEXT
  5
132
330
128
100
AcDbEntity
  8
FORMAT
 62
     0
100
AcDbMText
 10
0.0
 20
-21.4218647291
 30
0.0
 40
2.0
 41
0.0
 71
     1
 72
     1
  1
drawing remains the property of ECO Schulte. All claims resulting from this 
  7
SLDTEXTSTYLE0
 73
     1
 44
1.0
  0
MTEXT
  5
133
330
128
100
AcDbEntity
  8
FORMAT
 62
     0
100
AcDbMText
 10
0.0
 20
-24.4218647551
 30
0.0
 40
2.0
 41
0.0
 71
     1
 72
     1
  1
drawing are solely entitled to ECO Schulte.
  7
SLDTEXTSTYLE0
 73
     1
 44
1.0
  0
ENDBLK
  5
12A
330
128
100
AcDbEntity
  8
0
100
AcDbBlockEnd
  0
BLOCK
  5
14B
330
14A
100
AcDbEntity
  8
0
100
AcDbBlockBegin
  2
_D
 70
     0
 10
0.0
 20
0.0
 30
0.0
  3
_D
  1

  0
SOLID
  5
14D
330
14A
100
AcDbEntity
  8
FORMAT
100
AcDbTrace
 10
64.3953233965
 20
273.2555861861
 30
0.0
 11
67.0894002328
 21
275.2312425327
 31
0.0
 12
66.3709797431
 22
275.9496630224
 32
0.0
 13
66.3709797431
 23
275.9496630224
 33
0.0
  0
LINE
  5
14E
330
14A
100
AcDbEntity
  8
FORMAT
100
AcDbLine
 10
64.3953233965
 20
273.2555861861
 30
0.0
 11
73.5992058654
 21
282.459468655
 31
0.0
  0
MTEXT
  5
14F
330
14A
100
AcDbEntity
  8
FORMAT
100
AcDbMText
 10
64.1892873034
 20
279.3987735308
 30
0.0
 40
3.5
 41
0.0
 71
     1
 72
     1
  1
R12
  7
SLDTEXTSTYLE0
 11
0.7071067811865477
 21
0.7071067811865475
 31
0.0
 73
     1
 44
1.0
  0
ENDBLK
  5
14C
330
14A
100
AcDbEntity
  8
0
100
AcDbBlockEnd
  0
BLOCK
  5
153
330
152
100
AcDbEntity
  8
0
100
AcDbBlockBegin
  2
_D_1
 70
     0
 10
0.0
 20
0.0
 30
0.0
  3
_D_1
  1

  0
SOLID
  5
155
330
152
100
AcDbEntity
  8
FORMAT
100
AcDbTrace
 10
55.9100420222
 20
231.3576636083
 30
0.0
 11
52.6080420222
 21
231.8656636083
 31
0.0
 12
52.6080420222
 22
230.8496636083
 32
0.0
 13
52.6080420222
 23
230.8496636083
 33
0.0
  0
SOLID
  5
156
330
152
100
AcDbEntity
  8
FORMAT
100
AcDbTrace
 10
43.9100420222
 20
231.3576636083
 30
0.0
 11
47.2120420222
 21
230.8496636083
 31
0.0
 12
47.2120420222
 22
231.8656636083
 32
0.0
 13
47.2120420222
 23
231.8656636083
 33
0.0
  0
LINE
  5
157
330
152
100
AcDbEntity
  8
FORMAT
100
AcDbLine
 10
55.9100420222
 20
234.2203048118
 30
0.0
 11
55.9100420222
 21
230.3576636083
 31
0.0
  0
LINE
  5
158
330
152
100
AcDbEntity
  8
FORMAT
100
AcDbLine
 10
55.9100420222
 20
231.3576636083
 30
0.0
 11
43.9100420222
 21
231.3576636083
 31
0.0
  0
MTEXT
  5
159
330
152
100
AcDbEntity
  8
FORMAT
100
AcDbMText
 10
47.2364309774
 20
235.8694009303
 30
0.0
 40
3.5
 41
0.0
 71
     1
 72
     1
  1
12
  7
SLDTEXTSTYLE0
 73
     1
 44
1.0
  0
ENDBLK
  5
154
330
152
100
AcDbEntity
  8
0
100
AcDbBlockEnd
  0
BLOCK
  5
15C
330
15B
100
AcDbEntity
  8
0
100
AcDbBlockBegin
  2
_D_2
 70
     0
 10
0.0
 20
0.0
 30
0.0
  3
_D_2
  1

  0
SOLID
  5
15E
330
15B
100
AcDbEntity
  8
FORMAT
100
AcDbTrace
 10
58.9100420222
 20
223.7261505041
 30
0.0
 11
55.6080420222
 21
224.2341505041
 31
0.0
 12
55.6080420222
 22
223.2181505041
 32
0.0
 13
55.6080420222
 23
223.2181505041
 33
0.0
  0
SOLID
  5
15F
330
15B
100
AcDbEntity
  8
FORMAT
100
AcDbTrace
 10
43.9100420222
 20
223.7261505041
 30
0.0
 11
47.2120420222
 21
223.2181505041
 31
0.0
 12
47.2120420222
 22
224.2341505041
 32
0.0
 13
47.2120420222
 23
224.2341505041
 33
0.0
  0
LINE
  5
160
330
15B
100
AcDbEntity
  8
FORMAT
100
AcDbLine
 10
58.9100420222
 20
223.5203048118
 30
0.0
 11
58.9100420222
 21
224.7261505041
 31
0.0
  0
LINE
  5
161
330
15B
100
AcDbEntity
  8
FORMAT
100
AcDbLine
 10
58.9100420222
 20
223.7261505041
 30
0.0
 11
43.9100420222
 21
223.7261505041
 31
0.0
  0
MTEXT
  5
162
330
15B
100
AcDbEntity
  8
FORMAT
100
AcDbMText
 10
48.7364309774
 20
228.2378878261
 30
0.0
 40
3.5
 41
0.0
 71
     1
 72
     1
  1
15
  7
SLDTEXTSTYLE0
 73
     1
 44
1.0
  0
ENDBLK
  5
15D
330
15B
100
AcDbEntity
  8
0
100
AcDbBlockEnd
  0
BLOCK
  5
166
330
165
100
AcDbEntity
  8
0
100
AcDbBlockBegin
  2
_D_3
 70
     0
 10
0.0
 20
0.0
 30
0.0
  3
_D_3
  1

  0
SOLID
  5
168
330
165
100
AcDbEntity
  8
FORMAT
100
AcDbTrace
 10
53.6600420222
 20
168.9559600385
 30
0.0
 11
50.3580420222
 21
169.4639600385
 31
0.0
 12
50.3580420222
 22
168.4479600385
 32
0.0
 13
50.3580420222
 23
168.4479600385
 33
0.0
  0
SOLID
  5
169
330
165
100
AcDbEntity
  8
FORMAT
100
AcDbTrace
 10
64.1600420222
 20
168.9559600385
 30
0.0
 11
67.4620420222
 21
168.4479600385
 31
0.0
 12
67.4620420222
 22
169.4639600385
 32
0.0
 13
67.4620420222
 23
169.4639600385
 33
0.0
  0
LINE
  5
16A
330
165
100
AcDbEntity
  8
FORMAT
100
AcDbLine
 10
53.6600420222
 20
159.7703048118
 30
0.0
 11
53.6600420222
 21
169.9559600385
 31
0.0
  0
LINE
  5
16B
330
165
100
AcDbEntity
  8
FORMAT
100
AcDbLine
 10
64.1600420222
 20
159.7703048118
 30
0.0
 11
64.1600420222
 21
169.9559600385
 31
0.0
  0
LINE
  5
16C
330
165
100
AcDbEntity
  8
FORMAT
100
AcDbLine
 10
53.6600420222
 20
168.9559600385
 30
0.0
 11
47.3100420222
 21
168.9559600385
 31
0.0
  0
LINE
  5
16D
330
165
100
AcDbEntity
  8
FORMAT
100
AcDbLine
 10
53.6600420222
 20
168.9559600385
 30
0.0
 11
64.1600420222
 21
168.9559600385
 31
0.0
  0
LINE
  5
16E
330
165
100
AcDbEntity
  8
FORMAT
100
AcDbLine
 10
64.1600420222
 20
168.9559600385
 30
0.0
 11
70.5100420222
 21
168.9559600385
 31
0.0
  0
MTEXT
  5
16F
330
165
100
AcDbEntity
  8
FORMAT
100
AcDbMText
 10
51.6797471539
 20
173.4676971277
 30
0.0
 40
3.5
 41
0.0
 71
     1
 72
     1
  1
%%c
  7
SLDTEXTSTYLE0
 73
     1
 44
1.0
  0
MTEXT
  5
170
330
165
100
AcDbEntity
  8
FORMAT
100
AcDbMText
 10
56.7826986992
 20
173.4774194369
 30
0.0
 40
3.5
 41
0.0
 71
     1
 72
     1
  1
10,5
  7
SLDTEXTSTYLE0
 73
     1
 44
1.0
  0
ENDBLK
  5
167
330
165
100
AcDbEntity
  8
0
100
AcDbBlockEnd
  0
BLOCK
  5
173
330
172
100
AcDbEntity
  8
0
100
AcDbBlockBegin
  2
_D_4
 70
     0
 10
0.0
 20
0.0
 30
0.0
  3
_D_4
  1

  0
SOLID
  5
175
330
172
100
AcDbEntity
  8
FORMAT
100
AcDbTrace
 10
50.8600420222
 20
140.9522468839
 30
0.0
 11
47.5580420222
 21
141.4602468839
 31
0.0
 12
47.5580420222
 22
140.4442468839
 32
0.0
 13
47.5580420222
 23
140.4442468839
 33
0.0
  0
SOLID
  5
176
330
172
100
AcDbEntity
  8
FORMAT
100
AcDbTrace
 10
60.9600420222
 20
140.9522468839
 30
0.0
 11
64.2620420222
 21
140.4442468839
 31
0.0
 12
64.2620420222
 22
141.4602468839
 32
0.0
 13
64.2620420222
 23
141.4602468839
 33
0.0
  0
LINE
  5
177
330
172
100
AcDbEntity
  8
FORMAT
100
AcDbLine
 10
50.8600420222
 20
131.7703048118
 30
0.0
 11
50.8600420222
 21
141.9522468839
 31
0.0
  0
LINE
  5
178
330
172
100
AcDbEntity
  8
FORMAT
100
AcDbLine
 10
60.9600420222
 20
131.7703048118
 30
0.0
 11
60.9600420222
 21
141.9522468839
 31
0.0
  0
LINE
  5
179
330
172
100
AcDbEntity
  8
FORMAT
100
AcDbLine
 10
50.8600420222
 20
140.9522468839
 30
0.0
 11
44.5100420222
 21
140.9522468839
 31
0.0
  0
LINE
  5
17A
330
172
100
AcDbEntity
  8
FORMAT
100
AcDbLine
 10
50.8600420222
 20
140.9522468839
 30
0.0
 11
60.9600420222
 21
140.9522468839
 31
0.0
  0
LINE
  5
17B
330
172
100
AcDbEntity
  8
FORMAT
100
AcDbLine
 10
60.9600420222
 20
140.9522468839
 30
0.0
 11
67.3100420222
 21
140.9522468839
 31
0.0
  0
MTEXT
  5
17C
330
172
100
AcDbEntity
  8
FORMAT
100
AcDbMText
 10
48.6797471539
 20
145.4639839731
 30
0.0
 40
3.5
 41
0.0
 71
     1
 72
     1
  1
%%c
  7
SLDTEXTSTYLE0
 73
     1
 44
1.0
  0
MTEXT
  5
17D
330
172
100
AcDbEntity
  8
FORMAT
100
AcDbMText
 10
53.7826986992
 20
145.4737062823
 30
0.0
 40
3.5
 41
0.0
 71
     1
 72
     1
  1
10,1
  7
SLDTEXTSTYLE0
 73
     1
 44
1.0
  0
ENDBLK
  5
174
330
172
100
AcDbEntity
  8
0
100
AcDbBlockEnd
  0
BLOCK
  5
180
330
17F
100
AcDbEntity
  8
0
100
AcDbBlockBegin
  2
_D_5
 70
     0
 10
0.0
 20
0.0
 30
0.0
  3
_D_5
  1

  0
SOLID
  5
182
330
17F
100
AcDbEntity
  8
FORMAT
100
AcDbTrace
 10
53.6600420222
 20
198.9483557509
 30
0.0
 11
50.3580420222
 21
199.4563557509
 31
0.0
 12
50.3580420222
 22
198.4403557509
 32
0.0
 13
50.3580420222
 23
198.4403557509
 33
0.0
  0
SOLID
  5
183
330
17F
100
AcDbEntity
  8
FORMAT
100
AcDbTrace
 10
64.1600420222
 20
198.9483557509
 30
0.0
 11
67.4620420222
 21
198.4403557509
 31
0.0
 12
67.4620420222
 22
199.4563557509
 32
0.0
 13
67.4620420222
 23
199.4563557509
 33
0.0
  0
LINE
  5
184
330
17F
100
AcDbEntity
  8
FORMAT
100
AcDbLine
 10
53.6600420222
 20
187.7703048118
 30
0.0
 11
53.6600420222
 21
199.9483557509
 31
0.0
  0
LINE
  5
185
330
17F
100
AcDbEntity
  8
FORMAT
100
AcDbLine
 10
64.1600420222
 20
187.7703048118
 30
0.0
 11
64.1600420222
 21
199.9483557509
 31
0.0
  0
LINE
  5
186
330
17F
100
AcDbEntity
  8
FORMAT
100
AcDbLine
 10
53.6600420222
 20
198.9483557509
 30
0.0
 11
47.3100420222
 21
198.9483557509
 31
0.0
  0
LINE
  5
187
330
17F
100
AcDbEntity
  8
FORMAT
100
AcDbLine
 10
53.6600420222
 20
198.9483557509
 30
0.0
 11
64.1600420222
 21
198.9483557509
 31
0.0
  0
LINE
  5
188
330
17F
100
AcDbEntity
  8
FORMAT
100
AcDbLine
 10
64.1600420222
 20
198.9483557509
 30
0.0
 11
70.5100420222
 21
198.9483557509
 31
0.0
  0
MTEXT
  5
189
330
17F
100
AcDbEntity
  8
FORMAT
100
AcDbMText
 10
51.6797471539
 20
203.4600928401
 30
0.0
 40
3.5
 41
0.0
 71
     1
 72
     1
  1
%%c
  7
SLDTEXTSTYLE0
 73
     1
 44
1.0
  0
MTEXT
  5
18A
330
17F
100
AcDbEntity
  8
FORMAT
100
AcDbMText
 10
56.7826986992
 20
203.4698151493
 30
0.0
 40
3.5
 41
0.0
 71
     1
 72
     1
  1
10,5
  7
SLDTEXTSTYLE0
 73
     1
 44
1.0
  0
ENDBLK
  5
181
330
17F
100
AcDbEntity
  8
0
100
AcDbBlockEnd
  0
BLOCK
  5
18D
330
18C
100
AcDbEntity
  8
0
100
AcDbBlockBegin
  2
_D_6
 70
     0
 10
0.0
 20
0.0
 30
0.0
  3
_D_6
  1

  0
SOLID
  5
18F
330
18C
100
AcDbEntity
  8
FORMAT
100
AcDbTrace
 10
43.9100420222
 20
88.8533448102
 30
0.0
 11
47.2120420222
 21
88.3453448102
 31
0.0
 12
47.2120420222
 22
89.3613448102
 32
0.0
 13
47.2120420222
 23
89.3613448102
 33
0.0
  0
SOLID
  5
190
330
18C
100
AcDbEntity
  8
FORMAT
100
AcDbTrace
 10
67.9100420222
 20
88.8533448102
 30
0.0
 11
64.6080420222
 21
89.3613448102
 31
0.0
 12
64.6080420222
 22
88.3453448102
 32
0.0
 13
64.6080420222
 23
88.3453448102
 33
0.0
  0
LINE
  5
191
330
18C
100
AcDbEntity
  8
FORMAT
100
AcDbLine
 10
43.9100420222
 20
107.7703048118
 30
0.0
 11
43.9100420222
 21
87.8533448102
 31
0.0
  0
LINE
  5
192
330
18C
100
AcDbEntity
  8
FORMAT
100
AcDbLine
 10
67.9100420222
 20
107.7703048118
 30
0.0
 11
67.9100420222
 21
87.8533448102
 31
0.0
  0
LINE
  5
193
330
18C
100
AcDbEntity
  8
FORMAT
100
AcDbLine
 10
43.9100420222
 20
88.8533448102
 30
0.0
 11
67.9100420222
 21
88.8533448102
 31
0.0
  0
MTEXT
  5
194
330
18C
100
AcDbEntity
  8
FORMAT
100
AcDbMText
 10
53.2364309774
 20
93.3650821322
 30
0.0
 40
3.5
 41
0.0
 71
     1
 72
     1
  1
24
  7
SLDTEXTSTYLE0
 73
     1
 44
1.0
  0
ENDBLK
  5
18E
330
18C
100
AcDbEntity
  8
0
100
AcDbBlockEnd
  0
BLOCK
  5
197
330
196
100
AcDbEntity
  8
0
100
AcDbBlockBegin
  2
_D_7
 70
     0
 10
0.0
 20
0.0
 30
0.0
  3
_D_7
  1

  0
SOLID
  5
199
330
196
100
AcDbEntity
  8
FORMAT
100
AcDbTrace
 10
72.9100420222
 20
80.7703048118
 30
0.0
 11
69.6080420222
 21
81.2783048118
 31
0.0
 12
69.6080420222
 22
80.2623048118
 32
0.0
 13
69.6080420222
 23
80.2623048118
 33
0.0
  0
SOLID
  5
19A
330
196
100
AcDbEntity
  8
FORMAT
100
AcDbTrace
 10
43.9100420222
 20
80.7703048118
 30
0.0
 11
47.2120420222
 21
80.2623048118
 31
0.0
 12
47.2120420222
 22
81.2783048118
 32
0.0
 13
47.2120420222
 23
81.2783048118
 33
0.0
  0
LINE
  5
19B
330
196
100
AcDbEntity
  8
FORMAT
100
AcDbLine
 10
72.9100420222
 20
138.7703048118
 30
0.0
 11
72.9100420222
 21
79.7703048118
 31
0.0
  0
LINE
  5
19C
330
196
100
AcDbEntity
  8
FORMAT
100
AcDbLine
 10
43.9100420222
 20
107.7703048118
 30
0.0
 11
43.9100420222
 21
79.7703048118
 31
0.0
  0
LINE
  5
19D
330
196
100
AcDbEntity
  8
FORMAT
100
AcDbLine
 10
72.9100420222
 20
80.7703048118
 30
0.0
 11
43.9100420222
 21
80.7703048118
 31
0.0
  0
MTEXT
  5
19E
330
196
100
AcDbEntity
  8
FORMAT
100
AcDbMText
 10
55.7364309774
 20
85.2820421339
 30
0.0
 40
3.5
 41
0.0
 71
     1
 72
     1
  1
29
  7
SLDTEXTSTYLE0
 73
     1
 44
1.0
  0
ENDBLK
  5
198
330
196
100
AcDbEntity
  8
0
100
AcDbBlockEnd
  0
BLOCK
  5
1A1
330
1A0
100
AcDbEntity
  8
0
100
AcDbBlockBegin
  2
_D_8
 70
     0
 10
0.0
 20
0.0
 30
0.0
  3
_D_8
  1

  0
SOLID
  5
1A3
330
1A0
100
AcDbEntity
  8
FORMAT
100
AcDbTrace
 10
33.9100420222
 20
214.7703048118
 30
0.0
 11
33.4020420222
 21
211.4683048118
 31
0.0
 12
34.4180420222
 22
211.4683048118
 32
0.0
 13
34.4180420222
 23
211.4683048118
 33
0.0
  0
SOLID
  5
1A4
330
1A0
100
AcDbEntity
  8
FORMAT
100
AcDbTrace
 10
33.9100420222
 20
158.7703048118
 30
0.0
 11
34.4180420222
 21
162.0723048118
 31
0.0
 12
33.4020420222
 22
162.0723048118
 32
0.0
 13
33.4020420222
 23
162.0723048118
 33
0.0
  0
LINE
  5
1A5
330
1A0
100
AcDbEntity
  8
FORMAT
100
AcDbLine
 10
50.1600420222
 20
214.7703048118
 30
0.0
 11
32.9100420222
 21
214.7703048118
 31
0.0
  0
LINE
  5
1A6
330
1A0
100
AcDbEntity
  8
FORMAT
100
AcDbLine
 10
50.1600420222
 20
158.7703048118
 30
0.0
 11
32.9100420222
 21
158.7703048118
 31
0.0
  0
LINE
  5
1A7
330
1A0
100
AcDbEntity
  8
FORMAT
100
AcDbLine
 10
33.9100420222
 20
214.7703048118
 30
0.0
 11
33.9100420222
 21
158.7703048118
 31
0.0
  0
MTEXT
  5
1A8
330
1A0
100
AcDbEntity
  8
FORMAT
100
AcDbMText
 10
29.3983047002
 20
184.096693767
 30
0.0
 40
3.5
 41
0.0
 71
     1
 72
     1
  1
56
  7
SLDTEXTSTYLE0
 11
-1.059690869644414E-14
 21
1.0
 31
0.0
 73
     1
 44
1.0
  0
ENDBLK
  5
1A2
330
1A0
100
AcDbEntity
  8
0
100
AcDbBlockEnd
  0
BLOCK
  5
1AB
330
1AA
100
AcDbEntity
  8
0
100
AcDbBlockBegin
  2
_D_9
 70
     0
 10
0.0
 20
0.0
 30
0.0
  3
_D_9
  1

  0
SOLID
  5
1AD
330
1AA
100
AcDbEntity
  8
FORMAT
100
AcDbTrace
 10
27.9100420222
 20
242.7703048118
 30
0.0
 11
27.4020420222
 21
239.4683048118
 31
0.0
 12
28.4180420222
 22
239.4683048118
 32
0.0
 13
28.4180420222
 23
239.4683048118
 33
0.0
  0
SOLID
  5
1AE
330
1AA
100
AcDbEntity
  8
FORMAT
100
AcDbTrace
 10
27.9100420222
 20
130.7703048118
 30
0.0
 11
28.4180420222
 21
134.0723048118
 31
0.0
 12
27.4020420222
 22
134.0723048118
 32
0.0
 13
27.4020420222
 23
134.0723048118
 33
0.0
  0
LINE
  5
1AF
330
1AA
100
AcDbEntity
  8
FORMAT
100
AcDbLine
 10
47.3600420222
 20
242.7703048118
 30
0.0
 11
26.9100420222
 21
242.7703048118
 31
0.0
  0
LINE
  5
1B0
330
1AA
100
AcDbEntity
  8
FORMAT
100
AcDbLine
 10
47.3600420222
 20
130.7703048118
 30
0.0
 11
26.9100420222
 21
130.7703048118
 31
0.0
  0
LINE
  5
1B1
330
1AA
100
AcDbEntity
  8
FORMAT
100
AcDbLine
 10
27.9100420222
 20
242.7703048118
 30
0.0
 11
27.9100420222
 21
130.7703048118
 31
0.0
  0
MTEXT
  5
1B2
330
1AA
100
AcDbEntity
  8
FORMAT
100
AcDbMText
 10
23.3983047002
 20
182.7598882445
 30
0.0
 40
3.5
 41
0.0
 71
     1
 72
     1
  1
112
  7
SLDTEXTSTYLE0
 11
-1.059690869644414E-14
 21
1.0
 31
0.0
 73
     1
 44
1.0
  0
ENDBLK
  5
1AC
330
1AA
100
AcDbEntity
  8
0
100
AcDbBlockEnd
  0
BLOCK
  5
1B5
330
1B4
100
AcDbEntity
  8
0
100
AcDbBlockBegin
  2
_D_10
 70
     0
 10
0.0
 20
0.0
 30
0.0
  3
_D_10
  1

  0
SOLID
  5
1B7
330
1B4
100
AcDbEntity
  8
FORMAT
100
AcDbTrace
 10
21.9100420222
 20
264.7703048118
 30
0.0
 11
21.4020420222
 21
261.4683048118
 31
0.0
 12
22.4180420222
 22
261.4683048118
 32
0.0
 13
22.4180420222
 23
261.4683048118
 33
0.0
  0
SOLID
  5
1B8
330
1B4
100
AcDbEntity
  8
FORMAT
100
AcDbTrace
 10
21.9100420222
 20
108.7703048118
 30
0.0
 11
22.4180420222
 21
112.0723048118
 31
0.0
 12
21.4020420222
 22
112.0723048118
 32
0.0
 13
21.4020420222
 23
112.0723048118
 33
0.0
  0
LINE
  5
1B9
330
1B4
100
AcDbEntity
  8
FORMAT
100
AcDbLine
 10
49.1100420222
 20
264.7703048118
 30
0.0
 11
20.9100420222
 21
264.7703048118
 31
0.0
  0
LINE
  5
1BA
330
1B4
100
AcDbEntity
  8
FORMAT
100
AcDbLine
 10
49.1100420222
 20
108.7703048118
 30
0.0
 11
20.9100420222
 21
108.7703048118
 31
0.0
  0
LINE
  5
1BB
330
1B4
100
AcDbEntity
  8
FORMAT
100
AcDbLine
 10
21.9100420222
 20
264.7703048118
 30
0.0
 11
21.9100420222
 21
108.7703048118
 31
0.0
  0
MTEXT
  5
1BC
330
1B4
100
AcDbEntity
  8
FORMAT
100
AcDbMText
 10
17.3983047002
 20
182.7598882445
 30
0.0
 40
3.5
 41
0.0
 71
     1
 72
     1
  1
156
  7
SLDTEXTSTYLE0
 11
-1.059690869644414E-14
 21
1.0
 31
0.0
 73
     1
 44
1.0
  0
ENDBLK
  5
1B6
330
1B4
100
AcDbEntity
  8
0
100
AcDbBlockEnd
  0
BLOCK
  5
1BE
330
1BD
100
AcDbEntity
  8
0
100
AcDbBlockBegin
  2
SW_CENTERMARKSYMBOL_0
 70
     0
 10
0.0
 20
0.0
 30
0.0
  3
SW_CENTERMARKSYMBOL_0
  1

  0
LINE
  5
1C0
330
1BD
100
AcDbEntity
  8
FORMAT
 62
     0
100
AcDbLine
 10
0.0
 20
0.0
 30
0.0
 11
-2.5
 21
0.0
 31
0.0
  0
LINE
  5
1C1
330
1BD
100
AcDbEntity
  8
FORMAT
 62
     0
100
AcDbLine
 10
0.0
 20
0.0
 30
0.0
 11
0.0
 21
-2.5
 31
0.0
  0
LINE
  5
1C2
330
1BD
100
AcDbEntity
  8
FORMAT
 62
     0
100
AcDbLine
 10
0.0
 20
0.0
 30
0.0
 11
2.5
 21
0.0
 31
0.0
  0
LINE
  5
1C3
330
1BD
100
AcDbEntity
  8
FORMAT
 62
     0
100
AcDbLine
 10
0.0
 20
0.0
 30
0.0
 11
0.0
 21
2.5
 31
0.0
  0
LINE
  5
1C4
330
1BD
100
AcDbEntity
  8
FORMAT
 62
     0
100
AcDbLine
 10
-5.0
 20
0.0
 30
0.0
 11
-5.8
 21
0.0
 31
0.0
  0
LINE
  5
1C5
330
1BD
100
AcDbEntity
  8
FORMAT
 62
     0
100
AcDbLine
 10
0.0
 20
-5.0
 30
0.0
 11
0.0
 21
-5.8
 31
0.0
  0
LINE
  5
1C6
330
1BD
100
AcDbEntity
  8
FORMAT
 62
     0
100
AcDbLine
 10
5.0
 20
0.0
 30
0.0
 11
5.8
 21
0.0
 31
0.0
  0
LINE
  5
1C7
330
1BD
100
AcDbEntity
  8
FORMAT
 62
     0
100
AcDbLine
 10
0.0
 20
5.0
 30
0.0
 11
0.0
 21
5.8
 31
0.0
  0
ENDBLK
  5
1BF
330
1BD
100
AcDbEntity
  8
0
100
AcDbBlockEnd
  0
BLOCK
  5
1CA
330
1C9
100
AcDbEntity
  8
0
100
AcDbBlockBegin
  2
SW_CENTERMARKSYMBOL_1
 70
     0
 10
0.0
 20
0.0
 30
0.0
  3
SW_CENTERMARKSYMBOL_1
  1

  0
LINE
  5
1CC
330
1C9
100
AcDbEntity
  8
FORMAT
 62
     0
100
AcDbLine
 10
0.0
 20
0.0
 30
0.0
 11
-2.5
 21
0.0
 31
0.0
  0
LINE
  5
1CD
330
1C9
100
AcDbEntity
  8
FORMAT
 62
     0
100
AcDbLine
 10
0.0
 20
0.0
 30
0.0
 11
0.0
 21
-2.5
 31
0.0
  0
LINE
  5
1CE
330
1C9
100
AcDbEntity
  8
FORMAT
 62
     0
100
AcDbLine
 10
0.0
 20
0.0
 30
0.0
 11
2.5
 21
0.0
 31
0.0
  0
LINE
  5
1CF
330
1C9
100
AcDbEntity
  8
FORMAT
 62
     0
100
AcDbLine
 10
0.0
 20
0.0
 30
0.0
 11
0.0
 21
2.5
 31
0.0
  0
LINE
  5
1D0
330
1C9
100
AcDbEntity
  8
FORMAT
 62
     0
100
AcDbLine
 10
-5.0
 20
0.0
 30
0.0
 11
-5.8
 21
0.0
 31
0.0
  0
LINE
  5
1D1
330
1C9
100
AcDbEntity
  8
FORMAT
 62
     0
100
AcDbLine
 10
0.0
 20
-5.0
 30
0.0
 11
0.0
 21
-5.8
 31
0.0
  0
LINE
  5
1D2
330
1C9
100
AcDbEntity
  8
FORMAT
 62
     0
100
AcDbLine
 10
5.0
 20
0.0
 30
0.0
 11
5.8
 21
0.0
 31
0.0
  0
LINE
  5
1D3
330
1C9
100
AcDbEntity
  8
FORMAT
 62
     0
100
AcDbLine
 10
0.0
 20
5.0
 30
0.0
 11
0.0
 21
5.8
 31
0.0
  0
ENDBLK
  5
1CB
330
1C9
100
AcDbEntity
  8
0
100
AcDbBlockEnd
  0
BLOCK
  5
1D6
330
1D5
100
AcDbEntity
  8
0
100
AcDbBlockBegin
  2
SW_CENTERMARKSYMBOL_2
 70
     0
 10
0.0
 20
0.0
 30
0.0
  3
SW_CENTERMARKSYMBOL_2
  1

  0
LINE
  5
1D8
330
1D5
100
AcDbEntity
  8
FORMAT
 62
     0
100
AcDbLine
 10
0.0
 20
0.0
 30
0.0
 11
-2.5
 21
0.0
 31
0.0
  0
LINE
  5
1D9
330
1D5
100
AcDbEntity
  8
FORMAT
 62
     0
100
AcDbLine
 10
0.0
 20
0.0
 30
0.0
 11
0.0
 21
-2.5
 31
0.0
  0
LINE
  5
1DA
330
1D5
100
AcDbEntity
  8
FORMAT
 62
     0
100
AcDbLine
 10
0.0
 20
0.0
 30
0.0
 11
2.5
 21
0.0
 31
0.0
  0
LINE
  5
1DB
330
1D5
100
AcDbEntity
  8
FORMAT
 62
     0
100
AcDbLine
 10
0.0
 20
0.0
 30
0.0
 11
0.0
 21
2.5
 31
0.0
  0
LINE
  5
1DC
330
1D5
100
AcDbEntity
  8
FORMAT
 62
     0
100
AcDbLine
 10
-5.0
 20
0.0
 30
0.0
 11
-7.55
 21
0.0
 31
0.0
  0
LINE
  5
1DD
330
1D5
100
AcDbEntity
  8
FORMAT
 62
     0
100
AcDbLine
 10
0.0
 20
-5.0
 30
0.0
 11
0.0
 21
-7.55
 31
0.0
  0
LINE
  5
1DE
330
1D5
100
AcDbEntity
  8
FORMAT
 62
     0
100
AcDbLine
 10
5.0
 20
0.0
 30
0.0
 11
7.55
 21
0.0
 31
0.0
  0
LINE
  5
1DF
330
1D5
100
AcDbEntity
  8
FORMAT
 62
     0
100
AcDbLine
 10
0.0
 20
5.0
 30
0.0
 11
0.0
 21
7.55
 31
0.0
  0
ENDBLK
  5
1D7
330
1D5
100
AcDbEntity
  8
0
100
AcDbBlockEnd
  0
BLOCK
  5
1E2
330
1E1
100
AcDbEntity
  8
0
100
AcDbBlockBegin
  2
SW_CENTERMARKSYMBOL_3
 70
     0
 10
0.0
 20
0.0
 30
0.0
  3
SW_CENTERMARKSYMBOL_3
  1

  0
LINE
  5
1E4
330
1E1
100
AcDbEntity
  8
FORMAT
 62
     0
100
AcDbLine
 10
0.0
 20
0.0
 30
0.0
 11
-2.5
 21
0.0
 31
0.0
  0
LINE
  5
1E5
330
1E1
100
AcDbEntity
  8
FORMAT
 62
     0
100
AcDbLine
 10
0.0
 20
0.0
 30
0.0
 11
0.0
 21
-2.5
 31
0.0
  0
LINE
  5
1E6
330
1E1
100
AcDbEntity
  8
FORMAT
 62
     0
100
AcDbLine
 10
0.0
 20
0.0
 30
0.0
 11
2.5
 21
0.0
 31
0.0
  0
LINE
  5
1E7
330
1E1
100
AcDbEntity
  8
FORMAT
 62
     0
100
AcDbLine
 10
0.0
 20
0.0
 30
0.0
 11
0.0
 21
2.5
 31
0.0
  0
LINE
  5
1E8
330
1E1
100
AcDbEntity
  8
FORMAT
 62
     0
100
AcDbLine
 10
-5.0
 20
0.0
 30
0.0
 11
-7.55
 21
0.0
 31
0.0
  0
LINE
  5
1E9
330
1E1
100
AcDbEntity
  8
FORMAT
 62
     0
100
AcDbLine
 10
0.0
 20
-5.0
 30
0.0
 11
0.0
 21
-7.55
 31
0.0
  0
LINE
  5
1EA
330
1E1
100
AcDbEntity
  8
FORMAT
 62
     0
100
AcDbLine
 10
5.0
 20
0.0
 30
0.0
 11
7.55
 21
0.0
 31
0.0
  0
LINE
  5
1EB
330
1E1
100
AcDbEntity
  8
FORMAT
 62
     0
100
AcDbLine
 10
0.0
 20
5.0
 30
0.0
 11
0.0
 21
7.55
 31
0.0
  0
ENDBLK
  5
1E3
330
1E1
100
AcDbEntity
  8
0
100
AcDbBlockEnd
  0
BLOCK
  5
1EE
330
1ED
100
AcDbEntity
  8
0
100
AcDbBlockBegin
  2
SW_CENTERMARKSYMBOL_4
 70
     0
 10
0.0
 20
0.0
 30
0.0
  3
SW_CENTERMARKSYMBOL_4
  1

  0
LINE
  5
1F0
330
1ED
100
AcDbEntity
  8
FORMAT
 62
     0
100
AcDbLine
 10
0.0
 20
0.0
 30
0.0
 11
-2.5
 21
0.0
 31
0.0
  0
LINE
  5
1F1
330
1ED
100
AcDbEntity
  8
FORMAT
 62
     0
100
AcDbLine
 10
0.0
 20
0.0
 30
0.0
 11
0.0
 21
-2.5
 31
0.0
  0
LINE
  5
1F2
330
1ED
100
AcDbEntity
  8
FORMAT
 62
     0
100
AcDbLine
 10
0.0
 20
0.0
 30
0.0
 11
2.5
 21
0.0
 31
0.0
  0
LINE
  5
1F3
330
1ED
100
AcDbEntity
  8
FORMAT
 62
     0
100
AcDbLine
 10
0.0
 20
0.0
 30
0.0
 11
0.0
 21
2.5
 31
0.0
  0
LINE
  5
1F4
330
1ED
100
AcDbEntity
  8
FORMAT
 62
     0
100
AcDbLine
 10
-5.0
 20
0.0
 30
0.0
 11
-7.75
 21
0.0
 31
0.0
  0
LINE
  5
1F5
330
1ED
100
AcDbEntity
  8
FORMAT
 62
     0
100
AcDbLine
 10
0.0
 20
-5.0
 30
0.0
 11
0.0
 21
-7.75
 31
0.0
  0
LINE
  5
1F6
330
1ED
100
AcDbEntity
  8
FORMAT
 62
     0
100
AcDbLine
 10
5.0
 20
0.0
 30
0.0
 11
7.75
 21
0.0
 31
0.0
  0
LINE
  5
1F7
330
1ED
100
AcDbEntity
  8
FORMAT
 62
     0
100
AcDbLine
 10
0.0
 20
5.0
 30
0.0
 11
0.0
 21
7.75
 31
0.0
  0
ENDBLK
  5
1EF
330
1ED
100
AcDbEntity
  8
0
100
AcDbBlockEnd
  0
BLOCK
  5
1FA
330
1F9
100
AcDbEntity
  8
0
100
AcDbBlockBegin
  2
SW_CENTERMARKSYMBOL_5
 70
     0
 10
0.0
 20
0.0
 30
0.0
  3
SW_CENTERMARKSYMBOL_5
  1

  0
LINE
  5
1FC
330
1F9
100
AcDbEntity
  8
FORMAT
 62
     0
100
AcDbLine
 10
0.0
 20
0.0
 30
0.0
 11
-2.5
 21
0.0
 31
0.0
  0
LINE
  5
1FD
330
1F9
100
AcDbEntity
  8
FORMAT
 62
     0
100
AcDbLine
 10
0.0
 20
0.0
 30
0.0
 11
0.0
 21
-2.5
 31
0.0
  0
LINE
  5
1FE
330
1F9
100
AcDbEntity
  8
FORMAT
 62
     0
100
AcDbLine
 10
0.0
 20
0.0
 30
0.0
 11
2.5
 21
0.0
 31
0.0
  0
LINE
  5
1FF
330
1F9
100
AcDbEntity
  8
FORMAT
 62
     0
100
AcDbLine
 10
0.0
 20
0.0
 30
0.0
 11
0.0
 21
2.5
 31
0.0
  0
LINE
  5
200
330
1F9
100
AcDbEntity
  8
FORMAT
 62
     0
100
AcDbLine
 10
-5.0
 20
0.0
 30
0.0
 11
-18.5032729276
 21
0.0
 31
0.0
  0
LINE
  5
201
330
1F9
100
AcDbEntity
  8
FORMAT
 62
     0
100
AcDbLine
 10
0.0
 20
-5.0
 30
0.0
 11
0.0
 21
-7.75
 31
0.0
  0
LINE
  5
202
330
1F9
100
AcDbEntity
  8
FORMAT
 62
     0
100
AcDbLine
 10
5.0
 20
0.0
 30
0.0
 11
15.4948520064
 21
0.0
 31
0.0
  0
LINE
  5
203
330
1F9
100
AcDbEntity
  8
FORMAT
 62
     0
100
AcDbLine
 10
0.0
 20
5.0
 30
0.0
 11
0.0
 21
7.75
 31
0.0
  0
ENDBLK
  5
1FB
330
1F9
100
AcDbEntity
  8
0
100
AcDbBlockEnd
  0
BLOCK
  5
206
330
205
100
AcDbEntity
  8
0
100
AcDbBlockBegin
  2
SW_CENTERMARKSYMBOL_6
 70
     0
 10
0.0
 20
0.0
 30
0.0
  3
SW_CENTERMARKSYMBOL_6
  1

  0
LINE
  5
208
330
205
100
AcDbEntity
  8
FORMAT
 62
     0
100
AcDbLine
 10
0.0
 20
0.0
 30
0.0
 11
-2.5
 21
0.0
 31
0.0
  0
LINE
  5
209
330
205
100
AcDbEntity
  8
FORMAT
 62
     0
100
AcDbLine
 10
0.0
 20
0.0
 30
0.0
 11
0.0
 21
-2.5
 31
0.0
  0
LINE
  5
20A
330
205
100
AcDbEntity
  8
FORMAT
 62
     0
100
AcDbLine
 10
0.0
 20
0.0
 30
0.0
 11
2.5
 21
0.0
 31
0.0
  0
LINE
  5
20B
330
205
100
AcDbEntity
  8
FORMAT
 62
     0
100
AcDbLine
 10
0.0
 20
0.0
 30
0.0
 11
0.0
 21
2.5
 31
0.0
  0
LINE
  5
20C
330
205
100
AcDbEntity
  8
FORMAT
 62
     0
100
AcDbLine
 10
-5.0
 20
0.0
 30
0.0
 11
-7.75
 21
0.0
 31
0.0
  0
LINE
  5
20D
330
205
100
AcDbEntity
  8
FORMAT
 62
     0
100
AcDbLine
 10
0.0
 20
-5.0
 30
0.0
 11
0.0
 21
-7.75
 31
0.0
  0
LINE
  5
20E
330
205
100
AcDbEntity
  8
FORMAT
 62
     0
100
AcDbLine
 10
5.0
 20
0.0
 30
0.0
 11
7.75
 21
0.0
 31
0.0
  0
LINE
  5
20F
330
205
100
AcDbEntity
  8
FORMAT
 62
     0
100
AcDbLine
 10
0.0
 20
5.0
 30
0.0
 11
0.0
 21
7.75
 31
0.0
  0
ENDBLK
  5
207
330
205
100
AcDbEntity
  8
0
100
AcDbBlockEnd
  0
BLOCK
  5
227
330
226
100
AcDbEntity
  8
0
100
AcDbBlockBegin
  2
_D_11
 70
     0
 10
0.0
 20
0.0
 30
0.0
  3
_D_11
  1

  0
SOLID
  5
229
330
226
100
AcDbEntity
  8
FORMAT
100
AcDbTrace
 10
142.2414158504
 20
276.7703048118
 30
0.0
 11
141.7334158504
 21
273.4683048118
 31
0.0
 12
142.7494158504
 22
273.4683048118
 32
0.0
 13
142.7494158504
 23
273.4683048118
 33
0.0
  0
SOLID
  5
22A
330
226
100
AcDbEntity
  8
FORMAT
100
AcDbTrace
 10
142.2414158504
 20
96.7703048118
 30
0.0
 11
142.7494158504
 21
100.0723048118
 31
0.0
 12
141.7334158504
 22
100.0723048118
 32
0.0
 13
141.7334158504
 23
100.0723048118
 33
0.0
  0
LINE
  5
22B
330
226
100
AcDbEntity
  8
FORMAT
100
AcDbLine
 10
133.2414158504
 20
276.7703048118
 30
0.0
 11
143.2414158504
 21
276.7703048118
 31
0.0
  0
LINE
  5
22C
330
226
100
AcDbEntity
  8
FORMAT
100
AcDbLine
 10
133.2414158504
 20
96.7703048118
 30
0.0
 11
143.2414158504
 21
96.7703048118
 31
0.0
  0
LINE
  5
22D
330
226
100
AcDbEntity
  8
FORMAT
100
AcDbLine
 10
142.2414158504
 20
276.7703048118
 30
0.0
 11
142.2414158504
 21
96.7703048118
 31
0.0
  0
MTEXT
  5
22E
330
226
100
AcDbEntity
  8
FORMAT
100
AcDbMText
 10
137.7296785284
 20
182.7598882445
 30
0.0
 40
3.5
 41
0.0
 71
     1
 72
     1
  1
180
  7
SLDTEXTSTYLE0
 11
-7.044195017643634E-15
 21
1.0
 31
0.0
 73
     1
 44
1.0
  0
ENDBLK
  5
228
330
226
100
AcDbEntity
  8
0
100
AcDbBlockEnd
  0
BLOCK
  5
231
330
230
100
AcDbEntity
  8
0
100
AcDbBlockBegin
  2
_D_12
 70
     0
 10
0.0
 20
0.0
 30
0.0
  3
_D_12
  1

  0
SOLID
  5
233
330
230
100
AcDbEntity
  8
FORMAT
100
AcDbTrace
 10
108.2414158504
 20
86.7703048118
 30
0.0
 11
111.5434158504
 21
86.2623048118
 31
0.0
 12
111.5434158504
 22
87.2783048118
 32
0.0
 13
111.5434158504
 23
87.2783048118
 33
0.0
  0
SOLID
  5
234
330
230
100
AcDbEntity
  8
FORMAT
100
AcDbTrace
 10
132.2414158504
 20
86.7703048118
 30
0.0
 11
128.9394158504
 21
87.2783048118
 31
0.0
 12
128.9394158504
 22
86.2623048118
 32
0.0
 13
128.9394158504
 23
86.2623048118
 33
0.0
  0
LINE
  5
235
330
230
100
AcDbEntity
  8
FORMAT
100
AcDbLine
 10
108.2414158504
 20
138.7703048118
 30
0.0
 11
108.2414158504
 21
85.7703048118
 31
0.0
  0
LINE
  5
236
330
230
100
AcDbEntity
  8
FORMAT
100
AcDbLine
 10
132.2414158504
 20
95.7703048118
 30
0.0
 11
132.2414158504
 21
85.7703048118
 31
0.0
  0
LINE
  5
237
330
230
100
AcDbEntity
  8
FORMAT
100
AcDbLine
 10
108.2414158504
 20
86.7703048118
 30
0.0
 11
132.2414158504
 21
86.7703048118
 31
0.0
  0
MTEXT
  5
238
330
230
100
AcDbEntity
  8
FORMAT
100
AcDbMText
 10
117.5678048055
 20
91.2820421339
 30
0.0
 40
3.5
 41
0.0
 71
     1
 72
     1
  1
24
  7
SLDTEXTSTYLE0
 73
     1
 44
1.0
  0
ENDBLK
  5
232
330
230
100
AcDbEntity
  8
0
100
AcDbBlockEnd
  0
BLOCK
  5
23B
330
23A
100
AcDbEntity
  8
0
100
AcDbBlockBegin
  2
_D_13
 70
     0
 10
0.0
 20
0.0
 30
0.0
  3
_D_13
  1

  0
SOLID
  5
23D
330
23A
100
AcDbEntity
  8
FORMAT
100
AcDbTrace
 10
100.6503547297
 20
233.7703048118
 30
0.0
 11
100.1423547297
 21
230.4683048118
 31
0.0
 12
101.1583547297
 22
230.4683048118
 32
0.0
 13
101.1583547297
 23
230.4683048118
 33
0.0
  0
SOLID
  5
23E
330
23A
100
AcDbEntity
  8
FORMAT
100
AcDbTrace
 10
100.6503547297
 20
139.7703048118
 30
0.0
 11
101.1583547297
 21
143.0723048118
 31
0.0
 12
100.1423547297
 22
143.0723048118
 32
0.0
 13
100.1423547297
 23
143.0723048118
 33
0.0
  0
LINE
  5
23F
330
23A
100
AcDbEntity
  8
FORMAT
100
AcDbLine
 10
107.2414158504
 20
233.7703048118
 30
0.0
 11
99.6503547297
 21
233.7703048118
 31
0.0
  0
LINE
  5
240
330
23A
100
AcDbEntity
  8
FORMAT
100
AcDbLine
 10
107.2414158504
 20
139.7703048118
 30
0.0
 11
99.6503547297
 21
139.7703048118
 31
0.0
  0
LINE
  5
241
330
23A
100
AcDbEntity
  8
FORMAT
100
AcDbLine
 10
100.6503547297
 20
233.7703048118
 30
0.0
 11
100.6503547297
 21
139.7703048118
 31
0.0
  0
MTEXT
  5
242
330
23A
100
AcDbEntity
  8
FORMAT
100
AcDbMText
 10
96.1386174077
 20
184.096693767
 30
0.0
 40
3.5
 41
0.0
 71
     1
 72
     1
  1
94
  7
SLDTEXTSTYLE0
 11
-7.044195017643634E-15
 21
1.0
 31
0.0
 73
     1
 44
1.0
  0
ENDBLK
  5
23C
330
23A
100
AcDbEntity
  8
0
100
AcDbBlockEnd
  0
BLOCK
  5
266
330
265
100
AcDbEntity
  8
0
100
AcDbBlockBegin
  2
_D_14
 70
     0
 10
0.0
 20
0.0
 30
0.0
  3
_D_14
  1

  0
SOLID
  5
268
330
265
100
AcDbEntity
  8
FORMAT
100
AcDbTrace
 10
52.6100420222
 20
47.7483796152
 30
0.0
 11
49.3080420222
 21
48.2563796152
 31
0.0
 12
49.3080420222
 22
47.2403796152
 32
0.0
 13
49.3080420222
 23
47.2403796152
 33
0.0
  0
SOLID
  5
269
330
265
100
AcDbEntity
  8
FORMAT
100
AcDbTrace
 10
59.2100420222
 20
47.7483796152
 30
0.0
 11
62.5120420222
 21
47.2403796152
 31
0.0
 12
62.5120420222
 22
48.2563796152
 32
0.0
 13
62.5120420222
 23
48.2563796152
 33
0.0
  0
LINE
  5
26A
330
265
100
AcDbEntity
  8
FORMAT
100
AcDbLine
 10
52.6100420222
 20
40.5890632847
 30
0.0
 11
52.6100420222
 21
48.7483796152
 31
0.0
  0
LINE
  5
26B
330
265
100
AcDbEntity
  8
FORMAT
100
AcDbLine
 10
59.2100420222
 20
40.5890632847
 30
0.0
 11
59.2100420222
 21
48.7483796152
 31
0.0
  0
LINE
  5
26C
330
265
100
AcDbEntity
  8
FORMAT
100
AcDbLine
 10
52.6100420222
 20
47.7483796152
 30
0.0
 11
35.8945607087
 21
47.7483796152
 31
0.0
  0
LINE
  5
26D
330
265
100
AcDbEntity
  8
FORMAT
100
AcDbLine
 10
52.6100420222
 20
47.7483796152
 30
0.0
 11
59.2100420222
 21
47.7483796152
 31
0.0
  0
LINE
  5
26E
330
265
100
AcDbEntity
  8
FORMAT
100
AcDbLine
 10
59.2100420222
 20
47.7483796152
 30
0.0
 11
65.5600420222
 21
47.7483796152
 31
0.0
  0
MTEXT
  5
26F
330
265
100
AcDbEntity
  8
FORMAT
100
AcDbMText
 10
35.8945607087
 20
52.2601167044
 30
0.0
 40
3.5
 41
0.0
 71
     1
 72
     1
  1
%%c
  7
SLDTEXTSTYLE0
 73
     1
 44
1.0
  0
MTEXT
  5
270
330
265
100
AcDbEntity
  8
FORMAT
100
AcDbMText
 10
40.997512254
 20
52.2698390136
 30
0.0
 40
3.5
 41
0.0
 71
     1
 72
     1
  1
6,6
  7
SLDTEXTSTYLE0
 73
     1
 44
1.0
  0
ENDBLK
  5
267
330
265
100
AcDbEntity
  8
0
100
AcDbBlockEnd
  0
BLOCK
  5
274
330
273
100
AcDbEntity
  8
0
100
AcDbBlockBegin
  2
_D_15
 70
     0
 10
0.0
 20
0.0
 30
0.0
  3
_D_15
  1

  0
ARC
  5
276
330
273
100
AcDbEntity
  8
FORMAT
100
AcDbCircle
 10
55.9100420222
 20
42.7890632847
 30
0.0
 40
27.48824969617591
100
AcDbArc
 50
225.0
 51
315.0
  0
SOLID
  5
277
330
273
100
AcDbEntity
  8
FORMAT
100
AcDbTrace
 10
36.4729142591
 20
23.3519355215
 30
0.0
 11
38.6059862221
 21
20.7806961315
 31
0.0
 12
39.2802051387
 22
21.5407519534
 32
0.0
 13
39.2802051387
 23
21.5407519534
 33
0.0
  0
SOLID
  5
278
330
273
100
AcDbEntity
  8
FORMAT
100
AcDbTrace
 10
75.3471697854
 20
23.3519355215
 30
0.0
 11
72.5398789058
 21
21.5407519534
 31
0.0
 12
73.2140978224
 22
20.7806961315
 32
0.0
 13
73.2140978224
 23
20.7806961315
 33
0.0
  0
LINE
  5
279
330
273
100
AcDbEntity
  8
FORMAT
100
AcDbLine
 10
49.002935241
 20
35.8819565035
 30
0.0
 11
42.2920979843
 21
29.1711192467
 31
0.0
  0
LINE
  5
27A
330
273
100
AcDbEntity
  8
FORMAT
100
AcDbLine
 10
40.1707776407
 20
27.0497989032
 30
0.0
 11
35.7658074779
 21
22.6448287404
 31
0.0
  0
LINE
  5
27B
330
273
100
AcDbEntity
  8
FORMAT
100
AcDbLine
 10
62.8171488034
 20
35.8819565035
 30
0.0
 11
76.0542765665
 21
22.6448287404
 31
0.0
  0
MTEXT
  5
27C
330
273
100
AcDbEntity
  8
FORMAT
100
AcDbMText
 10
52.2739309826
 20
19.8125509105
 30
0.0
 40
3.5
 41
0.0
 71
     1
 72
     1
  1
90°
  7
SLDTEXTSTYLE0
 73
     1
 44
1.0
  0
ENDBLK
  5
275
330
273
100
AcDbEntity
  8
0
100
AcDbBlockEnd
  0
BLOCK
  5
27F
330
27E
100
AcDbEntity
  8
0
100
AcDbBlockBegin
  2
_D_16
 70
     0
 10
0.0
 20
0.0
 30
0.0
  3
_D_16
  1

  0
SOLID
  5
281
330
27E
100
AcDbEntity
  8
FORMAT
100
AcDbTrace
 10
49.7100420222
 20
28.110459075
 30
0.0
 11
46.4080420222
 21
28.618459075
 31
0.0
 12
46.4080420222
 22
27.602459075
 32
0.0
 13
46.4080420222
 23
27.602459075
 33
0.0
  0
SOLID
  5
282
330
27E
100
AcDbEntity
  8
FORMAT
100
AcDbTrace
 10
62.1100420222
 20
28.110459075
 30
0.0
 11
65.4120420222
 21
27.602459075
 31
0.0
 12
65.4120420222
 22
28.618459075
 32
0.0
 13
65.4120420222
 23
28.618459075
 33
0.0
  0
LINE
  5
283
330
27E
100
AcDbEntity
  8
FORMAT
100
AcDbLine
 10
49.7100420222
 20
35.5890632847
 30
0.0
 11
49.7100420222
 21
27.110459075
 31
0.0
  0
LINE
  5
284
330
27E
100
AcDbEntity
  8
FORMAT
100
AcDbLine
 10
62.1100420222
 20
35.5890632847
 30
0.0
 11
62.1100420222
 21
27.110459075
 31
0.0
  0
LINE
  5
285
330
27E
100
AcDbEntity
  8
FORMAT
100
AcDbLine
 10
49.7100420222
 20
28.110459075
 30
0.0
 11
24.068455018
 21
28.110459075
 31
0.0
  0
LINE
  5
286
330
27E
100
AcDbEntity
  8
FORMAT
100
AcDbLine
 10
49.7100420222
 20
28.110459075
 30
0.0
 11
62.1100420222
 21
28.110459075
 31
0.0
  0
LINE
  5
287
330
27E
100
AcDbEntity
  8
FORMAT
100
AcDbLine
 10
62.1100420222
 20
28.110459075
 30
0.0
 11
68.4600420222
 21
28.110459075
 31
0.0
  0
MTEXT
  5
288
330
27E
100
AcDbEntity
  8
FORMAT
100
AcDbMText
 10
24.068455018
 20
32.6221961642
 30
0.0
 40
3.5
 41
0.0
 71
     1
 72
     1
  1
%%c
  7
SLDTEXTSTYLE0
 73
     1
 44
1.0
  0
MTEXT
  5
289
330
27E
100
AcDbEntity
  8
FORMAT
100
AcDbMText
 10
29.1714065633
 20
32.6319184733
 30
0.0
 40
3.5
 41
0.0
 71
     1
 72
     1
  1
12,4
  7
SLDTEXTSTYLE0
 73
     1
 44
1.0
  0
ENDBLK
  5
280
330
27E
100
AcDbEntity
  8
0
100
AcDbBlockEnd
  0
BLOCK
  5
28C
330
28B
100
AcDbEntity
  8
0
100
AcDbBlockBegin
  2
_D_17
 70
     0
 10
0.0
 20
0.0
 30
0.0
  3
_D_17
  1

  0
SOLID
  5
28E
330
28B
100
AcDbEntity
  8
FORMAT
100
AcDbTrace
 10
71.8849157564
 20
37.6141895505
 30
0.0
 11
73.860572103
 21
34.9201127142
 31
0.0
 12
74.5789925927
 22
35.6385332039
 32
0.0
 13
74.5789925927
 23
35.6385332039
 33
0.0
  0
LINE
  5
28F
330
28B
100
AcDbEntity
  8
FORMAT
100
AcDbLine
 10
71.8849157564
 20
37.6141895505
 30
0.0
 11
82.5146958294
 21
26.9844094775
 31
0.0
  0
MTEXT
  5
290
330
28B
100
AcDbEntity
  8
FORMAT
100
AcDbMText
 10
78.4889860607
 20
37.3198418952
 30
0.0
 40
3.5
 41
0.0
 71
     1
 72
     1
  1
R3,5
  7
SLDTEXTSTYLE0
 11
0.7071067811865556
 21
-0.7071067811865395
 31
0.0
 73
     1
 44
1.0
  0
ENDBLK
  5
28D
330
28B
100
AcDbEntity
  8
0
100
AcDbBlockEnd
  0
BLOCK
  5
293
330
292
100
AcDbEntity
  8
0
100
AcDbBlockBegin
  2
_D_18
 70
     0
 10
0.0
 20
0.0
 30
0.0
  3
_D_18
  1

  0
SOLID
  5
295
330
292
100
AcDbEntity
  8
FORMAT
100
AcDbTrace
 10
72.9100420222
 20
70.5890632847
 30
0.0
 11
76.2120420222
 21
70.0810632847
 31
0.0
 12
76.2120420222
 22
71.0970632847
 32
0.0
 13
76.2120420222
 23
71.0970632847
 33
0.0
  0
SOLID
  5
296
330
292
100
AcDbEntity
  8
FORMAT
100
AcDbTrace
 10
69.9100420222
 20
70.5890632847
 30
0.0
 11
66.6080420222
 21
71.0970632847
 31
0.0
 12
66.6080420222
 22
70.0810632847
 32
0.0
 13
66.6080420222
 23
70.0810632847
 33
0.0
  0
LINE
  5
297
330
292
100
AcDbEntity
  8
FORMAT
100
AcDbLine
 10
72.9100420222
 20
61.5890632847
 30
0.0
 11
72.9100420222
 21
71.5890632847
 31
0.0
  0
LINE
  5
298
330
292
100
AcDbEntity
  8
FORMAT
100
AcDbLine
 10
69.9100420222
 20
61.5890632847
 30
0.0
 11
69.9100420222
 21
71.5890632847
 31
0.0
  0
LINE
  5
299
330
292
100
AcDbEntity
  8
FORMAT
100
AcDbLine
 10
72.9100420222
 20
70.5890632847
 30
0.0
 11
83.2704585896
 21
70.5890632847
 31
0.0
  0
LINE
  5
29A
330
292
100
AcDbEntity
  8
FORMAT
100
AcDbLine
 10
72.9100420222
 20
70.5890632847
 30
0.0
 11
69.9100420222
 21
70.5890632847
 31
0.0
  0
LINE
  5
29B
330
292
100
AcDbEntity
  8
FORMAT
100
AcDbLine
 10
69.9100420222
 20
70.5890632847
 30
0.0
 11
63.5600420222
 21
70.5890632847
 31
0.0
  0
MTEXT
  5
29C
330
292
100
AcDbEntity
  8
FORMAT
100
AcDbMText
 10
80.5968475447
 20
75.1008006067
 30
0.0
 40
3.5
 41
0.0
 71
     1
 72
     1
  1
3
  7
SLDTEXTSTYLE0
 73
     1
 44
1.0
  0
ENDBLK
  5
294
330
292
100
AcDbEntity
  8
0
100
AcDbBlockEnd
  0
ENDSEC
  0
SECTION
  2
ENTITIES
  0
LINE
  5
106
330
1F
100
AcDbEntity
  8
FORMAT
  6
Continuous
 62
     7
370
    18
100
AcDbLine
 10
168.2233544162
 20
35.6464717326
 30
0.0
 11
100.034011087
 21
35.6464717326
 31
0.0
  0
LINE
  5
107
330
1F
100
AcDbEntity
  8
FORMAT
  6
Continuous
 62
     7
370
    18
100
AcDbLine
 10
168.2233544162
 20
48.7420674192
 30
0.0
 11
199.7748262501
 21
48.7420674192
 31
0.0
  0
LINE
  5
108
330
1F
100
AcDbEntity
  8
FORMAT
  6
Continuous
 62
     7
370
    18
100
AcDbLine
 10
154.5410273733
 20
35.6464717326
 30
0.0
 11
154.5410273733
 21
25.9765524102
 31
0.0
  0
LINE
  5
109
330
1F
100
AcDbEntity
  8
BEMASSUNG
  6
Continuous
 62
     7
370
    18
100
AcDbLine
 10
168.2233544162
 20
40.5638075942
 30
0.0
 11
199.7748262501
 21
40.5638075942
 31
0.0
  0
LINE
  5
10A
330
1F
100
AcDbEntity
  8
FORMAT
100
AcDbLine
 10
9.9438597858
 20
287.0
 30
0.0
 11
9.9438597858
 21
10.0
 31
0.0
  0
LINE
  5
10B
330
1F
100
AcDbEntity
  8
FORMAT
 62
     7
370
    18
100
AcDbLine
 10
100.034011087
 20
52.6963884738
 30
0.0
 11
100.034011087
 21
10.0
 31
0.0
  0
LINE
  5
10C
330
1F
100
AcDbEntity
  8
FORMAT
 62
     7
100
AcDbLine
 10
185.0302857672
 20
10.0
 30
0.0
 11
185.0302857672
 21
19.3470401503
 31
0.0
  0
LINE
  5
10D
330
1F
100
AcDbEntity
  8
FORMAT
 62
     7
100
AcDbLine
 10
100.034011087
 20
25.9765524102
 30
0.0
 11
199.7748262501
 21
25.9765524102
 31
0.0
  0
LINE
  5
10E
330
1F
100
AcDbEntity
  8
FORMAT
 62
     7
100
AcDbLine
 10
168.2233544162
 20
19.3470401503
 30
0.0
 11
199.7748262501
 21
19.3470401503
 31
0.0
  0
LINE
  5
10F
330
1F
100
AcDbEntity
  8
FORMAT
100
AcDbLine
 10
9.9438597858
 20
10.0
 30
0.0
 11
199.9438597858
 21
10.0
 31
0.0
  0
LINE
  5
110
330
1F
100
AcDbEntity
  8
FORMAT
 62
     7
100
AcDbLine
 10
100.034011087
 20
52.6963884738
 30
0.0
 11
199.7882081366
 21
52.6963884738
 31
0.0
  0
LINE
  5
111
330
1F
100
AcDbEntity
  8
FORMAT
 62
     7
100
AcDbLine
 10
168.2233544162
 20
10.0
 30
0.0
 11
168.2233544162
 21
52.6963884738
 31
0.0
  0
LINE
  5
112
330
1F
100
AcDbEntity
  8
FORMAT
100
AcDbLine
 10
199.9438597858
 20
10.0
 30
0.0
 11
199.9438597858
 21
287.0
 31
0.0
  0
LINE
  5
113
330
1F
100
AcDbEntity
  8
FORMAT
100
AcDbLine
 10
199.9438597858
 20
287.0
 30
0.0
 11
9.9438597858
 21
287.0
 31
0.0
  0
INSERT
  5
114
330
1F
100
AcDbEntity
  8
FORMAT
100
AcDbBlockReference
  2
Block1_1
 10
175.6328999998
 20
27.0956685316
 30
0.0
  0
INSERT
  5
115
330
1F
100
AcDbEntity
  8
FORMAT
100
AcDbBlockReference
  2
Block2
 10
-130.7567167495
 20
-36.9711154434
 30
0.0
  0
MTEXT
  5
117
330
1F
100
AcDbEntity
  8
0
  6
Continuous
 62
     7
370
     0
100
AcDbMText
 10
101.379344253
 20
31.2497388993
 30
0.0
 40
3.175
 41
0.0
 71
     1
 72
     1
  1
D043-30801
  7
SLDTEXTSTYLE3
 73
     1
 44
1.0
  0
MTEXT
  5
118
330
1F
100
AcDbEntity
  8
BEMASSUNG
 62
     7
100
AcDbMText
 10
169.1138237549
 20
47.9795870073
 30
0.0
 40
2.0
 41
0.0
 71
     1
 72
     1
  1
Ausführung:
  7
SLDTEXTSTYLE0
 73
     1
 44
1.0
  0
MTEXT
  5
119
330
1F
100
AcDbEntity
  8
FORMAT
100
AcDbMText
 10
157.9048085267
 20
34.4345411691
 30
0.0
 40
2.0
 41
0.0
 71
     1
 72
     1
  1
Index:
  7
SLDTEXTSTYLE0
 73
     1
 44
1.0
  0
MTEXT
  5
11A
330
1F
100
AcDbEntity
  8
FORMAT
100
AcDbMText
 10
170.7771570289
 20
51.6009600552
 30
0.0
 40
1.8
 41
0.0
 71
     1
 72
     1
  1
KATALOGZEICHNUNG
  7
SLDTEXTSTYLE3
 73
     1
 44
1.0
  0
MTEXT
  5
11B
330
1F
100
AcDbEntity
  8
FORMAT
100
AcDbMText
 10
101.6738581533
 20
34.7696723378
 30
0.0
 40
2.0
 41
0.0
 71
     1
 72
     1
  1
Zeichnungsnummer:
  7
SLDTEXTSTYLE0
 73
     1
 44
1.0
  0
MTEXT
  5
11C
330
1F
100
AcDbEntity
  8
FORMAT
100
AcDbMText
 10
178.7654032586
 20
14.2806067945
 30
0.0
 40
2.1166666667
 41
0.0
 71
     1
 72
     1
  1
2
  7
SLDTEXTSTYLE0
 73
     1
 44
1.0
  0
MTEXT
  5
11D
330
1F
100
AcDbEntity
  8
FORMAT
100
AcDbMText
 10
172.6928815371
 20
14.2806067945
 30
0.0
 40
2.1166666667
 41
0.0
 71
     1
 72
     1
  1
2
  7
SLDTEXTSTYLE0
 73
     1
 44
1.0
  0
MTEXT
  5
11E
330
1F
100
AcDbEntity
  8
FORMAT
100
AcDbMText
 10
190.3665335114
 20
14.1724992936
 30
0.0
 40
2.1166666667
 41
0.0
 71
     1
 72
     1
  1
A4
  7
SLDTEXTSTYLE0
 73
     1
 44
1.0
  0
MTEXT
  5
11F
330
1F
100
AcDbEntity
  8
FORMAT
100
AcDbMText
 10
183.0445761222
 20
23.7012230636
 30
0.0
 40
2.1166666667
 41
0.0
 71
     1
 72
     1
  1
1:1
  7
SLDTEXTSTYLE0
 73
     1
 44
1.0
  0
MTEXT
  5
120
330
1F
100
AcDbEntity
  8
FORMAT
100
AcDbMText
 10
176.4699079998
 20
14.3853488894
 30
0.0
 40
2.5
 41
0.0
 71
     2
 72
     1
  1
/
  7
SLDTEXTSTYLE0
 73
     1
 44
1.0
  0
MTEXT
  5
121
330
1F
100
AcDbEntity
  8
FORMAT
100
AcDbMText
 10
170.4739006917
 20
17.8898077508
 30
0.0
 40
2.0
 41
0.0
 71
     1
 72
     1
  1
Blatt / von
  7
SLDTEXTSTYLE0
 73
     1
 44
1.0
  0
MTEXT
  5
122
330
1F
100
AcDbEntity
  8
FORMAT
100
AcDbMText
 10
101.4386342429
 20
51.292111694
 30
0.0
 40
2.0
 41
0.0
 71
     1
 72
     1
  1
Benennung:
  7
SLDTEXTSTYLE0
 73
     1
 44
1.0
  0
MTEXT
  5
123
330
1F
100
AcDbEntity
  8
FORMAT
100
AcDbMText
 10
187.8238638594
 20
17.8898077508
 30
0.0
 40
2.0
 41
0.0
 71
     1
 72
     1
  1
Format
  7
SLDTEXTSTYLE0
 73
     1
 44
1.0
  0
MTEXT
  5
124
330
1F
100
AcDbEntity
  8
FORMAT
100
AcDbMText
 10
169.1523306895
 20
23.5727761737
 30
0.0
 40
2.0
 41
0.0
 71
     1
 72
     1
  1
Maßstab:
  7
SLDTEXTSTYLE0
 73
     1
 44
1.0
  0
MTEXT
  5
125
330
1F
100
AcDbEntity
  8
FORMAT
100
AcDbMText
 10
101.3063537626
 20
47.9174905769
 30
0.0
 40
3.5
 41
0.0
 71
     1
 72
     1
  1
Abdeckwinkel re
  7
SLDTEXTSTYLE3
 73
     1
 44
1.0
  0
MTEXT
  5
126
330
1F
100
AcDbEntity
  8
FORMAT
100
AcDbMText
 10
101.3063537626
 20
43.3217919868
 30
0.0
 40
2.5
 41
0.0
 71
     1
 72
     1
  1
OBX-3199
  7
SLDTEXTSTYLE3
 73
     1
 44
1.0
  0
MTEXT
  5
127
330
1F
100
AcDbEntity
  8
FORMAT
100
AcDbMText
 10
101.2782587078
 20
39.8865817366
 30
0.0
 40
2.5
 41
0.0
 71
     1
 72
     1
  1
Aufnahmeelement OBX-31XX-3D
  7
SLDTEXTSTYLE3
 73
     1
 44
1.0
  0
INSERT
  5
134
330
1F
100
AcDbEntity
  8
FORMAT
100
AcDbBlockReference
  2
SW_NOTE_0_7
 10
100.518766294
 20
81.4367583098
 30
0.0
  0
LINE
  5
135
330
1F
100
AcDbEntity
  8
0
  6
Continuous
 62
     7
370
    25
100
AcDbLine
 10
67.9100420222
 20
108.7703048118
 30
0.0
 11
67.9100420222
 21
139.7703048118
 31
0.0
  0
ARC
  5
136
330
1F
100
AcDbEntity
  8
0
  6
Continuous
 62
     7
370
    25
100
AcDbCircle
 10
55.9100420222
 20
108.7703048118
 30
0.0
 40
12.00000000000001
100
AcDbArc
 50
180.0
 51
0.0
  0
LINE
  5
137
330
1F
100
AcDbEntity
  8
0
  6
Continuous
 62
     7
370
    25
100
AcDbLine
 10
43.9100420222
 20
264.7703048118
 30
0.0
 11
43.9100420222
 21
108.7703048118
 31
0.0
  0
ARC
  5
138
330
1F
100
AcDbEntity
  8
0
  6
Continuous
 62
     7
370
    25
100
AcDbCircle
 10
55.9100420222
 20
264.7703048118
 30
0.0
 40
12.0
100
AcDbArc
 50
0.0
 51
180.0
  0
LINE
  5
139
330
1F
100
AcDbEntity
  8
0
  6
Continuous
 62
     7
370
    25
100
AcDbLine
 10
67.9100420222
 20
233.7703048118
 30
0.0
 11
67.9100420222
 21
264.7703048118
 31
0.0
  0
LINE
  5
13A
330
1F
100
AcDbEntity
  8
0
  6
Continuous
 62
     7
370
    25
100
AcDbLine
 10
67.9100420222
 20
233.7703048118
 30
0.0
 11
69.4100420222
 21
233.7703048118
 31
0.0
  0
LINE
  5
13B
330
1F
100
AcDbEntity
  8
0
  6
Continuous
 62
     7
370
    25
100
AcDbLine
 10
67.9100420222
 20
139.7703048118
 30
0.0
 11
69.4100420222
 21
139.7703048118
 31
0.0
  0
CIRCLE
  5
13C
330
1F
100
AcDbEntity
  8
0
  6
Continuous
 62
     7
370
    25
100
AcDbCircle
 10
55.9100420222
 20
264.7703048118
 30
0.0
 40
6.199999999999996
  0
CIRCLE
  5
13D
330
1F
100
AcDbEntity
  8
0
  6
Continuous
 62
     7
370
    25
100
AcDbCircle
 10
55.9100420222
 20
108.7703048118
 30
0.0
 40
6.199999999999996
  0
CIRCLE
  5
13E
330
1F
100
AcDbEntity
  8
0
  6
Continuous
 62
     7
370
    25
100
AcDbCircle
 10
55.9100420222
 20
242.7703048118
 30
0.0
 40
5.049999999999997
  0
CIRCLE
  5
13F
330
1F
100
AcDbEntity
  8
0
  6
Continuous
 62
     7
370
    25
100
AcDbCircle
 10
55.9100420222
 20
130.7703048118
 30
0.0
 40
5.049999999999997
  0
CIRCLE
  5
140
330
1F
100
AcDbEntity
  8
0
  6
Continuous
 62
     7
370
    25
100
AcDbCircle
 10
58.9100420222
 20
214.7703048118
 30
0.0
 40
5.25
  0
CIRCLE
  5
141
330
1F
100
AcDbEntity
  8
0
  6
Continuous
 62
     7
370
    25
100
AcDbCircle
 10
58.9100420222
 20
186.7703048118
 30
0.0
 40
5.25
  0
CIRCLE
  5
142
330
1F
100
AcDbEntity
  8
0
  6
Continuous
 62
     7
370
    25
100
AcDbCircle
 10
58.9100420222
 20
158.7703048118
 30
0.0
 40
5.25
  0
CIRCLE
  5
143
330
1F
100
AcDbEntity
  8
0
  6
Continuous
 62
     7
370
    25
100
AcDbCircle
 10
55.9100420222
 20
108.7703048118
 30
0.0
 40
3.299999999999997
  0
CIRCLE
  5
144
330
1F
100
AcDbEntity
  8
0
  6
Continuous
 62
     7
370
    25
100
AcDbCircle
 10
55.9100420222
 20
264.7703048118
 30
0.0
 40
3.299999999999997
  0
LINE
  5
145
330
1F
100
AcDbEntity
  8
0
  6
Continuous
 62
     7
370
    25
100
AcDbLine
 10
72.9100420222
 20
233.7703048118
 30
0.0
 11
72.9100420222
 21
139.7703048118
 31
0.0
  0
LINE
  5
146
330
1F
100
AcDbEntity
  8
0
  6
Continuous
 62
     7
370
    25
100
AcDbLine
 10
72.9100420222
 20
233.7703048118
 30
0.0
 11
69.4100420222
 21
233.7703048118
 31
0.0
  0
LINE
  5
147
330
1F
100
AcDbEntity
  8
0
  6
Continuous
 62
     7
370
    25
100
AcDbLine
 10
72.9100420222
 20
139.7703048118
 30
0.0
 11
69.4100420222
 21
139.7703048118
 31
0.0
  0
DIMENSION
  5
148
330
1F
100
AcDbEntity
  8
FORMAT
100
AcDbDimension
  2
_D
 10
55.9100420222
 20
264.7703048118
 30
0.0
 11
70.6027819624
 21
279.463044752
 31
0.0
 70
   164
  1
<>
 71
     1
 42
-1.0
  3
SLDDIMSTYLE0
100
AcDbRadialDimension
 15
64.3953233965
 25
273.2555861861
 35
0.0
 40
0.0
  0
DIMENSION
  5
150
330
1F
100
AcDbEntity
  8
FORMAT
100
AcDbDimension
  2
_D_1
 10
43.9100420222
 20
231.3576636083
 30
0.0
 11
49.9100420222
 21
231.3576636083
 31
0.0
 70
   160
  1
<>
 71
     2
 42
-1.0
  3
SLDDIMSTYLE1
100
AcDbAlignedDimension
 13
55.9100420222
 23
235.2203048118
 33
0.0
 14
43.9100420222
 24
264.7703048118
 34
0.0
 50
0.0
100
AcDbRotatedDimension
  0
DIMENSION
  5
15A
330
1F
100
AcDbEntity
  8
FORMAT
100
AcDbDimension
  2
_D_2
 10
43.9100420222
 20
223.7261505041
 30
0.0
 11
51.4100420222
 21
223.7261505041
 31
0.0
 70
   160
  1
<>
 71
     2
 42
-1.0
  3
SLDDIMSTYLE1
100
AcDbAlignedDimension
 13
58.9100420222
 23
222.5203048118
 33
0.0
 14
43.9100420222
 24
264.7703048118
 34
0.0
 50
0.0
100
AcDbRotatedDimension
  0
DIMENSION
  5
163
330
1F
100
AcDbEntity
  8
FORMAT
100
AcDbDimension
  2
_D_3
 10
64.1600420222
 20
171.7267934768
 30
0.0
 11
58.9100420222
 21
171.7267934768
 31
0.0
 70
   160
  1
%%c<>
 71
     2
 42
-1.0
  3
SLDDIMSTYLE2
100
AcDbAlignedDimension
 13
53.6600420222
 23
158.7703048118
 33
0.0
 14
64.1600420222
 24
158.7703048118
 34
0.0
100
AcDbRotatedDimension
  0
DIMENSION
  5
171
330
1F
100
AcDbEntity
  8
FORMAT
100
AcDbDimension
  2
_D_4
 10
60.9600420222
 20
143.7230803222
 30
0.0
 11
55.9100420222
 21
143.7230803222
 31
0.0
 70
   160
  1
%%c<>
 71
     2
 42
-1.0
  3
SLDDIMSTYLE2
100
AcDbAlignedDimension
 13
50.8600420222
 23
130.7703048118
 33
0.0
 14
60.9600420222
 24
130.7703048118
 34
0.0
100
AcDbRotatedDimension
  0
DIMENSION
  5
17E
330
1F
100
AcDbEntity
  8
FORMAT
100
AcDbDimension
  2
_D_5
 10
64.1600420222
 20
201.7191891892
 30
0.0
 11
58.9100420222
 21
201.7191891892
 31
0.0
 70
   160
  1
%%c<>
 71
     2
 42
-1.0
  3
SLDDIMSTYLE2
100
AcDbAlignedDimension
 13
53.6600420222
 23
186.7703048118
 33
0.0
 14
64.1600420222
 24
186.7703048118
 34
0.0
100
AcDbRotatedDimension
  0
DIMENSION
  5
18B
330
1F
100
AcDbEntity
  8
FORMAT
100
AcDbDimension
  2
_D_6
 10
67.9100420222
 20
88.8533448102
 30
0.0
 11
55.9100420222
 21
88.8533448102
 31
0.0
 70
   160
  1
<>
 71
     2
 42
-1.0
  3
SLDDIMSTYLE1
100
AcDbAlignedDimension
 13
43.9100420222
 23
108.7703048118
 33
0.0
 14
67.9100420222
 24
108.7703048118
 34
0.0
 50
0.0
100
AcDbRotatedDimension
  0
DIMENSION
  5
195
330
1F
100
AcDbEntity
  8
FORMAT
100
AcDbDimension
  2
_D_7
 10
43.9100420222
 20
80.7703048118
 30
0.0
 11
58.4100420222
 21
80.7703048118
 31
0.0
 70
   160
  1
<>
 71
     2
 42
-1.0
  3
SLDDIMSTYLE1
100
AcDbAlignedDimension
 13
72.9100420222
 23
139.7703048118
 33
0.0
 14
43.9100420222
 24
108.7703048118
 34
0.0
 50
0.0
100
AcDbRotatedDimension
  0
DIMENSION
  5
19F
330
1F
100
AcDbEntity
  8
FORMAT
100
AcDbDimension
  2
_D_8
 10
33.9100420222
 20
158.7703048118
 30
0.0
 11
33.9100420222
 21
186.7703048118
 31
0.0
 70
   160
  1
<>
 71
     2
 42
-1.0
  3
SLDDIMSTYLE1
100
AcDbAlignedDimension
 13
51.1600420222
 23
214.7703048118
 33
0.0
 14
51.1600420222
 24
158.7703048118
 34
0.0
 50
90.0
100
AcDbRotatedDimension
  0
DIMENSION
  5
1A9
330
1F
100
AcDbEntity
  8
FORMAT
100
AcDbDimension
  2
_D_9
 10
27.9100420222
 20
130.7703048118
 30
0.0
 11
27.9100420222
 21
186.7703048118
 31
0.0
 70
   160
  1
<>
 71
     2
 42
-1.0
  3
SLDDIMSTYLE1
100
AcDbAlignedDimension
 13
48.3600420222
 23
242.7703048118
 33
0.0
 14
48.3600420222
 24
130.7703048118
 34
0.0
 50
90.0
100
AcDbRotatedDimension
  0
DIMENSION
  5
1B3
330
1F
100
AcDbEntity
  8
FORMAT
100
AcDbDimension
  2
_D_10
 10
21.9100420222
 20
108.7703048118
 30
0.0
 11
21.9100420222
 21
186.7703048118
 31
0.0
 70
   160
  1
<>
 71
     2
 42
-1.0
  3
SLDDIMSTYLE1
100
AcDbAlignedDimension
 13
50.1100420222
 23
264.7703048118
 33
0.0
 14
50.1100420222
 24
108.7703048118
 34
0.0
 50
90.0
100
AcDbRotatedDimension
  0
INSERT
  5
1C8
330
1F
100
AcDbEntity
  8
FORMAT
100
AcDbBlockReference
  2
SW_CENTERMARKSYMBOL_0
 10
55.9100420222
 20
264.7703048118
 30
0.0
  0
INSERT
  5
1D4
330
1F
100
AcDbEntity
  8
FORMAT
100
AcDbBlockReference
  2
SW_CENTERMARKSYMBOL_1
 10
55.9100420222
 20
108.7703048118
 30
0.0
  0
INSERT
  5
1E0
330
1F
100
AcDbEntity
  8
FORMAT
100
AcDbBlockReference
  2
SW_CENTERMARKSYMBOL_2
 10
55.9100420222
 20
242.7703048118
 30
0.0
  0
INSERT
  5
1EC
330
1F
100
AcDbEntity
  8
FORMAT
100
AcDbBlockReference
  2
SW_CENTERMARKSYMBOL_3
 10
55.9100420222
 20
130.7703048118
 30
0.0
  0
INSERT
  5
1F8
330
1F
100
AcDbEntity
  8
FORMAT
100
AcDbBlockReference
  2
SW_CENTERMARKSYMBOL_4
 10
58.9100420222
 20
214.7703048118
 30
0.0
  0
INSERT
  5
204
330
1F
100
AcDbEntity
  8
FORMAT
100
AcDbBlockReference
  2
SW_CENTERMARKSYMBOL_5
 10
58.9100420222
 20
186.7703048118
 30
0.0
  0
INSERT
  5
210
330
1F
100
AcDbEntity
  8
FORMAT
100
AcDbBlockReference
  2
SW_CENTERMARKSYMBOL_6
 10
58.9100420222
 20
158.7703048118
 30
0.0
  0
LINE
  5
211
330
1F
100
AcDbEntity
  8
0
  6
Continuous
 62
     7
370
    25
100
AcDbLine
 10
132.2414158504
 20
276.7703048118
 30
0.0
 11
129.2414158504
 21
276.7703048118
 31
0.0
  0
LINE
  5
212
330
1F
100
AcDbEntity
  8
0
  6
Continuous
 62
     7
370
    25
100
AcDbLine
 10
129.2414158504
 20
96.7703048118
 30
0.0
 11
132.2414158504
 21
96.7703048118
 31
0.0
  0
LINE
  5
213
330
1F
100
AcDbEntity
  8
0
  6
Continuous
 62
     7
370
    25
100
AcDbLine
 10
132.2414158504
 20
276.7703048118
 30
0.0
 11
132.2414158504
 21
264.7703048118
 31
0.0
  0
LINE
  5
214
330
1F
100
AcDbEntity
  8
0
  6
Continuous
 62
     7
370
    25
100
AcDbLine
 10
129.2414158504
 20
276.7703048118
 30
0.0
 11
129.2414158504
 21
264.7703048118
 31
0.0
  0
LINE
  5
215
330
1F
100
AcDbEntity
  8
0
  6
Continuous
 62
     7
370
    25
100
AcDbLine
 10
132.2414158504
 20
264.7703048118
 30
0.0
 11
132.2414158504
 21
108.7703048118
 31
0.0
  0
LINE
  5
216
330
1F
100
AcDbEntity
  8
0
  6
Continuous
 62
     7
370
    25
100
AcDbLine
 10
129.2414158504
 20
264.7703048118
 30
0.0
 11
129.2414158504
 21
108.7703048118
 31
0.0
  0
LINE
  5
217
330
1F
100
AcDbEntity
  8
0
  6
Continuous
 62
     7
370
    25
100
AcDbLine
 10
132.2414158504
 20
108.7703048118
 30
0.0
 11
132.2414158504
 21
96.7703048118
 31
0.0
  0
LINE
  5
218
330
1F
100
AcDbEntity
  8
0
  6
Continuous
 62
     7
370
    25
100
AcDbLine
 10
129.2414158504
 20
108.7703048118
 30
0.0
 11
129.2414158504
 21
96.7703048118
 31
0.0
  0
LINE
  5
219
330
1F
100
AcDbEntity
  8
0
  6
Continuous
 62
     7
370
    25
100
AcDbLine
 10
129.2414158504
 20
139.7703048118
 30
0.0
 11
129.1563615589
 21
139.7703048118
 31
0.0
  0
LINE
  5
21A
330
1F
100
AcDbEntity
  8
0
  6
Continuous
 62
     7
370
    25
100
AcDbLine
 10
129.2414158504
 20
233.7703048118
 30
0.0
 11
129.1563615589
 21
233.7703048118
 31
0.0
  0
LINE
  5
21B
330
1F
100
AcDbEntity
  8
0
  6
Continuous
 62
     7
370
    25
100
AcDbLine
 10
125.2414158504
 20
141.7703048118
 30
0.0
 11
125.2414158504
 21
231.7703048118
 31
0.0
  0
LINE
  5
21C
330
1F
100
AcDbEntity
  8
0
  6
Continuous
 62
     7
370
    25
100
AcDbLine
 10
125.2414158504
 20
231.7703048118
 30
0.0
 11
115.2414158504
 21
231.7703048118
 31
0.0
  0
LINE
  5
21D
330
1F
100
AcDbEntity
  8
0
  6
Continuous
 62
     7
370
    25
100
AcDbLine
 10
115.2414158504
 20
231.7703048118
 30
0.0
 11
115.2414158504
 21
141.7703048118
 31
0.0
  0
LINE
  5
21E
330
1F
100
AcDbEntity
  8
0
  6
Continuous
 62
     7
370
    25
100
AcDbLine
 10
115.2414158504
 20
141.7703048118
 30
0.0
 11
125.2414158504
 21
141.7703048118
 31
0.0
  0
LINE
  5
21F
330
1F
100
AcDbEntity
  8
0
  6
Continuous
 62
     7
370
    25
100
AcDbLine
 10
108.2414158504
 20
139.7703048118
 30
0.0
 11
108.2414158504
 21
233.7703048118
 31
0.0
  0
LINE
  5
220
330
1F
100
AcDbEntity
  8
0
  6
Continuous
 62
     7
370
    25
100
AcDbLine
 10
127.7414158504
 20
139.7703048118
 30
0.0
 11
127.7414158504
 21
233.7703048118
 31
0.0
  0
LINE
  5
221
330
1F
100
AcDbEntity
  8
0
  6
Continuous
 62
     7
370
    25
100
AcDbLine
 10
108.2414158504
 20
139.7703048118
 30
0.0
 11
127.7414158504
 21
139.7703048118
 31
0.0
  0
LINE
  5
222
330
1F
100
AcDbEntity
  8
0
  6
Continuous
 62
     7
370
    25
100
AcDbLine
 10
108.2414158504
 20
233.7703048118
 30
0.0
 11
127.7414158504
 21
233.7703048118
 31
0.0
  0
LINE
  5
223
330
1F
100
AcDbEntity
  8
0
  6
Continuous
 62
     7
370
    25
100
AcDbLine
 10
129.1563615589
 20
139.7703048118
 30
0.0
 11
127.7414158504
 21
139.7703048118
 31
0.0
  0
LINE
  5
224
330
1F
100
AcDbEntity
  8
0
  6
Continuous
 62
     7
370
    25
100
AcDbLine
 10
129.1563615589
 20
233.7703048118
 30
0.0
 11
127.7414158504
 21
233.7703048118
 31
0.0
  0
DIMENSION
  5
225
330
1F
100
AcDbEntity
  8
FORMAT
100
AcDbDimension
  2
_D_11
 10
142.2414158504
 20
96.7703048118
 30
0.0
 11
142.2414158504
 21
186.7703048118
 31
0.0
 70
   160
  1
<>
 71
     2
 42
-1.0
  3
SLDDIMSTYLE1
100
AcDbAlignedDimension
 13
132.2414158504
 23
276.7703048118
 33
0.0
 14
132.2414158504
 24
96.7703048118
 34
0.0
 50
90.0
100
AcDbRotatedDimension
  0
DIMENSION
  5
22F
330
1F
100
AcDbEntity
  8
FORMAT
100
AcDbDimension
  2
_D_12
 10
132.2414158504
 20
86.7703048118
 30
0.0
 11
120.2414158504
 21
86.7703048118
 31
0.0
 70
   160
  1
<>
 71
     2
 42
-1.0
  3
SLDDIMSTYLE1
100
AcDbAlignedDimension
 13
108.2414158504
 23
139.7703048118
 33
0.0
 14
132.2414158504
 24
96.7703048118
 34
0.0
100
AcDbRotatedDimension
  0
DIMENSION
  5
239
330
1F
100
AcDbEntity
  8
FORMAT
100
AcDbDimension
  2
_D_13
 10
100.6503547297
 20
139.7703048118
 30
0.0
 11
100.6503547297
 21
186.7703048118
 31
0.0
 70
   160
  1
<>
 71
     2
 42
-1.0
  3
SLDDIMSTYLE1
100
AcDbAlignedDimension
 13
108.2414158504
 23
233.7703048118
 33
0.0
 14
108.2414158504
 24
139.7703048118
 34
0.0
 50
90.0
100
AcDbRotatedDimension
  0
LINE
  5
243
330
1F
100
AcDbEntity
  8
FORMAT
  6
CENTERX2
370
    18
100
AcDbLine
 10
106.2414158504
 20
186.7703048118
 30
0.0
 11
135.6709877501
 21
186.7703048118
 31
0.0
  0
LINE
  5
244
330
1F
100
AcDbEntity
  8
0
  6
Continuous
 62
     7
370
    25
100
AcDbLine
 10
67.9100420222
 20
36.5890632847
 30
0.0
 11
67.9100420222
 21
39.5890632847
 31
0.0
  0
LINE
  5
245
330
1F
100
AcDbEntity
  8
0
  6
Continuous
 62
     7
370
    25
100
AcDbLine
 10
67.9100420222
 20
36.5890632847
 30
0.0
 11
64.6183076729
 21
36.5890632847
 31
0.0
  0
ARC
  5
246
330
1F
100
AcDbEntity
  8
0
  6
Continuous
 62
     7
370
    18
100
AcDbCircle
 10
72.4946015164
 20
36.1399153237
 30
0.0
 40
7.889089846140092
100
AcDbArc
 50
154.0743279747
 51
176.736226151
  0
LINE
  5
247
330
1F
100
AcDbEntity
  8
0
  6
Continuous
 62
     7
370
    25
100
AcDbLine
 10
67.9100420222
 20
39.5890632847
 30
0.0
 11
65.3994540941
 21
39.5890632847
 31
0.0
  0
ARC
  5
248
330
1F
100
AcDbEntity
  8
0
  6
Continuous
 62
     7
370
    18
100
AcDbCircle
 10
52.9025606811
 20
36.6790461236
 30
0.0
 40
9.334682948906977
100
AcDbArc
 50
161.8357284877
 51
164.4388823573
  0
LINE
  5
249
330
1F
100
AcDbEntity
  8
0
  6
Continuous
 62
     7
370
    25
100
AcDbLine
 10
43.9100420222
 20
39.1832254154
 30
0.0
 11
43.9100420222
 21
39.5890632847
 31
0.0
  0
LINE
  5
24A
330
1F
100
AcDbEntity
  8
0
  6
Continuous
 62
     7
370
    25
100
AcDbLine
 10
44.0330564177
 20
39.5890632847
 30
0.0
 11
43.9100420222
 21
39.5890632847
 31
0.0
  0
LINE
  5
24B
330
1F
100
AcDbEntity
  8
0
  6
Continuous
 62
     7
370
    25
100
AcDbLine
 10
68.4100420222
 20
39.5890632847
 30
0.0
 11
69.8249877307
 21
38.2606062789
 31
0.0
  0
ARC
  5
24C
330
1F
100
AcDbEntity
  8
0
  6
Continuous
 62
     7
370
    25
100
AcDbCircle
 10
70.5094621522
 20
38.9896431547
 30
0.0
 40
1.000000000000005
100
AcDbArc
 50
226.8057126162
 51
43.1942873839
  0
LINE
  5
24D
330
1F
100
AcDbEntity
  8
0
  6
Continuous
 62
     7
370
    25
100
AcDbLine
 10
71.238499028
 20
39.6741175762
 30
0.0
 11
69.9100420222
 21
41.0890632847
 31
0.0
  0
LINE
  5
24E
330
1F
100
AcDbEntity
  8
0
  6
Continuous
 62
     7
370
    25
100
AcDbLine
 10
69.9100420222
 20
60.5890632847
 30
0.0
 11
69.9100420222
 21
41.0890632847
 31
0.0
  0
LINE
  5
24F
330
1F
100
AcDbEntity
  8
0
  6
Continuous
 62
     7
370
    25
100
AcDbLine
 10
72.9100420222
 20
60.5890632847
 30
0.0
 11
69.9100420222
 21
60.5890632847
 31
0.0
  0
LINE
  5
250
330
1F
100
AcDbEntity
  8
0
  6
Continuous
 62
     7
370
    25
100
AcDbLine
 10
72.9100420222
 20
40.0890632847
 30
0.0
 11
72.9100420222
 21
60.5890632847
 31
0.0
  0
ARC
  5
251
330
1F
100
AcDbEntity
  8
0
  6
Continuous
 62
     7
370
    25
100
AcDbCircle
 10
69.4100420222
 20
40.0890632847
 30
0.0
 40
3.500000000000007
100
AcDbArc
 50
270.0
 51
0.0
  0
LINE
  5
252
330
1F
100
AcDbEntity
  8
0
  6
Continuous
 62
     7
370
    25
100
AcDbLine
 10
68.4100420222
 20
39.5890632847
 30
0.0
 11
67.9100420222
 21
39.5890632847
 31
0.0
  0
LINE
  5
253
330
1F
100
AcDbEntity
  8
0
  6
Continuous
 62
     7
370
    25
100
AcDbLine
 10
67.9100420222
 20
36.5890632847
 30
0.0
 11
69.4100420222
 21
36.5890632847
 31
0.0
  0
LINE
  5
254
330
1F
100
AcDbEntity
  8
0
  6
Continuous
 62
     7
370
    25
100
AcDbLine
 10
43.9100420222
 20
36.5890632847
 30
0.0
 11
43.9100420417
 21
39.1832254853
 31
0.0
  0
LINE
  5
255
330
1F
100
AcDbEntity
  8
0
  6
Continuous
 62
     7
370
    25
100
AcDbLine
 10
52.6100420222
 20
39.4890632847
 30
0.0
 11
52.6100420222
 21
39.5890632847
 31
0.0
  0
LINE
  5
256
330
1F
100
AcDbEntity
  8
0
  6
Continuous
 62
     7
370
    25
100
AcDbLine
 10
49.7100420222
 20
36.5890632847
 30
0.0
 11
52.6100420222
 21
39.4890632847
 31
0.0
  0
LINE
  5
257
330
1F
100
AcDbEntity
  8
0
  6
Continuous
 62
     7
370
    25
100
AcDbLine
 10
52.6100420222
 20
39.5890632847
 30
0.0
 11
44.0330564177
 21
39.5890632847
 31
0.0
  0
LINE
  5
258
330
1F
100
AcDbEntity
  8
0
  6
Continuous
 62
     7
370
    25
100
AcDbLine
 10
49.7100420222
 20
36.5890632847
 30
0.0
 11
43.9100420222
 21
36.5890632847
 31
0.0
  0
LINE
  5
259
330
1F
100
AcDbEntity
  8
0
  6
Continuous
 62
     7
370
    25
100
AcDbLine
 10
52.6100420222
 20
39.4890632847
 30
0.0
 11
59.2100420222
 21
39.4890632847
 31
0.0
  0
LINE
  5
25A
330
1F
100
AcDbEntity
  8
0
  6
Continuous
 62
     7
370
    25
100
AcDbLine
 10
59.2100420222
 20
39.4890632847
 30
0.0
 11
62.1100420222
 21
36.5890632847
 31
0.0
  0
LINE
  5
25B
330
1F
100
AcDbEntity
  8
0
  6
Continuous
 62
     7
370
    25
100
AcDbLine
 10
49.7100420222
 20
36.5890632847
 30
0.0
 11
62.1100420222
 21
36.5890632847
 31
0.0
  0
LINE
  5
25C
330
1F
100
AcDbEntity
  8
0
  6
Continuous
 62
     7
370
    25
100
AcDbLine
 10
59.2100420222
 20
39.5890632847
 30
0.0
 11
59.2100420222
 21
39.4890632847
 31
0.0
  0
LINE
  5
25D
330
1F
100
AcDbEntity
  8
0
  6
Continuous
 62
     7
370
    25
100
AcDbLine
 10
52.6100420222
 20
39.5890632847
 30
0.0
 11
59.2100420222
 21
39.5890632847
 31
0.0
  0
LINE
  5
25E
330
1F
100
AcDbEntity
  8
0
  6
Continuous
 62
     7
370
    25
100
AcDbLine
 10
65.3994540941
 20
39.5890632847
 30
0.0
 11
59.2100420222
 21
39.5890632847
 31
0.0
  0
LINE
  5
25F
330
1F
100
AcDbEntity
  8
0
  6
Continuous
 62
     7
370
    25
100
AcDbLine
 10
64.6183076732
 20
36.5890632875
 30
0.0
 11
62.1100420222
 21
36.5890632847
 31
0.0
  0
HATCH
  5
260
330
1F
100
AcDbEntity
  8
FORMAT
  6
Continuous
370
    18
100
AcDbHatch
 10
0.0
 20
0.0
 30
0.0
210
0.0
220
0.0
230
1.0
  2
DIN 201 Stahl und Stahlguss
 70
     0
 71
     0
 91
        1
 92
        0
 93
        5
 72
     4
 94
        3
 73
     1
 74
     0
 95
        8
 96
        4
 40
0.8293711480622558
 40
0.8293711480622558
 40
0.8293711480622558
 40
0.8293711480622558
 40
0.872131053094388
 40
0.872131053094388
 40
0.872131053094388
 40
0.872131053094388
 10
64.61830767315388
 20
36.58906328753795
 42
1.0
 10
64.71218127740221
 20
37.593691773103
 42
1.0
 10
64.899070364688
 20
38.64170693657741
 42
1.0
 10
65.39945409414035
 20
39.58906328466996
 42
1.0
 72
     1
 10
65.39945409414035
 20
39.58906328466995
 11
59.21004202223514
 21
39.58906328466414
 72
     1
 10
59.21004202223514
 20
39.58906328466414
 11
59.21004202223514
 21
39.48906328466413
 72
     1
 10
59.21004202223514
 20
39.48906328466413
 11
62.11004202223514
 21
36.58906328466413
 72
     1
 10
62.11004202223514
 20
36.58906328466413
 11
64.61830767315386
 21
36.58906328753795
 97
        0
 75
     0
 76
     2
 52
0.0
 41
0.25
 77
     0
 78
     4
 53
45.00000209717174
 43
0.0
 44
0.0
 45
-3.367596168663539
 46
3.367595922138322
 79
     0
 53
45.00000209717174
 43
1.122532
 44
0.0
 45
-3.367596168663539
 46
3.367595922138322
 79
     0
 53
45.00000209717174
 43
2.245064
 44
0.0
 45
-3.367596168663539
 46
3.367595922138322
 79
     0
 53
45.00000209717174
 43
3.367595
 44
0.0
 45
-3.367596168663539
 46
3.367595922138322
 79
     0
 98
        1
 10
0.0
 20
0.0
  0
HATCH
  5
261
330
1F
100
AcDbEntity
  8
FORMAT
  6
Continuous
370
    18
100
AcDbHatch
 10
0.0
 20
0.0
 30
0.0
210
0.0
220
0.0
230
1.0
  2
DIN 201 Stahl und Stahlguss
 70
     0
 71
     0
 91
        1
 92
        0
 93
        2
 72
     4
 94
        3
 73
     1
 74
     0
 95
       11
 96
        7
 40
0.0
 40
0.0
 40
0.0
 40
0.0
 40
0.0016786598921699
 40
0.0016786598921699
 40
0.0016786598921699
 40
0.0032762900953962
 40
0.0032762900953962
 40
0.0032762900953962
 40
0.0032762900953962
 10
64.61830767288528
 20
36.58906328466356
 42
1.0
 10
64.67011733399009
 20
37.14352651087324
 42
1.0
 10
64.75070281190143
 20
37.69872158486873
 42
1.0
 10
64.88374444937195
 20
38.22116186702303
 42
1.0
 10
65.00965189863531
 20
38.71558695505652
 42
1.0
 10
65.18769449736557
 20
39.18814737460563
 42
1.0
 10
65.39945409413696
 20
39.58906328466356
 42
1.0
 72
     4
 94
        3
 73
     1
 74
     0
 95
        8
 96
        4
 40
0.127868946905612
 40
0.127868946905612
 40
0.127868946905612
 40
0.127868946905612
 40
0.1706288519377442
 40
0.1706288519377442
 40
0.1706288519377442
 40
0.1706288519377442
 10
65.39945409414035
 20
39.58906328466996
 42
1.0
 10
64.89907036468873
 20
38.64170693657879
 42
1.0
 10
64.7121812774027
 20
37.59369177310619
 42
1.0
 10
64.61830767315425
 20
36.58906328754265
 42
1.0
 97
        0
 75
     0
 76
     2
 52
0.0
 41
1.0
 77
     0
 78
     4
 53
45.00000209717174
 43
0.0
 44
0.0
 45
-13.47038467465416
 46
13.47038368855329
 79
     0
 53
45.00000209717174
 43
4.490128
 44
0.0
 45
-13.47038467465416
 46
13.47038368855329
 79
     0
 53
45.00000209717174
 43
8.980256
 44
0.0
 45
-13.47038467465416
 46
13.47038368855329
 79
     0
 53
45.00000209717174
 43
13.47038
 44
0.0
 45
-13.47038467465416
 46
13.47038368855329
 79
     0
 98
        1
 10
0.0
 20
0.0
  0
HATCH
  5
262
330
1F
100
AcDbEntity
  8
0
  6
Continuous
 62
     7
370
    18
100
AcDbHatch
 10
0.0
 20
0.0
 30
0.0
210
0.0
220
0.0
230
1.0
  2
DIN 201 Stahl und Stahlguss
 70
     0
 71
     0
 91
        1
 92
        0
 93
        3
 72
     4
 94
        3
 73
     1
 74
     0
 95
        8
 96
        4
 40
0.6492058379293646
 40
0.6492058379293646
 40
0.6492058379293646
 40
0.6492058379293646
 40
0.6552918324841414
 40
0.6552918324841414
 40
0.6552918324841414
 40
0.6552918324841414
 10
43.91004204167817
 20
39.18322548525823
 42
1.0
 10
43.94776362229916
 20
39.31874076559223
 42
1.0
 10
43.98880676943129
 20
39.45412576089782
 42
1.0
 10
44.03305641773514
 20
39.58906328466554
 42
1.0
 72
     4
 94
        3
 73
     1
 74
     0
 95
       11
 96
        7
 40
0.0
 40
0.0
 40
0.0
 40
0.0
 40
0.0003955699133067
 40
0.0003955699133067
 40
0.0003955699133067
 40
0.0017906143685578
 40
0.0017906143685578
 40
0.0017906143685578
 40
0.0017906143685578
 10
44.03305641773449
 20
39.58906328466359
 42
1.0
 10
44.01579113839517
 20
39.53641350934311
 42
1.0
 10
44.00011518333279
 20
39.48704144208367
 42
1.0
 10
43.98617523226347
 20
39.44206310150179
 42
1.0
 10
43.93767428462222
 20
39.28557100689508
 42
1.0
 10
43.91004202223459
 20
39.18322541540692
 42
1.0
 10
43.9100420222346
 20
39.18322541540692
 42
1.0
 72
     1
 10
43.9100420222346
 20
39.18322541540692
 11
43.91004204167817
 21
39.18322548525818
 97
        0
 75
     0
 76
     2
 52
0.0
 41
1.0
 77
     0
 78
     4
 53
45.00000209717174
 43
0.0
 44
0.0
 45
-13.47038467465416
 46
13.47038368855329
 79
     0
 53
45.00000209717174
 43
4.490128
 44
0.0
 45
-13.47038467465416
 46
13.47038368855329
 79
     0
 53
45.00000209717174
 43
8.980256
 44
0.0
 45
-13.47038467465416
 46
13.47038368855329
 79
     0
 53
45.00000209717174
 43
13.47038
 44
0.0
 45
-13.47038467465416
 46
13.47038368855329
 79
     0
 98
        1
 10
0.0
 20
0.0
  0
HATCH
  5
263
330
1F
100
AcDbEntity
  8
0
  6
Continuous
 62
     7
370
    18
100
AcDbHatch
 10
0.0
 20
0.0
 30
0.0
210
0.0
220
0.0
230
1.0
  2
DIN 201 Stahl und Stahlguss
 70
     0
 71
     0
 91
        1
 92
        0
 93
        6
 72
     1
 10
43.91004204167817
 20
39.18322548525818
 11
43.91004202223514
 21
36.58906328466414
 72
     1
 10
43.91004202223514
 20
36.58906328466414
 11
49.71004202223515
 21
36.58906328466413
 72
     1
 10
49.71004202223515
 20
36.58906328466413
 11
52.61004202223515
 21
39.48906328466413
 72
     1
 10
52.61004202223515
 20
39.48906328466413
 11
52.61004202223515
 21
39.58906328466414
 72
     1
 10
52.61004202223515
 20
39.58906328466414
 11
44.03305641773514
 21
39.58906328466554
 72
     4
 94
        3
 73
     1
 74
     0
 95
        8
 96
        4
 40
0.3447081675158586
 40
0.3447081675158586
 40
0.3447081675158586
 40
0.3447081675158586
 40
0.3507941620706355
 40
0.3507941620706355
 40
0.3507941620706355
 40
0.3507941620706355
 10
44.03305641773514
 20
39.58906328466554
 42
1.0
 10
43.98880676943129
 20
39.45412576089782
 42
1.0
 10
43.94776362229916
 20
39.31874076559223
 42
1.0
 10
43.91004204167817
 20
39.18322548525822
 42
1.0
 97
        0
 75
     0
 76
     2
 52
0.0
 41
0.25
 77
     0
 78
     4
 53
45.00000209717174
 43
0.0
 44
0.0
 45
-3.367596168663539
 46
3.367595922138322
 79
     0
 53
45.00000209717174
 43
1.122532
 44
0.0
 45
-3.367596168663539
 46
3.367595922138322
 79
     0
 53
45.00000209717174
 43
2.245064
 44
0.0
 45
-3.367596168663539
 46
3.367595922138322
 79
     0
 53
45.00000209717174
 43
3.367595
 44
0.0
 45
-3.367596168663539
 46
3.367595922138322
 79
     0
 98
        1
 10
0.0
 20
0.0
  0
DIMENSION
  5
264
330
1F
100
AcDbEntity
  8
FORMAT
100
AcDbDimension
  2
_D_14
 10
59.2100420222
 20
47.7483796152
 30
0.0
 11
41.7880500547
 21
47.7483796152
 31
0.0
 70
   160
  1
%%c<>
 71
     2
 42
-1.0
  3
SLDDIMSTYLE2
100
AcDbAlignedDimension
 13
52.6100420222
 23
39.5890632847
 33
0.0
 14
59.2100420222
 24
39.5890632847
 34
0.0
 50
0.0
100
AcDbRotatedDimension
  0
DIMENSION
  5
271
330
1F
100
AcDbEntity
  8
FORMAT
100
AcDbDimension
  2
_D_15
 10
52.6100420222
 20
39.4890632847
 30
0.0
 11
55.9100420222
 21
15.3008135885
 31
0.0
 70
   162
  1
<>
 71
     1
 42
-1.0
  3
SLDDIMSTYLE3
100
AcDb2LineAngularDimension
 13
59.2100420222
 23
39.4890632847
 33
0.0
 14
62.1100420222
 24
36.5890632847
 34
0.0
 15
49.7100420222
 25
36.5890632847
 35
0.0
 16
55.9100420222
 26
15.3008135885
 36
0.0
  0
DIMENSION
  5
27D
330
1F
100
AcDbEntity
  8
FORMAT
100
AcDbDimension
  2
_D_16
 10
62.1100420222
 20
28.110459075
 30
0.0
 11
31.2987498863
 21
28.110459075
 31
0.0
 70
   160
  1
%%c<>
 71
     2
 42
-1.0
  3
SLDDIMSTYLE2
100
AcDbAlignedDimension
 13
49.7100420222
 23
36.5890632847
 33
0.0
 14
62.1100420222
 24
36.5890632847
 34
0.0
100
AcDbRotatedDimension
  0
DIMENSION
  5
28A
330
1F
100
AcDbEntity
  8
FORMAT
100
AcDbDimension
  2
_D_17
 10
69.4100420222
 20
40.0890632847
 30
0.0
 11
79.1052360176
 21
30.3938892893
 31
0.0
 70
   164
  1
<>
 71
     1
 42
-1.0
  3
SLDDIMSTYLE0
100
AcDbRadialDimension
 15
71.8849157564
 25
37.6141895505
 35
0.0
 40
0.0
  0
DIMENSION
  5
291
330
1F
100
AcDbEntity
  8
FORMAT
100
AcDbDimension
  2
_D_18
 10
69.9100420222
 20
70.5890632847
 30
0.0
 11
81.9336530671
 21
70.5890632847
 31
0.0
 70
   160
  1
<>
 71
     2
 42
-1.0
  3
SLDDIMSTYLE2
100
AcDbAlignedDimension
 13
72.9100420222
 23
60.5890632847
 33
0.0
 14
69.9100420222
 24
60.5890632847
 34
0.0
100
AcDbRotatedDimension
  0
LINE
  5
29D
330
1F
100
AcDbEntity
  8
FORMAT
  6
CENTERX2
370
    18
100
AcDbLine
 10
55.9100420222
 20
41.4890632847
 30
0.0
 11
55.9100420222
 21
34.5890632847
 31
0.0
  0
ENDSEC
  0
SECTION
  2
OBJECTS
  0
DICTIONARY
  5
C
330
0
100
AcDbDictionary
281
     1
  3
ACAD_GROUP
350
D
  3
ACAD_LAYOUT
350
1A
  3
ACAD_MLINESTYLE
350
17
  3
ACAD_PLOTSETTINGS
350
19
  3
ACAD_PLOTSTYLENAME
350
E
  3
ACAD_SCALELIST
350
47
  3
DWGPROPS
350
29E
  0
DICTIONARY
  5
D
102
{ACAD_REACTORS
330
C
102
}
330
C
100
AcDbDictionary
281
     1
  0
DICTIONARY
  5
1A
102
{ACAD_REACTORS
330
C
102
}
330
C
100
AcDbDictionary
281
     1
  3
Layout1
350
1E
  3
Layout2
350
26
  3
Model
350
22
  0
DICTIONARY
  5
17
102
{ACAD_REACTORS
330
C
102
}
330
C
100
AcDbDictionary
281
     1
  3
Standard
350
18
  0
DICTIONARY
  5
19
102
{ACAD_REACTORS
330
C
102
}
330
C
100
AcDbDictionary
281
     1
  0
ACDBDICTIONARYWDFLT
  5
E
102
{ACAD_REACTORS
330
C
102
}
330
C
100
AcDbDictionary
281
     1
  3
Normal
350
F
100
AcDbDictionaryWithDefault
340
F
  0
DICTIONARY
  5
47
102
{ACAD_REACTORS
330
C
102
}
330
C
100
AcDbDictionary
281
     1
  3
A0
350
48
  3
A1
350
49
  3
A2
350
4A
  3
A3
350
4B
  3
A4
350
4C
  3
A5
350
4D
  3
A6
350
4E
  3
A7
350
4F
  3
A8
350
50
  3
A9
350
51
  3
B0
350
52
  3
B1
350
53
  3
B2
350
54
  3
B3
350
55
  3
B4
350
56
  3
B5
350
57
  3
B6
350
58
  3
B7
350
59
  3
B8
350
5A
  3
B9
350
5B
  3
C0
350
5C
  3
C1
350
5D
  3
C2
350
5E
  3
C3
350
5F
  3
C4
350
60
  3
C5
350
61
  3
C6
350
62
  3
C7
350
63
  3
C8
350
64
  3
C9
350
65
  3
D0
350
66
  3
D1
350
67
  3
D2
350
68
  0
XRECORD
  5
29E
102
{ACAD_REACTORS
330
C
102
}
330
C
100
AcDbXrecord
280
     1
  1
DWGPROPS COOKIE
  2

  3

  4

  6

  7

  8
pieper
  9

300
=
301
=
302
=
303
=
304
=
305
=
306
=
307
=
308
=
309
=
 40
0.0
 41
2459551.410180313
 42
2459551.410183681
  1

 90
        0
  0
LAYOUT
  5
1E
102
{ACAD_REACTORS
330
1A
102
}
330
1A
100
AcDbPlotSettings
  1

  2
none_device
  4

  6

 40
0.0
 41
0.0
 42
0.0
 43
0.0
 44
0.0
 45
0.0
 46
0.0
 47
0.0
 48
0.0
 49
0.0
140
0.0
141
0.0
142
1.0
143
1.0
 70
   688
 72
     1
 73
     0
 74
     5
  7

 75
    16
147
1.0
148
0.0
149
0.0
100
AcDbLayout
  1
Layout1
 70
     1
 71
     1
 10
0.0
 20
0.0
 11
420.0
 21
297.0
 12
0.0
 22
0.0
 32
0.0
 14
1.0000000000E+20
 24
1.0000000000E+20
 34
1.0000000000E+20
 15
-1.0000000000E+20
 25
-1.0000000000E+20
 35
-1.0000000000E+20
146
0.0
 13
0.0
 23
0.0
 33
0.0
 16
1.0
 26
0.0
 36
0.0
 17
0.0
 27
1.0
 37
0.0
 76
     0
330
1B
  0
LAYOUT
  5
26
102
{ACAD_REACTORS
330
1A
102
}
330
1A
100
AcDbPlotSettings
  1

  2
none_device
  4

  6

 40
0.0
 41
0.0
 42
0.0
 43
0.0
 44
0.0
 45
0.0
 46
0.0
 47
0.0
 48
0.0
 49
0.0
140
0.0
141
0.0
142
1.0
143
1.0
 70
   688
 72
     1
 73
     0
 74
     5
  7

 75
    16
147
1.0
148
0.0
149
0.0
100
AcDbLayout
  1
Layout2
 70
     1
 71
     2
 10
0.0
 20
0.0
 11
0.0
 21
0.0
 12
0.0
 22
0.0
 32
0.0
 14
0.0
 24
0.0
 34
0.0
 15
0.0
 25
0.0
 35
0.0
146
0.0
 13
0.0
 23
0.0
 33
0.0
 16
1.0
 26
0.0
 36
0.0
 17
0.0
 27
1.0
 37
0.0
 76
     0
330
23
  0
LAYOUT
  5
22
102
{ACAD_REACTORS
330
1A
102
}
330
1A
100
AcDbPlotSettings
  1

  2
none_device
  4
Letter_(8.50_x_11.00_Inches)
  6

 40
6.35
 41
6.35
 42
6.35000508
 43
6.35000508
 44
215.9
 45
279.4
 46
0.0
 47
0.0
 48
0.0
 49
0.0
140
0.0
141
0.0
142
1.0
143
1.0
 70
  1712
 72
     1
 73
     0
 74
     0
  7

 75
     0
147
1.0
148
0.0
149
0.0
100
AcDbLayout
  1
Model
 70
     1
 71
     0
 10
0.0
 20
0.0
 11
210.0
 21
297.0
 12
0.0
 22
0.0
 32
0.0
 14
0.0
 24
0.0
 34
0.0
 15
210.0
 25
297.0
 35
0.0
146
0.0
 13
0.0
 23
0.0
 33
0.0
 16
1.0
 26
0.0
 36
0.0
 17
0.0
 27
1.0
 37
0.0
 76
     0
330
1F
331
29
  0
MLINESTYLE
  5
18
102
{ACAD_REACTORS
330
17
102
}
330
17
100
AcDbMlineStyle
  2
Standard
 70
     0
  3

 62
   256
 51
90.0
 52
90.0
 71
     2
 49
0.5
 62
   256
  6
BYLAYER
 49
-0.5
 62
   256
  6
BYLAYER
  0
ACDBPLACEHOLDER
  5
F
102
{ACAD_REACTORS
330
E
102
}
330
E
  0
SCALE
  5
48
102
{ACAD_REACTORS
330
47
102
}
330
47
100
AcDbScale
 70
     0
300
1:1
140
1.0
141
1.0
290
     1
  0
SCALE
  5
49
102
{ACAD_REACTORS
330
47
102
}
330
47
100
AcDbScale
 70
     0
300
1:2
140
1.0
141
2.0
290
     0
  0
SCALE
  5
4A
102
{ACAD_REACTORS
330
47
102
}
330
47
100
AcDbScale
 70
     0
300
1:4
140
1.0
141
4.0
290
     0
  0
SCALE
  5
4B
102
{ACAD_REACTORS
330
47
102
}
330
47
100
AcDbScale
 70
     0
300
1:5
140
1.0
141
5.0
290
     0
  0
SCALE
  5
4C
102
{ACAD_REACTORS
330
47
102
}
330
47
100
AcDbScale
 70
     0
300
1:8
140
1.0
141
8.0
290
     0
  0
SCALE
  5
4D
102
{ACAD_REACTORS
330
47
102
}
330
47
100
AcDbScale
 70
     0
300
1:10
140
1.0
141
10.0
290
     0
  0
SCALE
  5
4E
102
{ACAD_REACTORS
330
47
102
}
330
47
100
AcDbScale
 70
     0
300
1:16
140
1.0
141
16.0
290
     0
  0
SCALE
  5
4F
102
{ACAD_REACTORS
330
47
102
}
330
47
100
AcDbScale
 70
     0
300
1:20
140
1.0
141
20.0
290
     0
  0
SCALE
  5
50
102
{ACAD_REACTORS
330
47
102
}
330
47
100
AcDbScale
 70
     0
300
1:30
140
1.0
141
30.0
290
     0
  0
SCALE
  5
51
102
{ACAD_REACTORS
330
47
102
}
330
47
100
AcDbScale
 70
     0
300
1:40
140
1.0
141
40.0
290
     0
  0
SCALE
  5
52
102
{ACAD_REACTORS
330
47
102
}
330
47
100
AcDbScale
 70
     0
300
1:50
140
1.0
141
50.0
290
     0
  0
SCALE
  5
53
102
{ACAD_REACTORS
330
47
102
}
330
47
100
AcDbScale
 70
     0
300
1:100
140
1.0
141
100.0
290
     0
  0
SCALE
  5
54
102
{ACAD_REACTORS
330
47
102
}
330
47
100
AcDbScale
 70
     0
300
2:1
140
2.0
141
1.0
290
     0
  0
SCALE
  5
55
102
{ACAD_REACTORS
330
47
102
}
330
47
100
AcDbScale
 70
     0
300
4:1
140
4.0
141
1.0
290
     0
  0
SCALE
  5
56
102
{ACAD_REACTORS
330
47
102
}
330
47
100
AcDbScale
 70
     0
300
8:1
140
8.0
141
1.0
290
     0
  0
SCALE
  5
57
102
{ACAD_REACTORS
330
47
102
}
330
47
100
AcDbScale
 70
     0
300
10:1
140
10.0
141
1.0
290
     0
  0
SCALE
  5
58
102
{ACAD_REACTORS
330
47
102
}
330
47
100
AcDbScale
 70
     0
300
100:1
140
100.0
141
1.0
290
     0
  0
SCALE
  5
59
102
{ACAD_REACTORS
330
47
102
}
330
47
100
AcDbScale
 70
     0
300
1/128" = 1'-0"
140
0.0078125
141
12.0
290
     0
  0
SCALE
  5
5A
102
{ACAD_REACTORS
330
47
102
}
330
47
100
AcDbScale
 70
     0
300
1/64" = 1'-0"
140
0.015625
141
12.0
290
     0
  0
SCALE
  5
5B
102
{ACAD_REACTORS
330
47
102
}
330
47
100
AcDbScale
 70
     0
300
1/32" = 1'-0"
140
0.03125
141
12.0
290
     0
  0
SCALE
  5
5C
102
{ACAD_REACTORS
330
47
102
}
330
47
100
AcDbScale
 70
     0
300
1/16" = 1'-0"
140
0.0625
141
12.0
290
     0
  0
SCALE
  5
5D
102
{ACAD_REACTORS
330
47
102
}
330
47
100
AcDbScale
 70
     0
300
3/32" = 1'-0"
140
0.09375
141
12.0
290
     0
  0
SCALE
  5
5E
102
{ACAD_REACTORS
330
47
102
}
330
47
100
AcDbScale
 70
     0
300
1/8" = 1'-0"
140
0.125
141
12.0
290
     0
  0
SCALE
  5
5F
102
{ACAD_REACTORS
330
47
102
}
330
47
100
AcDbScale
 70
     0
300
3/16" = 1'-0"
140
0.1875
141
12.0
290
     0
  0
SCALE
  5
60
102
{ACAD_REACTORS
330
47
102
}
330
47
100
AcDbScale
 70
     0
300
1/4" = 1'-0"
140
0.25
141
12.0
290
     0
  0
SCALE
  5
61
102
{ACAD_REACTORS
330
47
102
}
330
47
100
AcDbScale
 70
     0
300
3/8" = 1'-0"
140
0.375
141
12.0
290
     0
  0
SCALE
  5
62
102
{ACAD_REACTORS
330
47
102
}
330
47
100
AcDbScale
 70
     0
300
1/2" = 1'-0"
140
0.5
141
12.0
290
     0
  0
SCALE
  5
63
102
{ACAD_REACTORS
330
47
102
}
330
47
100
AcDbScale
 70
     0
300
3/4" = 1'-0"
140
0.75
141
12.0
290
     0
  0
SCALE
  5
64
102
{ACAD_REACTORS
330
47
102
}
330
47
100
AcDbScale
 70
     0
300
1" = 1'-0"
140
1.0
141
12.0
290
     0
  0
SCALE
  5
65
102
{ACAD_REACTORS
330
47
102
}
330
47
100
AcDbScale
 70
     0
300
1-1/2" = 1'-0"
140
1.5
141
12.0
290
     0
  0
SCALE
  5
66
102
{ACAD_REACTORS
330
47
102
}
330
47
100
AcDbScale
 70
     0
300
3" = 1'-0"
140
3.0
141
12.0
290
     0
  0
SCALE
  5
67
102
{ACAD_REACTORS
330
47
102
}
330
47
100
AcDbScale
 70
     0
300
6" = 1'-0"
140
6.0
141
12.0
290
     0
  0
SCALE
  5
68
102
{ACAD_REACTORS
330
47
102
}
330
47
100
AcDbScale
 70
     0
300
1'-0" = 1'-0"
140
12.0
141
12.0
290
     0
  0
ENDSEC
  0
EOF
