  0
SECTION
  2
HEADER
  9
$ACADVER
  1
AC1015
  9
$ACADMAINTVER
 70
     6
  9
$DWGCODEPAGE
  3
ANSI_1252
  9
$INSBASE
 10
0.0
 20
0.0
 30
0.0
  9
$EXTMIN
 10
0.0
 20
0.0
 30
0.0
  9
$EXTMAX
 10
297.0
 20
210.0
 30
0.0
  9
$LIMMIN
 10
0.0
 20
0.0
  9
$LIMMAX
 10
297.0
 20
210.0
  9
$ORTHOMODE
 70
     0
  9
$REGENMODE
 70
     1
  9
$FILLMODE
 70
     1
  9
$QTEXTMODE
 70
     0
  9
$MIRRTEXT
 70
     1
  9
$LTSCALE
 40
1.0
  9
$ATTMODE
 70
     1
  9
$TEXTSIZE
 40
3.5
  9
$TRACEWID
 40
1.0
  9
$TEXTSTYLE
  7
STANDARD
  9
$CLAYER
  8
0
  9
$CELTYPE
  6
ByLayer
  9
$CECOLOR
 62
   256
  9
$CELTSCALE
 40
1.0
  9
$DISPSILH
 70
     0
  9
$DIMSCALE
 40
1.0
  9
$DIMASZ
 40
3.302
  9
$DIMEXO
 40
1.0
  9
$DIMDLI
 40
3.75
  9
$DIMRND
 40
0.0
  9
$DIMDLE
 40
0.0
  9
$DIMEXE
 40
1.0
  9
$DIMTP
 40
0.0
  9
$DIMTM
 40
0.0
  9
$DIMTXT
 40
3.5
  9
$DIMCEN
 40
2.5
  9
$DIMTSZ
 40
0.0
  9
$DIMTOL
 70
     0
  9
$DIMLIM
 70
     0
  9
$DIMTIH
 70
     1
  9
$DIMTOH
 70
     1
  9
$DIMSE1
 70
     0
  9
$DIMSE2
 70
     0
  9
$DIMTAD
 70
     1
  9
$DIMZIN
 70
     0
  9
$DIMBLK
  1

  9
$DIMASO
 70
     1
  9
$DIMSHO
 70
     1
  9
$DIMPOST
  1

  9
$DIMAPOST
  1

  9
$DIMALT
 70
     0
  9
$DIMALTD
 70
     3
  9
$DIMALTF
 40
0.0393700787
  9
$DIMLFAC
 40
1.0
  9
$DIMTOFL
 70
     1
  9
$DIMTVP
 40
0.0
  9
$DIMTIX
 70
     0
  9
$DIMSOXD
 70
     0
  9
$DIMSAH
 70
     0
  9
$DIMBLK1
  1

  9
$DIMBLK2
  1

  9
$DIMSTYLE
  2
ISO-25
  9
$DIMCLRD
 70
     0
  9
$DIMCLRE
 70
     0
  9
$DIMCLRT
 70
     0
  9
$DIMTFAC
 40
1.0
  9
$DIMGAP
 40
3.0
  9
$DIMJUST
 70
     0
  9
$DIMSD1
 70
     0
  9
$DIMSD2
 70
     0
  9
$DIMTOLJ
 70
     0
  9
$DIMTZIN
 70
     0
  9
$DIMALTZ
 70
     0
  9
$DIMALTTZ
 70
     0
  9
$DIMUPT
 70
     0
  9
$DIMDEC
 70
     2
  9
$DIMTDEC
 70
     2
  9
$DIMALTU
 70
     2
  9
$DIMALTTD
 70
     3
  9
$DIMTXSTY
  7
STANDARD
  9
$DIMAUNIT
 70
     0
  9
$DIMADEC
 70
     2
  9
$DIMALTRND
 40
0.0
  9
$DIMAZIN
 70
     0
  9
$DIMDSEP
 70
    44
  9
$DIMATFIT
 70
     3
  9
$DIMFRAC
 70
     0
  9
$DIMLDRBLK
  1

  9
$DIMLUNIT
 70
     2
  9
$DIMLWD
 70
    -2
  9
$DIMLWE
 70
    -2
  9
$DIMTMOVE
 70
     0
  9
$LUNITS
 70
     2
  9
$LUPREC
 70
     4
  9
$SKETCHINC
 40
1.0
  9
$FILLETRAD
 40
10.0
  9
$AUNITS
 70
     0
  9
$AUPREC
 70
     2
  9
$MENU
  1
.
  9
$ELEVATION
 40
0.0
  9
$PELEVATION
 40
0.0
  9
$THICKNESS
 40
0.0
  9
$LIMCHECK
 70
     0
  9
$CHAMFERA
 40
0.0
  9
$CHAMFERB
 40
0.0
  9
$CHAMFERC
 40
0.0
  9
$CHAMFERD
 40
0.0
  9
$SKPOLY
 70
     0
  9
$TDCREATE
 40
2459704.44373809
  9
$TDUCREATE
 40
2459704.360404757
  9
$TDUPDATE
 40
2459704.44374235
  9
$TDUUPDATE
 40
2459704.360409016
  9
$TDINDWG
 40
0.0000000116
  9
$TDUSRTIMER
 40
0.0000000116
  9
$USRTIMER
 70
     1
  9
$ANGBASE
 50
0.0
  9
$ANGDIR
 70
     0
  9
$PDMODE
 70
     0
  9
$PDSIZE
 40
-1.0
  9
$PLINEWID
 40
0.0
  9
$SPLFRAME
 70
     0
  9
$SPLINETYPE
 70
     6
  9
$SPLINESEGS
 70
     8
  9
$HANDSEED
  5
407
  9
$SURFTAB1
 70
     6
  9
$SURFTAB2
 70
     6
  9
$SURFTYPE
 70
     6
  9
$SURFU
 70
     6
  9
$SURFV
 70
     6
  9
$UCSBASE
  2

  9
$UCSNAME
  2

  9
$UCSORG
 10
0.0
 20
0.0
 30
0.0
  9
$UCSXDIR
 10
1.0
 20
0.0
 30
0.0
  9
$UCSYDIR
 10
0.0
 20
1.0
 30
0.0
  9
$UCSORTHOREF
  2

  9
$UCSORTHOVIEW
 70
     0
  9
$UCSORGTOP
 10
0.0
 20
0.0
 30
0.0
  9
$UCSORGBOTTOM
 10
0.0
 20
0.0
 30
0.0
  9
$UCSORGLEFT
 10
0.0
 20
0.0
 30
0.0
  9
$UCSORGRIGHT
 10
0.0
 20
0.0
 30
0.0
  9
$UCSORGFRONT
 10
0.0
 20
0.0
 30
0.0
  9
$UCSORGBACK
 10
0.0
 20
0.0
 30
0.0
  9
$PUCSBASE
  2

  9
$PUCSNAME
  2

  9
$PUCSORG
 10
0.0
 20
0.0
 30
0.0
  9
$PUCSXDIR
 10
1.0
 20
0.0
 30
0.0
  9
$PUCSYDIR
 10
0.0
 20
1.0
 30
0.0
  9
$PUCSORTHOREF
  2

  9
$PUCSORTHOVIEW
 70
     0
  9
$PUCSORGTOP
 10
0.0
 20
0.0
 30
0.0
  9
$PUCSORGBOTTOM
 10
0.0
 20
0.0
 30
0.0
  9
$PUCSORGLEFT
 10
0.0
 20
0.0
 30
0.0
  9
$PUCSORGRIGHT
 10
0.0
 20
0.0
 30
0.0
  9
$PUCSORGFRONT
 10
0.0
 20
0.0
 30
0.0
  9
$PUCSORGBACK
 10
0.0
 20
0.0
 30
0.0
  9
$USERI1
 70
     0
  9
$USERI2
 70
     0
  9
$USERI3
 70
     0
  9
$USERI4
 70
     0
  9
$USERI5
 70
     0
  9
$USERR1
 40
0.0
  9
$USERR2
 40
0.0
  9
$USERR3
 40
0.0
  9
$USERR4
 40
0.0
  9
$USERR5
 40
0.0
  9
$WORLDVIEW
 70
     1
  9
$SHADEDGE
 70
     3
  9
$SHADEDIF
 70
    70
  9
$TILEMODE
 70
     1
  9
$MAXACTVP
 70
    64
  9
$PINSBASE
 10
0.0
 20
0.0
 30
0.0
  9
$PLIMCHECK
 70
     0
  9
$PEXTMIN
 10
1.0000000000E+20
 20
1.0000000000E+20
 30
1.0000000000E+20
  9
$PEXTMAX
 10
-1.0000000000E+20
 20
-1.0000000000E+20
 30
-1.0000000000E+20
  9
$PLIMMIN
 10
0.0
 20
0.0
  9
$PLIMMAX
 10
420.0
 20
297.0
  9
$UNITMODE
 70
     0
  9
$VISRETAIN
 70
     1
  9
$PLINEGEN
 70
     0
  9
$PSLTSCALE
 70
     1
  9
$TREEDEPTH
 70
  3020
  9
$CMLSTYLE
  2
Standard
  9
$CMLJUST
 70
     0
  9
$CMLSCALE
 40
20.0
  9
$PROXYGRAPHICS
 70
     1
  9
$MEASUREMENT
 70
     1
  9
$CELWEIGHT
370
    -1
  9
$ENDCAPS
280
     0
  9
$JOINSTYLE
280
     0
  9
$LWDISPLAY
290
     1
  9
$INSUNITS
 70
     4
  9
$HYPERLINKBASE
  1

  9
$STYLESHEET
  1

  9
$XEDIT
290
     1
  9
$CEPSNTYPE
380
     0
  9
$PSTYLEMODE
290
     1
  9
$FINGERPRINTGUID
  2
{b4b0f5ee-659b-4d91-a143-7c36d73e5d4d}
  9
$VERSIONGUID
  2
{FAEB1C32-E019-11D5-929B-00C0DF256EC4}
  9
$EXTNAMES
290
     1
  9
$PSVPSCALE
 40
0.0
  9
$OLESTARTUP
290
     0
  0
ENDSEC
  0
SECTION
  2
CLASSES
  0
CLASS
  1
ACDBDICTIONARYWDFLT
  2
AcDbDictionaryWithDefault
  3
ObjectDBX Classes
 90
        0
280
     0
281
     0
  0
CLASS
  1
VISUALSTYLE
  2
AcDbVisualStyle
  3
ObjectDBX Classes
 90
     4095
280
     0
281
     0
  0
CLASS
  1
MATERIAL
  2
AcDbMaterial
  3
ObjectDBX Classes
 90
     1153
280
     0
281
     0
  0
CLASS
  1
SCALE
  2
AcDbScale
  3
ObjectDBX Classes
 90
     1153
280
     0
281
     0
  0
CLASS
  1
TABLESTYLE
  2
AcDbTableStyle
  3
ObjectDBX Classes
 90
     4095
280
     0
281
     0
  0
CLASS
  1
MLEADERSTYLE
  2
AcDbMLeaderStyle
  3
ACDB_MLEADERSTYLE_CLASS
 90
     4095
280
     0
281
     0
  0
CLASS
  1
SUN
  2
AcDbSun
  3
SCENEOE
 90
     1153
280
     0
281
     0
  0
CLASS
  1
ACDBPLACEHOLDER
  2
AcDbPlaceHolder
  3
ObjectDBX Classes
 90
        0
280
     0
281
     0
  0
CLASS
  1
LAYOUT
  2
AcDbLayout
  3
ObjectDBX Classes
 90
        0
280
     0
281
     0
  0
ENDSEC
  0
SECTION
  2
TABLES
  0
TABLE
  2
VPORT
  5
8
330
0
100
AcDbSymbolTable
 70
     1
  0
VPORT
  5
29
330
8
100
AcDbSymbolTableRecord
100
AcDbViewportTableRecord
  2
*Active
 70
     0
 10
0.0
 20
0.0
 11
1.0
 21
1.0
 12
148.5
 22
105.0
 13
0.0
 23
0.0
 14
10.0
 24
10.0
 15
10.0
 25
10.0
 16
0.0
 26
0.0
 36
1.0
 17
0.0
 27
0.0
 37
0.0
 40
210.0
 41
1.4142857143
 42
50.0
 43
0.0
 44
0.0
 50
0.0
 51
0.0
 71
     0
 72
  2000
 73
     1
 74
     3
 75
     0
 76
     0
 77
     0
 78
     0
281
     0
 65
     1
110
0.0
120
0.0
130
0.0
111
1.0
121
0.0
131
0.0
112
0.0
122
1.0
132
0.0
 79
     0
146
0.0
  0
ENDTAB
  0
TABLE
  2
LTYPE
  5
5
330
0
100
AcDbSymbolTable
 70
     6
  0
LTYPE
  5
14
330
5
100
AcDbSymbolTableRecord
100
AcDbLinetypeTableRecord
  2
ByBlock
 70
     0
  3

 72
    65
 73
     0
 40
0.0
  0
LTYPE
  5
15
330
5
100
AcDbSymbolTableRecord
100
AcDbLinetypeTableRecord
  2
ByLayer
 70
     0
  3

 72
    65
 73
     0
 40
0.0
  0
LTYPE
  5
16
330
5
100
AcDbSymbolTableRecord
100
AcDbLinetypeTableRecord
  2
Continuous
 70
     0
  3
Solid line
 72
    65
 73
     0
 40
0.0
  0
LTYPE
  5
6E
330
5
100
AcDbSymbolTableRecord
100
AcDbLinetypeTableRecord
  2
HIDDEN
 70
     0
  3
Hidden __ __ __ __ __ __ __ __ __ __ __ __ __ __
 72
    65
 73
     2
 40
1.905
 49
1.27
 74
     0
 49
-0.635
 74
     0
  0
LTYPE
  5
6F
330
5
100
AcDbSymbolTableRecord
100
AcDbLinetypeTableRecord
  2
PHANTOM
 70
     0
  3
Phantom ______  __  __  ______  __  __  ______
 72
    65
 73
     6
 40
12.7
 49
6.35
 74
     0
 49
-1.27
 74
     0
 49
1.27
 74
     0
 49
-1.27
 74
     0
 49
1.27
 74
     0
 49
-1.27
 74
     0
  0
LTYPE
  5
70
330
5
100
AcDbSymbolTableRecord
100
AcDbLinetypeTableRecord
  2
CENTER
 70
     0
  3
Center ____ _ ____ _ ____ _ ____ _ ____ _ ____
 72
    65
 73
     4
 40
10.16
 49
6.35
 74
     0
 49
-1.27
 74
     0
 49
1.27
 74
     0
 49
-1.27
 74
     0
  0
LTYPE
  5
71
330
5
100
AcDbSymbolTableRecord
100
AcDbLinetypeTableRecord
  2
CENTERX2
 70
     0
  3
Center (2x) ________  __  ________  __  _____
 72
    65
 73
     4
 40
20.32
 49
12.7
 74
     0
 49
-2.54
 74
     0
 49
2.54
 74
     0
 49
-2.54
 74
     0
  0
LTYPE
  5
72
330
5
100
AcDbSymbolTableRecord
100
AcDbLinetypeTableRecord
  2
DOT2
 70
     0
  3
Dot (.5x) ........................................
 72
    65
 73
     2
 40
0.635
 49
0.0
 74
     0
 49
-0.635
 74
     0
  0
ENDTAB
  0
TABLE
  2
LAYER
  5
2
330
0
100
AcDbSymbolTable
 70
     7
  0
LAYER
  5
10
330
2
100
AcDbSymbolTableRecord
100
AcDbLayerTableRecord
  2
0
 70
     0
 62
     7
  6
Continuous
370
    -3
390
F
  0
LAYER
  5
73
330
2
100
AcDbSymbolTableRecord
100
AcDbLayerTableRecord
  2
FORMAT
 70
     0
 62
     7
  6
Continuous
370
    -3
390
F
  0
LAYER
  5
74
330
2
100
AcDbSymbolTableRecord
100
AcDbLayerTableRecord
  2
VORLAGE
 70
     0
 62
     7
  6
Continuous
370
    -3
390
F
  0
LAYER
  5
75
330
2
100
AcDbSymbolTableRecord
100
AcDbLayerTableRecord
  2
1
 70
     0
 62
   179
  6
Continuous
370
    -3
390
F
  0
LAYER
  5
76
330
2
100
AcDbSymbolTableRecord
100
AcDbLayerTableRecord
  2
LAYER0
 70
     0
 62
     7
  6
Continuous
370
    -3
390
F
  0
LAYER
  5
77
330
2
100
AcDbSymbolTableRecord
100
AcDbLayerTableRecord
  2
BEMASSUNG
 70
     0
 62
     1
  6
Continuous
370
    -3
390
F
  0
LAYER
  5
78
330
2
100
AcDbSymbolTableRecord
100
AcDbLayerTableRecord
  2
ÄNDERUNG
 70
     0
 62
     1
  6
Continuous
370
    -3
390
F
  0
ENDTAB
  0
TABLE
  2
STYLE
  5
3
330
0
100
AcDbSymbolTable
 70
     5
  0
STYLE
  5
11
330
3
100
AcDbSymbolTableRecord
100
AcDbTextStyleTableRecord
  2
STANDARD
 70
     0
 40
0.0
 41
1.0
 50
0.0
 71
     0
 42
3.5
  3
ARIAL.TTF
  4

1001
ACAD
1000
ARIAL
1071
       34
  0
STYLE
  5
91
330
3
100
AcDbSymbolTableRecord
100
AcDbTextStyleTableRecord
  2
SLDTEXTSTYLE0
 70
     0
 40
0.0
 41
0.948
 50
0.0
 71
     0
 42
3.5
  3
ARIAL.TTF
  4

1001
ACAD
1000
Arial
1071
      290
  0
STYLE
  5
DC
330
3
100
AcDbSymbolTableRecord
100
AcDbTextStyleTableRecord
  2
SLDTEXTSTYLE1
 70
     0
 40
0.0
 41
1.0
 50
0.0
 71
     0
 42
3.5
  3
ARIALUNI.TTF
  4

1001
ACAD
1000
Arial Unicode MS
1071
 33554722
  0
STYLE
  5
E2
330
3
100
AcDbSymbolTableRecord
100
AcDbTextStyleTableRecord
  2
SLDTEXTSTYLE2
 70
     0
 40
0.0
 41
0.87
 50
0.0
 71
     0
 42
3.5
  3
ARIALN.TTF
  4

1001
ACAD
1000
Arial Narrow
1071
      290
  0
STYLE
  5
146
330
3
100
AcDbSymbolTableRecord
100
AcDbTextStyleTableRecord
  2
SLDTEXTSTYLE3
 70
     0
 40
0.0
 41
0.948
 50
0.0
 71
     0
 42
3.5
  3
ARIALBD.TTF
  4

1001
ACAD
1000
Arial
1071
 33554722
  0
ENDTAB
  0
TABLE
  2
VIEW
  5
6
330
0
100
AcDbSymbolTable
 70
     0
  0
ENDTAB
  0
TABLE
  2
UCS
  5
7
330
0
100
AcDbSymbolTable
 70
     0
  0
ENDTAB
  0
TABLE
  2
APPID
  5
9
330
0
100
AcDbSymbolTable
 70
     1
  0
APPID
  5
12
330
9
100
AcDbSymbolTableRecord
100
AcDbRegAppTableRecord
  2
ACAD
 70
     0
  0
ENDTAB
  0
TABLE
  2
DIMSTYLE
  5
A
330
0
100
AcDbSymbolTable
 70
     6
100
AcDbDimStyleTable
  0
DIMSTYLE
105
27
330
A
100
AcDbSymbolTableRecord
100
AcDbDimStyleTableRecord
  2
ISO-25
 70
     0
 41
2.5
 42
0.625
 43
3.75
 44
1.25
 73
     0
 74
     0
 77
     1
 78
     8
140
2.5
141
2.5
143
0.0393700787
147
0.625
171
     3
172
     1
178
     0
271
     2
272
     2
274
     3
278
    44
283
     0
284
     8
340
11
  0
DIMSTYLE
105
1DD
102
{ACAD_REACTORS
330
1DC
330
1E8
330
1F2
330
1FC
330
206
330
210
330
21A
330
224
330
23B
330
257
330
262
330
26D
330
276
330
320
330
32B
330
3AC
330
3B6
330
3CA
330
3E2
102
}
330
A
100
AcDbSymbolTableRecord
100
AcDbDimStyleTableRecord
  2
SLDDIMSTYLE0
 70
     0
 41
3.302
 44
0.0
 45
0.000000001
 73
     0
 74
     0
 77
     1
 78
    12
 79
     3
140
3.5
147
0.875
173
     1
178
     0
271
     2
272
     2
276
     2
284
    12
340
91
  0
DIMSTYLE
105
22F
102
{ACAD_REACTORS
330
22E
330
244
330
341
330
394
330
3A0
330
3D5
102
}
330
A
100
AcDbSymbolTableRecord
100
AcDbDimStyleTableRecord
  2
SLDDIMSTYLE1
 70
     0
 41
3.302
 44
0.0
 45
0.000000001
 73
     0
 74
     0
 77
     1
 78
    12
 79
     3
140
3.5
147
0.875
172
     1
173
     1
178
     0
271
     2
272
     2
276
     2
284
    12
289
     0
340
91
  0
DIMSTYLE
105
250
102
{ACAD_REACTORS
330
24F
102
}
330
A
100
AcDbSymbolTableRecord
100
AcDbDimStyleTableRecord
  2
SLDDIMSTYLE2
 70
     0
 41
3.302
 44
0.0
 45
0.000000001
 73
     0
 74
     0
 77
     1
 78
    12
 79
     3
140
3.5
141
0.0
147
0.875
173
     1
178
     0
271
     2
272
     2
276
     2
284
    12
340
91
  0
DIMSTYLE
105
337
102
{ACAD_REACTORS
330
336
330
3C0
102
}
330
A
100
AcDbSymbolTableRecord
100
AcDbDimStyleTableRecord
  2
SLDDIMSTYLE3
 70
     0
 41
3.302
 44
0.0
 73
     0
 74
     0
 77
     1
 78
    12
 79
     3
140
3.5
147
0.875
173
     1
178
     0
179
     2
272
     2
276
     2
284
    12
340
91
  0
DIMSTYLE
105
3F2
330
A
100
AcDbSymbolTableRecord
100
AcDbDimStyleTableRecord
  2
SLDDIMSTYLE4
 70
     0
 41
1.016
 44
0.0
 45
0.000000001
146
1.016
147
0.0
173
     1
178
     0
271
     0
272
     0
276
     2
340
11
341
3F3
343
3F3
344
3F3
  0
ENDTAB
  0
TABLE
  2
BLOCK_RECORD
  5
1
330
0
100
AcDbSymbolTable
 70
    58
  0
BLOCK_RECORD
  5
1F
330
1
100
AcDbSymbolTableRecord
100
AcDbBlockTableRecord
  2
*Model_Space
340
22
  0
BLOCK_RECORD
  5
1B
330
1
100
AcDbSymbolTableRecord
100
AcDbBlockTableRecord
  2
*Paper_Space
340
1E
  0
BLOCK_RECORD
  5
23
330
1
100
AcDbSymbolTableRecord
100
AcDbBlockTableRecord
  2
*Paper_Space0
340
26
  0
BLOCK_RECORD
  5
79
330
1
100
AcDbSymbolTableRecord
100
AcDbBlockTableRecord
  2
Schleifrichtungspfeil senkrecht
340
0
  0
BLOCK_RECORD
  5
81
330
1
100
AcDbSymbolTableRecord
100
AcDbBlockTableRecord
  2
Schleifrichtung+mattiert
340
0
  0
BLOCK_RECORD
  5
8E
330
1
100
AcDbSymbolTableRecord
100
AcDbBlockTableRecord
  2
SW_NOTE_0
340
0
102
{BLKREFS
331
93
102
}
  0
BLOCK_RECORD
  5
94
330
1
100
AcDbSymbolTableRecord
100
AcDbBlockTableRecord
  2
SW_NOTE_0_1
340
0
102
{BLKREFS
331
98
102
}
  0
BLOCK_RECORD
  5
99
330
1
100
AcDbSymbolTableRecord
100
AcDbBlockTableRecord
  2
Schleifrichtungspfeil waagerecht
340
0
  0
BLOCK_RECORD
  5
A5
330
1
100
AcDbSymbolTableRecord
100
AcDbBlockTableRecord
  2
Block1_2
340
0
102
{BLKREFS
331
142
102
}
  0
BLOCK_RECORD
  5
B3
330
1
100
AcDbSymbolTableRecord
100
AcDbBlockTableRecord
  2
SW_NOTE_0_2
340
0
102
{BLKREFS
331
B8
102
}
  0
BLOCK_RECORD
  5
B9
330
1
100
AcDbSymbolTableRecord
100
AcDbBlockTableRecord
  2
Block2_2
340
0
102
{BLKREFS
331
143
102
}
  0
BLOCK_RECORD
  5
D9
330
1
100
AcDbSymbolTableRecord
100
AcDbBlockTableRecord
  2
SW_NOTE_0_3
340
0
102
{BLKREFS
331
DE
102
}
  0
BLOCK_RECORD
  5
DF
330
1
100
AcDbSymbolTableRecord
100
AcDbBlockTableRecord
  2
SW_NOTE_0_4
340
0
102
{BLKREFS
331
E6
102
}
  0
BLOCK_RECORD
  5
E7
330
1
100
AcDbSymbolTableRecord
100
AcDbBlockTableRecord
  2
Block1_3_1_1
340
0
  0
BLOCK_RECORD
  5
F5
330
1
100
AcDbSymbolTableRecord
100
AcDbBlockTableRecord
  2
SW_NOTE_0_5
340
0
102
{BLKREFS
331
FA
102
}
  0
BLOCK_RECORD
  5
FB
330
1
100
AcDbSymbolTableRecord
100
AcDbBlockTableRecord
  2
Block2_3_1_1
340
0
  0
BLOCK_RECORD
  5
11B
330
1
100
AcDbSymbolTableRecord
100
AcDbBlockTableRecord
  2
SW_NOTE_0_6
340
0
102
{BLKREFS
331
11F
102
}
  0
BLOCK_RECORD
  5
120
330
1
100
AcDbSymbolTableRecord
100
AcDbBlockTableRecord
  2
SW_NOTE_0_7
340
0
102
{BLKREFS
331
126
102
}
  0
BLOCK_RECORD
  5
127
330
1
100
AcDbSymbolTableRecord
100
AcDbBlockTableRecord
  2
rechtlicher_Hinweis_Katalogzeichnungen_1_1
340
0
  0
BLOCK_RECORD
  5
12A
330
1
100
AcDbSymbolTableRecord
100
AcDbBlockTableRecord
  2
SW_NOTE_0_8
340
0
102
{BLKREFS
331
133
102
}
  0
BLOCK_RECORD
  5
157
330
1
100
AcDbSymbolTableRecord
100
AcDbBlockTableRecord
  2
SW_NOTE_0_9
340
0
102
{BLKREFS
331
161
102
}
  0
BLOCK_RECORD
  5
1DE
330
1
100
AcDbSymbolTableRecord
100
AcDbBlockTableRecord
  2
_D
340
0
  0
BLOCK_RECORD
  5
1E9
330
1
100
AcDbSymbolTableRecord
100
AcDbBlockTableRecord
  2
_D_1
340
0
  0
BLOCK_RECORD
  5
1F3
330
1
100
AcDbSymbolTableRecord
100
AcDbBlockTableRecord
  2
_D_2
340
0
  0
BLOCK_RECORD
  5
1FD
330
1
100
AcDbSymbolTableRecord
100
AcDbBlockTableRecord
  2
_D_3
340
0
  0
BLOCK_RECORD
  5
207
330
1
100
AcDbSymbolTableRecord
100
AcDbBlockTableRecord
  2
_D_4
340
0
  0
BLOCK_RECORD
  5
211
330
1
100
AcDbSymbolTableRecord
100
AcDbBlockTableRecord
  2
_D_5
340
0
  0
BLOCK_RECORD
  5
21B
330
1
100
AcDbSymbolTableRecord
100
AcDbBlockTableRecord
  2
_D_6
340
0
  0
BLOCK_RECORD
  5
225
330
1
100
AcDbSymbolTableRecord
100
AcDbBlockTableRecord
  2
_D_7
340
0
  0
BLOCK_RECORD
  5
230
330
1
100
AcDbSymbolTableRecord
100
AcDbBlockTableRecord
  2
_D_8
340
0
  0
BLOCK_RECORD
  5
23C
330
1
100
AcDbSymbolTableRecord
100
AcDbBlockTableRecord
  2
_D_9
340
0
  0
BLOCK_RECORD
  5
245
330
1
100
AcDbSymbolTableRecord
100
AcDbBlockTableRecord
  2
_D_10
340
0
  0
BLOCK_RECORD
  5
251
330
1
100
AcDbSymbolTableRecord
100
AcDbBlockTableRecord
  2
_D_11
340
0
  0
BLOCK_RECORD
  5
258
330
1
100
AcDbSymbolTableRecord
100
AcDbBlockTableRecord
  2
_D_12
340
0
  0
BLOCK_RECORD
  5
263
330
1
100
AcDbSymbolTableRecord
100
AcDbBlockTableRecord
  2
_D_13
340
0
  0
BLOCK_RECORD
  5
26E
330
1
100
AcDbSymbolTableRecord
100
AcDbBlockTableRecord
  2
_D_14
340
0
  0
BLOCK_RECORD
  5
277
330
1
100
AcDbSymbolTableRecord
100
AcDbBlockTableRecord
  2
_D_15
340
0
  0
BLOCK_RECORD
  5
285
330
1
100
AcDbSymbolTableRecord
100
AcDbBlockTableRecord
  2
SW_CENTERMARKSYMBOL_0
340
0
102
{BLKREFS
331
290
102
}
  0
BLOCK_RECORD
  5
291
330
1
100
AcDbSymbolTableRecord
100
AcDbBlockTableRecord
  2
SW_CENTERMARKSYMBOL_1
340
0
102
{BLKREFS
331
29C
102
}
  0
BLOCK_RECORD
  5
29D
330
1
100
AcDbSymbolTableRecord
100
AcDbBlockTableRecord
  2
SW_CENTERMARKSYMBOL_2
340
0
102
{BLKREFS
331
2A8
102
}
  0
BLOCK_RECORD
  5
2A9
330
1
100
AcDbSymbolTableRecord
100
AcDbBlockTableRecord
  2
SW_CENTERMARKSYMBOL_3
340
0
102
{BLKREFS
331
2B4
102
}
  0
BLOCK_RECORD
  5
2B5
330
1
100
AcDbSymbolTableRecord
100
AcDbBlockTableRecord
  2
SW_CENTERMARKSYMBOL_4
340
0
102
{BLKREFS
331
2C0
102
}
  0
BLOCK_RECORD
  5
2C1
330
1
100
AcDbSymbolTableRecord
100
AcDbBlockTableRecord
  2
SW_CENTERMARKSYMBOL_5
340
0
102
{BLKREFS
331
2CC
102
}
  0
BLOCK_RECORD
  5
2CD
330
1
100
AcDbSymbolTableRecord
100
AcDbBlockTableRecord
  2
SW_CENTERMARKSYMBOL_6
340
0
102
{BLKREFS
331
2D8
102
}
  0
BLOCK_RECORD
  5
321
330
1
100
AcDbSymbolTableRecord
100
AcDbBlockTableRecord
  2
_D_16
340
0
  0
BLOCK_RECORD
  5
32C
330
1
100
AcDbSymbolTableRecord
100
AcDbBlockTableRecord
  2
_D_17
340
0
  0
BLOCK_RECORD
  5
338
330
1
100
AcDbSymbolTableRecord
100
AcDbBlockTableRecord
  2
_D_18
340
0
  0
BLOCK_RECORD
  5
342
330
1
100
AcDbSymbolTableRecord
100
AcDbBlockTableRecord
  2
_D_19
340
0
  0
BLOCK_RECORD
  5
34E
330
1
100
AcDbSymbolTableRecord
100
AcDbBlockTableRecord
  2
SW_CENTERMARKSYMBOL_7
340
0
102
{BLKREFS
331
359
102
}
  0
BLOCK_RECORD
  5
395
330
1
100
AcDbSymbolTableRecord
100
AcDbBlockTableRecord
  2
_D_20
340
0
  0
BLOCK_RECORD
  5
3A1
330
1
100
AcDbSymbolTableRecord
100
AcDbBlockTableRecord
  2
_D_21
340
0
  0
BLOCK_RECORD
  5
3AD
330
1
100
AcDbSymbolTableRecord
100
AcDbBlockTableRecord
  2
_D_22
340
0
  0
BLOCK_RECORD
  5
3B7
330
1
100
AcDbSymbolTableRecord
100
AcDbBlockTableRecord
  2
_D_23
340
0
  0
BLOCK_RECORD
  5
3C1
330
1
100
AcDbSymbolTableRecord
100
AcDbBlockTableRecord
  2
_D_24
340
0
  0
BLOCK_RECORD
  5
3CB
330
1
100
AcDbSymbolTableRecord
100
AcDbBlockTableRecord
  2
_D_25
340
0
  0
BLOCK_RECORD
  5
3D6
330
1
100
AcDbSymbolTableRecord
100
AcDbBlockTableRecord
  2
_D_26
340
0
  0
BLOCK_RECORD
  5
3E3
330
1
100
AcDbSymbolTableRecord
100
AcDbBlockTableRecord
  2
_D_27
340
0
  0
BLOCK_RECORD
  5
3EC
330
1
100
AcDbSymbolTableRecord
100
AcDbBlockTableRecord
  2
SW_NOTE_0_10
340
0
102
{BLKREFS
331
3F1
102
}
  0
BLOCK_RECORD
  5
3F3
330
1
100
AcDbSymbolTableRecord
100
AcDbBlockTableRecord
  2
_Dot
340
0
  0
BLOCK_RECORD
  5
3F9
330
1
100
AcDbSymbolTableRecord
100
AcDbBlockTableRecord
  2
SW_CENTERMARKSYMBOL_8
340
0
102
{BLKREFS
331
404
102
}
  0
ENDTAB
  0
ENDSEC
  0
SECTION
  2
BLOCKS
  0
BLOCK
  5
20
330
1F
100
AcDbEntity
  8
0
100
AcDbBlockBegin
  2
*Model_Space
 70
     0
 10
0.0
 20
0.0
 30
0.0
  3
*Model_Space
  1

  0
ENDBLK
  5
21
330
1F
100
AcDbEntity
  8
0
100
AcDbBlockEnd
  0
BLOCK
  5
1C
330
1B
100
AcDbEntity
 67
     1
  8
0
100
AcDbBlockBegin
  2
*Paper_Space
 70
     0
 10
0.0
 20
0.0
 30
0.0
  3
*Paper_Space
  1

  0
ENDBLK
  5
1D
330
1B
100
AcDbEntity
 67
     1
  8
0
100
AcDbBlockEnd
  0
BLOCK
  5
24
330
23
100
AcDbEntity
  8
0
100
AcDbBlockBegin
  2
*Paper_Space0
 70
     0
 10
0.0
 20
0.0
 30
0.0
  3
*Paper_Space0
  1

  0
ENDBLK
  5
25
330
23
100
AcDbEntity
  8
0
100
AcDbBlockEnd
  0
BLOCK
  5
7A
330
79
100
AcDbEntity
  8
0
100
AcDbBlockBegin
  2
Schleifrichtungspfeil senkrecht
 70
     0
 10
0.0
 20
0.0
 30
0.0
  3
Schleifrichtungspfeil senkrecht
  1

  0
LINE
  5
7C
330
79
100
AcDbEntity
  8
0
  6
Continuous
 62
     7
370
    18
100
AcDbLine
 10
-180.2961675747
 20
161.707847149
 30
0.0
 11
-180.2961675747
 21
153.5890355268
 31
0.0
  0
HATCH
  5
7D
330
79
100
AcDbEntity
  8
FORMAT
100
AcDbHatch
 10
0.0
 20
0.0
 30
0.0
210
0.0
220
0.0
230
1.0
  2
SOLID
 70
     1
 71
     0
 91
        1
 92
        0
 93
        3
 72
     1
 10
-180.2797164503988
 20
165.1487704095346
 11
-180.7405001919547
 21
161.6487704095346
 72
     1
 10
-180.7405001919547
 20
161.6487704095346
 11
-180.2797164503988
 21
161.6487704095346
 72
     1
 10
-180.2797164503988
 20
161.6487704095346
 11
-180.2797164503988
 21
165.1487704095346
 97
        0
 75
     0
 76
     1
 98
        1
 10
0.0
 20
0.0
  0
HATCH
  5
7E
330
79
100
AcDbEntity
  8
FORMAT
100
AcDbHatch
 10
0.0
 20
0.0
 30
0.0
210
0.0
220
0.0
230
1.0
  2
SOLID
 70
     1
 71
     0
 91
        1
 92
        0
 93
        3
 72
     1
 10
-180.2797164503988
 20
161.6487704095346
 11
-179.818932708843
 21
161.6487704095346
 72
     1
 10
-179.818932708843
 20
161.6487704095346
 11
-180.2797164503988
 21
165.1487704095346
 72
     1
 10
-180.2797164503988
 20
165.1487704095346
 11
-180.2797164503988
 21
161.6487704095346
 97
        0
 75
     0
 76
     1
 98
        1
 10
0.0
 20
0.0
  0
HATCH
  5
7F
330
79
100
AcDbEntity
  8
FORMAT
100
AcDbHatch
 10
0.0
 20
0.0
 30
0.0
210
0.0
220
0.0
230
1.0
  2
SOLID
 70
     1
 71
     0
 91
        1
 92
        0
 93
        3
 72
     1
 10
-180.2797164503988
 20
153.6487704095346
 11
-180.7405001919547
 21
153.6487704095346
 72
     1
 10
-180.7405001919547
 20
153.6487704095346
 11
-180.2797164503988
 21
150.1487704095346
 72
     1
 10
-180.2797164503988
 20
150.1487704095346
 11
-180.2797164503988
 21
153.6487704095346
 97
        0
 75
     0
 76
     1
 98
        1
 10
0.0
 20
0.0
  0
HATCH
  5
80
330
79
100
AcDbEntity
  8
FORMAT
100
AcDbHatch
 10
0.0
 20
0.0
 30
0.0
210
0.0
220
0.0
230
1.0
  2
SOLID
 70
     1
 71
     0
 91
        1
 92
        0
 93
        3
 72
     1
 10
-180.2797164503988
 20
150.1487704095346
 11
-179.8189327088429
 21
153.6487704095346
 72
     1
 10
-179.8189327088429
 20
153.6487704095346
 11
-180.2797164503988
 21
153.6487704095346
 72
     1
 10
-180.2797164503988
 20
153.6487704095346
 11
-180.2797164503988
 21
150.1487704095346
 97
        0
 75
     0
 76
     1
 98
        1
 10
0.0
 20
0.0
  0
ENDBLK
  5
7B
330
79
100
AcDbEntity
  8
0
100
AcDbBlockEnd
  0
BLOCK
  5
82
330
81
100
AcDbEntity
  8
0
100
AcDbBlockBegin
  2
Schleifrichtung+mattiert
 70
     0
 10
0.0
 20
0.0
 30
0.0
  3
Schleifrichtung+mattiert
  1

  0
LINE
  5
84
330
81
100
AcDbEntity
  8
0
  6
CENTER
 62
     7
370
    25
100
AcDbLine
 10
257.5643835569
 20
128.8441861289
 30
0.0
 11
277.114664664
 21
128.8441861289
 31
0.0
  0
LINE
  5
85
330
81
100
AcDbEntity
  8
FORMAT
370
    18
100
AcDbLine
 10
204.5055437613
 20
129.9367184644
 30
0.0
 11
212.5055437613
 21
129.9367184644
 31
0.0
  0
LINE
  5
86
330
81
100
AcDbEntity
  8
FORMAT
370
    25
100
AcDbLine
 10
201.0055437613
 20
129.9367184644
 30
0.0
 11
204.5055437613
 21
130.3975022059
 31
0.0
  0
LINE
  5
87
330
81
100
AcDbEntity
  8
FORMAT
370
    25
100
AcDbLine
 10
204.5055437613
 20
130.3975022059
 30
0.0
 11
204.5055437613
 21
129.4759347228
 31
0.0
  0
LINE
  5
88
330
81
100
AcDbEntity
  8
FORMAT
370
    25
100
AcDbLine
 10
204.5055437613
 20
129.4759347228
 30
0.0
 11
201.0055437613
 21
129.9367184644
 31
0.0
  0
LINE
  5
89
330
81
100
AcDbEntity
  8
FORMAT
  6
Continuous
 62
     7
370
    25
100
AcDbLine
 10
212.5055437613
 20
130.3975022059
 30
0.0
 11
212.5055437613
 21
129.4759347228
 31
0.0
  0
LINE
  5
8A
330
81
100
AcDbEntity
  8
FORMAT
  6
Continuous
 62
     7
370
    25
100
AcDbLine
 10
212.5055437613
 20
129.4759347228
 30
0.0
 11
216.0055437613
 21
129.9367184644
 31
0.0
  0
LINE
  5
8B
330
81
100
AcDbEntity
  8
FORMAT
  6
Continuous
 62
     7
370
    25
100
AcDbLine
 10
216.0055437613
 20
129.9367184644
 30
0.0
 11
212.5055437613
 21
130.3975022059
 31
0.0
  0
HATCH
  5
8C
330
81
100
AcDbEntity
  8
0
  6
Continuous
 62
     7
100
AcDbHatch
 10
0.0
 20
0.0
 30
0.0
210
0.0
220
0.0
230
1.0
  2
SOLID
 70
     1
 71
     0
 91
        1
 92
        0
 93
        3
 72
     1
 10
201.0055437612864
 20
129.9367184643777
 11
204.5055437612864
 21
129.4759347228218
 72
     1
 10
204.5055437612864
 20
129.4759347228218
 11
204.5055437612864
 21
130.3975022059335
 72
     1
 10
204.5055437612864
 20
130.3975022059335
 11
201.0055437612864
 21
129.9367184643777
 97
        0
 75
     0
 76
     1
 98
        1
 10
0.0
 20
0.0
  0
HATCH
  5
8D
330
81
100
AcDbEntity
  8
0
  6
Continuous
 62
     7
100
AcDbHatch
 10
0.0
 20
0.0
 30
0.0
210
0.0
220
0.0
230
1.0
  2
SOLID
 70
     1
 71
     0
 91
        1
 92
        0
 93
        3
 72
     1
 10
212.5055437612864
 20
129.4759347228218
 11
216.0055437612864
 21
129.9367184643776
 72
     1
 10
216.0055437612864
 20
129.9367184643776
 11
212.5055437612864
 21
130.3975022059335
 72
     1
 10
212.5055437612864
 20
130.3975022059335
 11
212.5055437612864
 21
129.4759347228218
 97
        0
 75
     0
 76
     1
 98
        1
 10
0.0
 20
0.0
  0
INSERT
  5
93
330
81
100
AcDbEntity
  8
FORMAT
 62
     7
100
AcDbBlockReference
  2
SW_NOTE_0
 10
279.6337272995
 20
126.8964738875
 30
0.0
  0
INSERT
  5
98
330
81
100
AcDbEntity
  8
0
  6
Continuous
 62
     7
370
     0
100
AcDbBlockReference
  2
SW_NOTE_0_1
 10
218.8952299572
 20
127.4220030224
 30
0.0
  0
ENDBLK
  5
83
330
81
100
AcDbEntity
  8
0
100
AcDbBlockEnd
  0
BLOCK
  5
8F
330
8E
100
AcDbEntity
  8
0
100
AcDbBlockBegin
  2
SW_NOTE_0
 70
     0
 10
0.0
 20
0.0
 30
0.0
  3
SW_NOTE_0
  1

  0
MTEXT
  5
92
330
8E
100
AcDbEntity
  8
FORMAT
 62
     0
100
AcDbMText
 10
0.0
 20
4.5117370892
 30
0.0
 40
3.5
 41
0.0
 71
     1
 72
     1
  1
mattiert
  7
SLDTEXTSTYLE0
 73
     1
 44
1.0
  0
ENDBLK
  5
90
330
8E
100
AcDbEntity
  8
0
100
AcDbBlockEnd
  0
BLOCK
  5
95
330
94
100
AcDbEntity
  8
0
100
AcDbBlockBegin
  2
SW_NOTE_0_1
 70
     0
 10
0.0
 20
0.0
 30
0.0
  3
SW_NOTE_0_1
  1

  0
MTEXT
  5
97
330
94
100
AcDbEntity
  8
0
  6
Continuous
 62
     0
370
     0
100
AcDbMText
 10
0.0
 20
4.5117370892
 30
0.0
 40
3.5
 41
0.0
 71
     1
 72
     1
  1
Schleifrichtung
  7
SLDTEXTSTYLE0
 73
     1
 44
1.0
  0
ENDBLK
  5
96
330
94
100
AcDbEntity
  8
0
100
AcDbBlockEnd
  0
BLOCK
  5
9A
330
99
100
AcDbEntity
  8
0
100
AcDbBlockBegin
  2
Schleifrichtungspfeil waagerecht
 70
     0
 10
0.0
 20
0.0
 30
0.0
  3
Schleifrichtungspfeil waagerecht
  1

  0
LINE
  5
9C
330
99
100
AcDbEntity
  8
FORMAT
370
    25
100
AcDbLine
 10
236.8560112868
 20
65.9690166542
 30
0.0
 11
240.8560112868
 21
65.9690166542
 31
0.0
  0
LINE
  5
9D
330
99
100
AcDbEntity
  8
FORMAT
370
    25
100
AcDbLine
 10
235.1060112868
 20
65.9690166542
 30
0.0
 11
236.8560112868
 21
66.199408525
 31
0.0
  0
LINE
  5
9E
330
99
100
AcDbEntity
  8
FORMAT
370
    25
100
AcDbLine
 10
236.8560112868
 20
66.199408525
 30
0.0
 11
236.8560112868
 21
65.7386247835
 31
0.0
  0
LINE
  5
9F
330
99
100
AcDbEntity
  8
FORMAT
370
    25
100
AcDbLine
 10
236.8560112868
 20
65.7386247835
 30
0.0
 11
235.1060112868
 21
65.9690166542
 31
0.0
  0
LINE
  5
A0
330
99
100
AcDbEntity
  8
FORMAT
  6
Continuous
 62
     7
370
    25
100
AcDbLine
 10
240.8560112868
 20
66.199408525
 30
0.0
 11
240.8560112868
 21
65.7386247835
 31
0.0
  0
LINE
  5
A1
330
99
100
AcDbEntity
  8
FORMAT
  6
Continuous
 62
     7
370
    25
100
AcDbLine
 10
240.8560112868
 20
65.7386247835
 30
0.0
 11
242.6060112868
 21
65.9690166542
 31
0.0
  0
LINE
  5
A2
330
99
100
AcDbEntity
  8
FORMAT
  6
Continuous
 62
     7
370
    25
100
AcDbLine
 10
242.6060112868
 20
65.9690166542
 30
0.0
 11
240.8560112868
 21
66.199408525
 31
0.0
  0
HATCH
  5
A3
330
99
100
AcDbEntity
  8
0
  6
Continuous
 62
     7
100
AcDbHatch
 10
0.0
 20
0.0
 30
0.0
210
0.0
220
0.0
230
1.0
  2
SOLID
 70
     1
 71
     0
 91
        1
 92
        0
 93
        3
 72
     1
 10
235.1060112868415
 20
65.96901665423289
 11
236.8560112868416
 21
65.73862478345495
 72
     1
 10
236.8560112868416
 20
65.73862478345495
 11
236.8560112868416
 21
66.19940852501082
 72
     1
 10
236.8560112868416
 20
66.19940852501082
 11
235.1060112868415
 21
65.96901665423289
 97
        0
 75
     0
 76
     1
 98
        1
 10
0.0
 20
0.0
  0
HATCH
  5
A4
330
99
100
AcDbEntity
  8
0
  6
Continuous
 62
     7
100
AcDbHatch
 10
0.0
 20
0.0
 30
0.0
210
0.0
220
0.0
230
1.0
  2
SOLID
 70
     1
 71
     0
 91
        1
 92
        0
 93
        3
 72
     1
 10
240.8560112868416
 20
65.73862478345495
 11
242.6060112868416
 21
65.96901665423289
 72
     1
 10
242.6060112868416
 20
65.96901665423289
 11
240.8560112868416
 21
66.19940852501081
 72
     1
 10
240.8560112868416
 20
66.19940852501081
 11
240.8560112868416
 21
65.73862478345495
 97
        0
 75
     0
 76
     1
 98
        1
 10
0.0
 20
0.0
  0
ENDBLK
  5
9B
330
99
100
AcDbEntity
  8
0
100
AcDbBlockEnd
  0
BLOCK
  5
A6
330
A5
100
AcDbEntity
  8
0
100
AcDbBlockBegin
  2
Block1_2
 70
     0
 10
0.0
 20
0.0
 30
0.0
  3
Block1_2
  1

  0
CIRCLE
  5
A8
330
A5
100
AcDbEntity
  8
0
  6
Continuous
 62
     7
370
    18
100
AcDbCircle
 10
11.6137544821
 20
9.0896586992
 30
0.0
 40
1.255909011058753
  0
CIRCLE
  5
A9
330
A5
100
AcDbEntity
  8
0
  6
Continuous
 62
     7
370
    18
100
AcDbCircle
 10
11.6137544821
 20
9.0896586992
 30
0.0
 40
2.216014863655655
  0
LINE
  5
AA
330
A5
100
AcDbEntity
  8
0
  6
CENTERX2
 62
     7
370
    18
100
AcDbLine
 10
11.6137544821
 20
9.0896586992
 30
0.0
 11
7.8977396184
 21
9.0896586992
 31
0.0
  0
LINE
  5
AB
330
A5
100
AcDbEntity
  8
0
  6
Continuous
 62
     7
370
    18
100
AcDbLine
 10
8.165753588
 20
6.8736438356
 30
0.0
 11
8.165753588
 21
11.3071584591
 31
0.0
  0
LINE
  5
AC
330
A5
100
AcDbEntity
  8
0
  6
Continuous
 62
     7
370
    18
100
AcDbLine
 10
2.6797147895
 20
10.3455677103
 30
0.0
 11
2.6797147895
 21
7.8337496881
 31
0.0
  0
LINE
  5
AD
330
A5
100
AcDbEntity
  8
0
  6
Continuous
 62
     7
370
    18
100
AcDbLine
 10
2.6797147895
 20
7.8337496881
 30
0.0
 11
8.165753588
 21
6.8736438356
 31
0.0
  0
LINE
  5
AE
330
A5
100
AcDbEntity
  8
0
  6
CENTERX2
 62
     7
370
    18
100
AcDbLine
 10
9.665753588
 20
9.0896586992
 30
0.0
 11
1.1797147895
 21
9.0896586992
 31
0.0
  0
LINE
  5
AF
330
A5
100
AcDbEntity
  8
0
  6
Continuous
 62
     7
370
    18
100
AcDbLine
 10
8.165753588
 20
11.3071584591
 30
0.0
 11
2.6797147895
 21
10.3455677103
 31
0.0
  0
LINE
  5
B0
330
A5
100
AcDbEntity
  8
0
  6
CENTERX2
 62
     7
370
    18
100
AcDbLine
 10
11.6137544821
 20
9.0896586992
 30
0.0
 11
11.6137544821
 21
5.3736438356
 31
0.0
  0
LINE
  5
B1
330
A5
100
AcDbEntity
  8
0
  6
CENTERX2
 62
     7
370
    18
100
AcDbLine
 10
11.6137544821
 20
9.0896586992
 30
0.0
 11
11.6137544821
 21
12.8056735629
 31
0.0
  0
LINE
  5
B2
330
A5
100
AcDbEntity
  8
0
  6
CENTERX2
 62
     7
370
    18
100
AcDbLine
 10
11.6137544821
 20
9.0896586992
 30
0.0
 11
15.3297693458
 21
9.0896586992
 31
0.0
  0
INSERT
  5
B8
330
A5
100
AcDbEntity
  8
0
  6
Continuous
 62
     7
370
     0
100
AcDbBlockReference
  2
SW_NOTE_0_2
 10
2.1031832889
 20
2.3754472768
 30
0.0
  0
ENDBLK
  5
A7
330
A5
100
AcDbEntity
  8
0
100
AcDbBlockEnd
  0
BLOCK
  5
B4
330
B3
100
AcDbEntity
  8
0
100
AcDbBlockBegin
  2
SW_NOTE_0_2
 70
     0
 10
0.0
 20
0.0
 30
0.0
  3
SW_NOTE_0_2
  1

  0
MTEXT
  5
B6
330
B3
100
AcDbEntity
  8
0
  6
Continuous
 62
     0
370
     0
100
AcDbMText
 10
6.590625
 20
2.4492287056
 30
0.0
 40
1.9
 41
0.0
 71
     2
 72
     1
  1
DIN 6  T1 - 
  7
SLDTEXTSTYLE0
 73
     1
 44
1.0
  0
MTEXT
  5
B7
330
B3
100
AcDbEntity
  8
0
  6
Continuous
 62
     0
370
     0
100
AcDbMText
 10
6.6569262624
 20
0.0003397443
 30
0.0
 40
1.9
 41
0.0
 71
     2
 72
     1
  1
Proj.methode 1
  7
SLDTEXTSTYLE0
 73
     1
 44
1.0
  0
ENDBLK
  5
B5
330
B3
100
AcDbEntity
  8
0
100
AcDbBlockEnd
  0
BLOCK
  5
BA
330
B9
100
AcDbEntity
  8
0
100
AcDbBlockBegin
  2
Block2_2
 70
     0
 10
0.0
 20
0.0
 30
0.0
  3
Block2_2
  1

  0
ARC
  5
BC
330
B9
100
AcDbEntity
  8
FORMAT
100
AcDbCircle
 10
236.7496365382
 20
57.0990600997
 30
0.0
 40
3.75000000000001
100
AcDbArc
 50
93.8225537293
 51
266.1774462707
  0
ARC
  5
BD
330
B9
100
AcDbEntity
  8
FORMAT
100
AcDbCircle
 10
236.7496365382
 20
57.0990600997
 30
0.0
 40
3.000000000000012
100
AcDbArc
 50
94.7801918472
 51
265.2198081528
  0
ARC
  5
BE
330
B9
100
AcDbEntity
  8
FORMAT
100
AcDbCircle
 10
236.7496365382
 20
57.0990600997
 30
0.0
 40
3.75000000000001
100
AcDbArc
 50
273.8225537293
 51
86.1774462707
  0
ARC
  5
BF
330
B9
100
AcDbEntity
  8
FORMAT
100
AcDbCircle
 10
236.7496365382
 20
57.0990600997
 30
0.0
 40
3.000000000000012
100
AcDbArc
 50
274.7801918472
 51
85.2198081528
  0
ARC
  5
C0
330
B9
100
AcDbEntity
  8
FORMAT
100
AcDbCircle
 10
236.7496365382
 20
58.2320416436
 30
0.0
 40
0.8604027828068846
100
AcDbArc
 50
304.8395134495
 51
73.1084194601
  0
ARC
  5
C1
330
B9
100
AcDbEntity
  8
FORMAT
100
AcDbCircle
 10
236.7496365382
 20
58.2320416436
 30
0.0
 40
1.402314431660661
100
AcDbArc
 50
313.8988153445
 51
79.7306010333
  0
ARC
  5
C2
330
B9
100
AcDbEntity
  8
FORMAT
100
AcDbCircle
 10
236.7496365382
 20
55.4979572256
 30
0.0
 40
0.4915306686725103
100
AcDbArc
 50
300.5716370086
 51
0.0
  0
ARC
  5
C3
330
B9
100
AcDbEntity
  8
FORMAT
100
AcDbCircle
 10
236.7496365382
 20
58.2320416436
 30
0.0
 40
1.402314431660661
100
AcDbArc
 50
100.2693989667
 51
226.1011846555
  0
ARC
  5
C4
330
B9
100
AcDbEntity
  8
FORMAT
100
AcDbCircle
 10
236.7496365382
 20
55.4979572256
 30
0.0
 40
0.9723464985416115
100
AcDbArc
 50
180.0
 51
255.1013518888
  0
ARC
  5
C5
330
B9
100
AcDbEntity
  8
FORMAT
100
AcDbCircle
 10
236.7496365382
 20
55.4979572256
 30
0.0
 40
0.9723464985416115
100
AcDbArc
 50
284.8986481112
 51
0.0
  0
ARC
  5
C6
330
B9
100
AcDbEntity
  8
FORMAT
100
AcDbCircle
 10
236.7496365382
 20
55.4979572256
 30
0.0
 40
0.4915306686725099
100
AcDbArc
 50
180.0
 51
239.4283629914
  0
ARC
  5
C7
330
B9
100
AcDbEntity
  8
FORMAT
100
AcDbCircle
 10
236.7496365382
 20
58.2320416436
 30
0.0
 40
0.8604027828068846
100
AcDbArc
 50
106.8915805399
 51
235.1604865505
  0
LINE
  5
C8
330
B9
100
AcDbEntity
  8
FORMAT
100
AcDbLine
 10
232.5312401271
 20
52.8806636887
 30
0.0
 11
240.9680329492
 21
52.8806636887
 31
0.0
  0
LINE
  5
C9
330
B9
100
AcDbEntity
  8
FORMAT
100
AcDbLine
 10
232.5312401271
 20
61.3174565107
 30
0.0
 11
240.9680329492
 21
61.3174565107
 31
0.0
  0
LINE
  5
CA
330
B9
100
AcDbEntity
  8
FORMAT
100
AcDbLine
 10
232.5312401271
 20
61.3174565107
 30
0.0
 11
232.5312401271
 21
52.8806636887
 31
0.0
  0
LINE
  5
CB
330
B9
100
AcDbEntity
  8
FORMAT
100
AcDbLine
 10
240.9680329492
 20
61.3174565107
 30
0.0
 11
240.9680329492
 21
52.8806636887
 31
0.0
  0
LINE
  5
CC
330
B9
100
AcDbEntity
  8
FORMAT
100
AcDbLine
 10
236.4996365382
 20
60.8407174865
 30
0.0
 11
236.4996365382
 21
60.0886252855
 31
0.0
  0
LINE
  5
CD
330
B9
100
AcDbEntity
  8
FORMAT
100
AcDbLine
 10
236.9996365382
 20
60.8407174865
 30
0.0
 11
236.9996365382
 21
60.0886252855
 31
0.0
  0
LINE
  5
CE
330
B9
100
AcDbEntity
  8
FORMAT
100
AcDbLine
 10
236.4996365382
 20
54.1094949139
 30
0.0
 11
236.4996365382
 21
53.3574027129
 31
0.0
  0
LINE
  5
CF
330
B9
100
AcDbEntity
  8
FORMAT
100
AcDbLine
 10
236.9996365382
 20
54.1094949139
 30
0.0
 11
236.9996365382
 21
53.3574027129
 31
0.0
  0
LINE
  5
D0
330
B9
100
AcDbEntity
  8
FORMAT
100
AcDbLine
 10
236.9996365382
 20
59.6118915504
 30
0.0
 11
236.9996365382
 21
59.0553234597
 31
0.0
  0
LINE
  5
D1
330
B9
100
AcDbEntity
  8
FORMAT
100
AcDbLine
 10
236.4996365382
 20
59.6118915504
 30
0.0
 11
236.4996365382
 21
59.0553234597
 31
0.0
  0
LINE
  5
D2
330
B9
100
AcDbEntity
  8
FORMAT
100
AcDbLine
 10
235.7772900396
 20
55.4979572256
 30
0.0
 11
235.7772900396
 21
57.2215823164
 31
0.0
  0
LINE
  5
D3
330
B9
100
AcDbEntity
  8
FORMAT
100
AcDbLine
 10
237.7219830367
 20
55.4979572256
 30
0.0
 11
237.7219830367
 21
57.2215823164
 31
0.0
  0
LINE
  5
D4
330
B9
100
AcDbEntity
  8
FORMAT
100
AcDbLine
 10
237.2411672068
 20
55.4979572256
 30
0.0
 11
237.2411672068
 21
57.5258613901
 31
0.0
  0
LINE
  5
D5
330
B9
100
AcDbEntity
  8
FORMAT
100
AcDbLine
 10
236.2581058695
 20
55.4979572256
 30
0.0
 11
236.2581058695
 21
57.5258613901
 31
0.0
  0
LINE
  5
D6
330
B9
100
AcDbEntity
  8
FORMAT
100
AcDbLine
 10
236.4996365382
 20
55.0747523127
 30
0.0
 11
236.4996365382
 21
54.5582989296
 31
0.0
  0
LINE
  5
D7
330
B9
100
AcDbEntity
  8
FORMAT
100
AcDbLine
 10
236.9996365382
 20
55.0747523127
 30
0.0
 11
236.9996365382
 21
54.5582989296
 31
0.0
  0
HATCH
  5
D8
330
B9
100
AcDbEntity
  8
FORMAT
100
AcDbHatch
 10
0.0
 20
0.0
 30
0.0
210
0.0
220
0.0
230
1.0
  2
SOLID
 70
     1
 71
     0
 91
        5
 92
        0
 93
        4
 72
     1
 10
240.9680329492058
 20
61.31745651073599
 11
240.9680329492058
 21
52.88066368865002
 72
     1
 10
240.9680329492058
 20
52.88066368865002
 11
232.5312401271199
 21
52.88066368865002
 72
     1
 10
232.5312401271199
 20
52.88066368865002
 11
232.5312401271199
 21
61.31745651073599
 72
     1
 10
232.5312401271199
 20
61.31745651073599
 11
240.9680329492058
 21
61.31745651073599
 97
        0
 92
        0
 93
        4
 72
     2
 10
236.7496365381628
 20
57.09906009969301
 40
3.000000000000011
 50
94.78019184719915
 51
265.2198081528016
 73
     0
 72
     1
 10
236.4996365381628
 20
60.08862528546836
 11
236.4996365381628
 21
60.84071748646695
 72
     2
 10
236.7496365381628
 20
57.09906009969301
 40
3.750000000000007
 50
93.82255372927435
 51
266.1774462707265
 73
     1
 72
     1
 10
236.4996365381628
 20
53.35740271291905
 11
236.4996365381628
 21
54.10949491391764
 97
        0
 92
        0
 93
        8
 72
     1
 10
237.7219830367044
 20
55.49795722557887
 11
237.7219830367044
 21
57.22158231636488
 72
     2
 10
236.7496365381628
 20
58.23204164361047
 40
1.402314431660656
 50
313.8988153445118
 51
439.730601033339
 73
     1
 72
     1
 10
236.9996365381628
 20
59.61189155039155
 11
236.9996365381628
 21
59.05532345967459
 72
     2
 10
236.7496365381628
 20
58.23204164361047
 40
0.8604027828068782
 50
286.8915805399266
 51
415.1604865505413
 73
     0
 72
     1
 10
237.2411672068353
 20
57.52586139012261
 11
237.2411672068353
 21
55.49795722557887
 72
     2
 10
236.7496365381628
 20
55.49795722557887
 40
0.4915306686725041
 50
0.0
 51
59.42836299135124
 73
     0
 72
     1
 10
236.9996365381628
 20
55.07475231274628
 11
236.9996365381628
 21
54.55829892958712
 72
     2
 10
236.7496365381628
 20
55.49795722557887
 40
0.9723464985416097
 50
284.8986481111874
 51
360.0000000000008
 73
     1
 97
        0
 92
        0
 93
        8
 72
     2
 10
236.7496365381628
 20
55.49795722557887
 40
0.4915306686725041
 50
120.5716370086484
 51
180.0
 73
     0
 72
     1
 10
236.2581058694904
 20
55.49795722557887
 11
236.2581058694904
 21
57.52586139012261
 72
     2
 10
236.7496365381628
 20
58.23204164361047
 40
0.8604027828068782
 50
124.839513449458
 51
253.108419460075
 73
     0
 72
     1
 10
236.4996365381628
 20
59.05532345967459
 11
236.4996365381628
 21
59.61189155039155
 72
     2
 10
236.7496365381628
 20
58.23204164361047
 40
1.402314431660656
 50
100.2693989666618
 51
226.1011846554898
 73
     1
 72
     1
 10
235.7772900396212
 20
57.22158231636488
 11
235.7772900396212
 21
55.49795722557887
 72
     2
 10
236.7496365381628
 20
55.49795722557887
 40
0.9723464985416097
 50
180.0
 51
255.1013518888143
 73
     1
 72
     1
 10
236.4996365381628
 20
54.55829892958712
 11
236.4996365381628
 21
55.07475231274628
 97
        0
 92
        0
 93
        4
 72
     2
 10
236.7496365381628
 20
57.09906009969301
 40
3.000000000000011
 50
274.7801918471999
 51
445.2198081528016
 73
     0
 72
     1
 10
236.9996365381628
 20
54.10949491391764
 11
236.9996365381628
 21
53.35740271291905
 72
     2
 10
236.7496365381628
 20
57.09906009969301
 40
3.750000000000007
 50
273.8225537292751
 51
446.1774462707265
 73
     1
 72
     1
 10
236.9996365381628
 20
60.84071748646695
 11
236.9996365381628
 21
60.08862528546836
 97
        0
 75
     0
 76
     1
 98
        1
 10
0.0
 20
0.0
  0
INSERT
  5
DE
330
B9
100
AcDbEntity
  8
FORMAT
 62
     7
100
AcDbBlockReference
  2
SW_NOTE_0_3
 10
232.2514665163
 20
47.7232938825
 30
0.0
  0
INSERT
  5
E6
330
B9
100
AcDbEntity
  8
0
  6
Continuous
 62
     7
370
     0
100
AcDbBlockReference
  2
SW_NOTE_0_4
 10
244.0723034979
 20
57.1176018272
 30
0.0
  0
ENDBLK
  5
BB
330
B9
100
AcDbEntity
  8
0
100
AcDbBlockEnd
  0
BLOCK
  5
DA
330
D9
100
AcDbEntity
  8
0
100
AcDbBlockBegin
  2
SW_NOTE_0_3
 70
     0
 10
0.0
 20
0.0
 30
0.0
  3
SW_NOTE_0_3
  1

  0
MTEXT
  5
DD
330
D9
100
AcDbEntity
  8
FORMAT
 62
     0
100
AcDbMText
 10
0.0
 20
3.8651911469
 30
0.0
 40
3.0
 41
0.0
 71
     1
 72
     1
  1
ECO
  7
SLDTEXTSTYLE1
 73
     1
 44
1.0
  0
ENDBLK
  5
DB
330
D9
100
AcDbEntity
  8
0
100
AcDbBlockEnd
  0
BLOCK
  5
E0
330
DF
100
AcDbEntity
  8
0
100
AcDbBlockBegin
  2
SW_NOTE_0_4
 70
     0
 10
0.0
 20
0.0
 30
0.0
  3
SW_NOTE_0_4
  1

  0
MTEXT
  5
E3
330
DF
100
AcDbEntity
  8
0
  6
Continuous
 62
     0
370
     0
100
AcDbMText
 10
0.0
 20
3.2226693494
 30
0.0
 40
2.5
 41
0.0
 71
     1
 72
     1
  1
ECO Schulte GmbH & Co. KG
  7
SLDTEXTSTYLE2
 73
     1
 44
1.0
  0
MTEXT
  5
E4
330
DF
100
AcDbEntity
  8
0
  6
Continuous
 62
     0
370
     0
100
AcDbMText
 10
0.0
 20
-0.2773307586
 30
0.0
 40
2.5
 41
0.0
 71
     1
 72
     1
  1
Postfach 206
  7
SLDTEXTSTYLE2
 73
     1
 44
1.0
  0
MTEXT
  5
E5
330
DF
100
AcDbEntity
  8
0
  6
Continuous
 62
     0
370
     0
100
AcDbMText
 10
0.0
 20
-3.7773308666
 30
0.0
 40
2.5
 41
0.0
 71
     1
 72
     1
  1
58682 Menden
  7
SLDTEXTSTYLE2
 73
     1
 44
1.0
  0
ENDBLK
  5
E1
330
DF
100
AcDbEntity
  8
0
100
AcDbBlockEnd
  0
BLOCK
  5
E8
330
E7
100
AcDbEntity
  8
0
100
AcDbBlockBegin
  2
Block1_3_1_1
 70
     0
 10
0.0
 20
0.0
 30
0.0
  3
Block1_3_1_1
  1

  0
CIRCLE
  5
EA
330
E7
100
AcDbEntity
  8
0
  6
Continuous
 62
     7
370
    18
100
AcDbCircle
 10
11.6137544821
 20
9.0896586992
 30
0.0
 40
1.255909011058753
  0
CIRCLE
  5
EB
330
E7
100
AcDbEntity
  8
0
  6
Continuous
 62
     7
370
    18
100
AcDbCircle
 10
11.6137544821
 20
9.0896586992
 30
0.0
 40
2.216014863655655
  0
LINE
  5
EC
330
E7
100
AcDbEntity
  8
0
  6
CENTERX2
 62
     7
370
    18
100
AcDbLine
 10
11.6137544821
 20
9.0896586992
 30
0.0
 11
7.8977396184
 21
9.0896586992
 31
0.0
  0
LINE
  5
ED
330
E7
100
AcDbEntity
  8
0
  6
Continuous
 62
     7
370
    18
100
AcDbLine
 10
8.165753588
 20
6.8736438356
 30
0.0
 11
8.165753588
 21
11.3071584591
 31
0.0
  0
LINE
  5
EE
330
E7
100
AcDbEntity
  8
0
  6
Continuous
 62
     7
370
    18
100
AcDbLine
 10
2.6797147895
 20
10.3455677103
 30
0.0
 11
2.6797147895
 21
7.8337496881
 31
0.0
  0
LINE
  5
EF
330
E7
100
AcDbEntity
  8
0
  6
Continuous
 62
     7
370
    18
100
AcDbLine
 10
2.6797147895
 20
7.8337496881
 30
0.0
 11
8.165753588
 21
6.8736438356
 31
0.0
  0
LINE
  5
F0
330
E7
100
AcDbEntity
  8
0
  6
CENTERX2
 62
     7
370
    18
100
AcDbLine
 10
9.665753588
 20
9.0896586992
 30
0.0
 11
1.1797147895
 21
9.0896586992
 31
0.0
  0
LINE
  5
F1
330
E7
100
AcDbEntity
  8
0
  6
Continuous
 62
     7
370
    18
100
AcDbLine
 10
8.165753588
 20
11.3071584591
 30
0.0
 11
2.6797147895
 21
10.3455677103
 31
0.0
  0
LINE
  5
F2
330
E7
100
AcDbEntity
  8
0
  6
CENTERX2
 62
     7
370
    18
100
AcDbLine
 10
11.6137544821
 20
9.0896586992
 30
0.0
 11
11.6137544821
 21
5.3736438356
 31
0.0
  0
LINE
  5
F3
330
E7
100
AcDbEntity
  8
0
  6
CENTERX2
 62
     7
370
    18
100
AcDbLine
 10
11.6137544821
 20
9.0896586992
 30
0.0
 11
11.6137544821
 21
12.8056735629
 31
0.0
  0
LINE
  5
F4
330
E7
100
AcDbEntity
  8
0
  6
CENTERX2
 62
     7
370
    18
100
AcDbLine
 10
11.6137544821
 20
9.0896586992
 30
0.0
 11
15.3297693458
 21
9.0896586992
 31
0.0
  0
INSERT
  5
FA
330
E7
100
AcDbEntity
  8
0
  6
Continuous
 62
     7
370
     0
100
AcDbBlockReference
  2
SW_NOTE_0_5
 10
2.1031832889
 20
2.3754472768
 30
0.0
  0
ENDBLK
  5
E9
330
E7
100
AcDbEntity
  8
0
100
AcDbBlockEnd
  0
BLOCK
  5
F6
330
F5
100
AcDbEntity
  8
0
100
AcDbBlockBegin
  2
SW_NOTE_0_5
 70
     0
 10
0.0
 20
0.0
 30
0.0
  3
SW_NOTE_0_5
  1

  0
MTEXT
  5
F8
330
F5
100
AcDbEntity
  8
0
  6
Continuous
 62
     0
370
     0
100
AcDbMText
 10
6.590625
 20
2.4492287056
 30
0.0
 40
1.9
 41
0.0
 71
     2
 72
     1
  1
DIN 6  T1 - 
  7
SLDTEXTSTYLE0
 73
     1
 44
1.0
  0
MTEXT
  5
F9
330
F5
100
AcDbEntity
  8
0
  6
Continuous
 62
     0
370
     0
100
AcDbMText
 10
6.6569262624
 20
0.0003397443
 30
0.0
 40
1.9
 41
0.0
 71
     2
 72
     1
  1
Proj.methode 1
  7
SLDTEXTSTYLE0
 73
     1
 44
1.0
  0
ENDBLK
  5
F7
330
F5
100
AcDbEntity
  8
0
100
AcDbBlockEnd
  0
BLOCK
  5
FC
330
FB
100
AcDbEntity
  8
0
100
AcDbBlockBegin
  2
Block2_3_1_1
 70
     0
 10
0.0
 20
0.0
 30
0.0
  3
Block2_3_1_1
  1

  0
ARC
  5
FE
330
FB
100
AcDbEntity
  8
FORMAT
100
AcDbCircle
 10
236.7496365382
 20
57.0990600997
 30
0.0
 40
3.75000000000001
100
AcDbArc
 50
93.8225537293
 51
266.1774462707
  0
ARC
  5
FF
330
FB
100
AcDbEntity
  8
FORMAT
100
AcDbCircle
 10
236.7496365382
 20
57.0990600997
 30
0.0
 40
3.000000000000012
100
AcDbArc
 50
94.7801918472
 51
265.2198081528
  0
ARC
  5
100
330
FB
100
AcDbEntity
  8
FORMAT
100
AcDbCircle
 10
236.7496365382
 20
57.0990600997
 30
0.0
 40
3.75000000000001
100
AcDbArc
 50
273.8225537293
 51
86.1774462707
  0
ARC
  5
101
330
FB
100
AcDbEntity
  8
FORMAT
100
AcDbCircle
 10
236.7496365382
 20
57.0990600997
 30
0.0
 40
3.000000000000012
100
AcDbArc
 50
274.7801918472
 51
85.2198081528
  0
ARC
  5
102
330
FB
100
AcDbEntity
  8
FORMAT
100
AcDbCircle
 10
236.7496365382
 20
58.2320416436
 30
0.0
 40
0.8604027828068846
100
AcDbArc
 50
304.8395134495
 51
73.1084194601
  0
ARC
  5
103
330
FB
100
AcDbEntity
  8
FORMAT
100
AcDbCircle
 10
236.7496365382
 20
58.2320416436
 30
0.0
 40
1.402314431660661
100
AcDbArc
 50
313.8988153445
 51
79.7306010333
  0
ARC
  5
104
330
FB
100
AcDbEntity
  8
FORMAT
100
AcDbCircle
 10
236.7496365382
 20
55.4979572256
 30
0.0
 40
0.4915306686725103
100
AcDbArc
 50
300.5716370086
 51
0.0
  0
ARC
  5
105
330
FB
100
AcDbEntity
  8
FORMAT
100
AcDbCircle
 10
236.7496365382
 20
58.2320416436
 30
0.0
 40
1.402314431660661
100
AcDbArc
 50
100.2693989667
 51
226.1011846555
  0
ARC
  5
106
330
FB
100
AcDbEntity
  8
FORMAT
100
AcDbCircle
 10
236.7496365382
 20
55.4979572256
 30
0.0
 40
0.9723464985416115
100
AcDbArc
 50
180.0
 51
255.1013518888
  0
ARC
  5
107
330
FB
100
AcDbEntity
  8
FORMAT
100
AcDbCircle
 10
236.7496365382
 20
55.4979572256
 30
0.0
 40
0.9723464985416115
100
AcDbArc
 50
284.8986481112
 51
0.0
  0
ARC
  5
108
330
FB
100
AcDbEntity
  8
FORMAT
100
AcDbCircle
 10
236.7496365382
 20
55.4979572256
 30
0.0
 40
0.4915306686725099
100
AcDbArc
 50
180.0
 51
239.4283629914
  0
ARC
  5
109
330
FB
100
AcDbEntity
  8
FORMAT
100
AcDbCircle
 10
236.7496365382
 20
58.2320416436
 30
0.0
 40
0.8604027828068846
100
AcDbArc
 50
106.8915805399
 51
235.1604865505
  0
LINE
  5
10A
330
FB
100
AcDbEntity
  8
FORMAT
100
AcDbLine
 10
232.5312401271
 20
52.8806636887
 30
0.0
 11
240.9680329492
 21
52.8806636887
 31
0.0
  0
LINE
  5
10B
330
FB
100
AcDbEntity
  8
FORMAT
100
AcDbLine
 10
232.5312401271
 20
61.3174565107
 30
0.0
 11
240.9680329492
 21
61.3174565107
 31
0.0
  0
LINE
  5
10C
330
FB
100
AcDbEntity
  8
FORMAT
100
AcDbLine
 10
232.5312401271
 20
61.3174565107
 30
0.0
 11
232.5312401271
 21
52.8806636887
 31
0.0
  0
LINE
  5
10D
330
FB
100
AcDbEntity
  8
FORMAT
100
AcDbLine
 10
240.9680329492
 20
61.3174565107
 30
0.0
 11
240.9680329492
 21
52.8806636887
 31
0.0
  0
LINE
  5
10E
330
FB
100
AcDbEntity
  8
FORMAT
100
AcDbLine
 10
236.4996365382
 20
60.8407174865
 30
0.0
 11
236.4996365382
 21
60.0886252855
 31
0.0
  0
LINE
  5
10F
330
FB
100
AcDbEntity
  8
FORMAT
100
AcDbLine
 10
236.9996365382
 20
60.8407174865
 30
0.0
 11
236.9996365382
 21
60.0886252855
 31
0.0
  0
LINE
  5
110
330
FB
100
AcDbEntity
  8
FORMAT
100
AcDbLine
 10
236.4996365382
 20
54.1094949139
 30
0.0
 11
236.4996365382
 21
53.3574027129
 31
0.0
  0
LINE
  5
111
330
FB
100
AcDbEntity
  8
FORMAT
100
AcDbLine
 10
236.9996365382
 20
54.1094949139
 30
0.0
 11
236.9996365382
 21
53.3574027129
 31
0.0
  0
LINE
  5
112
330
FB
100
AcDbEntity
  8
FORMAT
100
AcDbLine
 10
236.9996365382
 20
59.6118915504
 30
0.0
 11
236.9996365382
 21
59.0553234597
 31
0.0
  0
LINE
  5
113
330
FB
100
AcDbEntity
  8
FORMAT
100
AcDbLine
 10
236.4996365382
 20
59.6118915504
 30
0.0
 11
236.4996365382
 21
59.0553234597
 31
0.0
  0
LINE
  5
114
330
FB
100
AcDbEntity
  8
FORMAT
100
AcDbLine
 10
235.7772900396
 20
55.4979572256
 30
0.0
 11
235.7772900396
 21
57.2215823164
 31
0.0
  0
LINE
  5
115
330
FB
100
AcDbEntity
  8
FORMAT
100
AcDbLine
 10
237.7219830367
 20
55.4979572256
 30
0.0
 11
237.7219830367
 21
57.2215823164
 31
0.0
  0
LINE
  5
116
330
FB
100
AcDbEntity
  8
FORMAT
100
AcDbLine
 10
237.2411672068
 20
55.4979572256
 30
0.0
 11
237.2411672068
 21
57.5258613901
 31
0.0
  0
LINE
  5
117
330
FB
100
AcDbEntity
  8
FORMAT
100
AcDbLine
 10
236.2581058695
 20
55.4979572256
 30
0.0
 11
236.2581058695
 21
57.5258613901
 31
0.0
  0
LINE
  5
118
330
FB
100
AcDbEntity
  8
FORMAT
100
AcDbLine
 10
236.4996365382
 20
55.0747523127
 30
0.0
 11
236.4996365382
 21
54.5582989296
 31
0.0
  0
LINE
  5
119
330
FB
100
AcDbEntity
  8
FORMAT
100
AcDbLine
 10
236.9996365382
 20
55.0747523127
 30
0.0
 11
236.9996365382
 21
54.5582989296
 31
0.0
  0
HATCH
  5
11A
330
FB
100
AcDbEntity
  8
FORMAT
100
AcDbHatch
 10
0.0
 20
0.0
 30
0.0
210
0.0
220
0.0
230
1.0
  2
SOLID
 70
     1
 71
     0
 91
        5
 92
        0
 93
        4
 72
     1
 10
240.9680329492058
 20
61.31745651073599
 11
240.9680329492058
 21
52.88066368865002
 72
     1
 10
240.9680329492058
 20
52.88066368865002
 11
232.5312401271199
 21
52.88066368865002
 72
     1
 10
232.5312401271199
 20
52.88066368865002
 11
232.5312401271199
 21
61.31745651073599
 72
     1
 10
232.5312401271199
 20
61.31745651073599
 11
240.9680329492058
 21
61.31745651073599
 97
        0
 92
        0
 93
        4
 72
     2
 10
236.7496365381628
 20
57.09906009969301
 40
3.000000000000011
 50
94.78019184719915
 51
265.2198081528016
 73
     0
 72
     1
 10
236.4996365381628
 20
60.08862528546836
 11
236.4996365381628
 21
60.84071748646695
 72
     2
 10
236.7496365381628
 20
57.09906009969301
 40
3.750000000000007
 50
93.82255372927435
 51
266.1774462707265
 73
     1
 72
     1
 10
236.4996365381628
 20
53.35740271291905
 11
236.4996365381628
 21
54.10949491391764
 97
        0
 92
        0
 93
        8
 72
     1
 10
237.7219830367044
 20
55.49795722557887
 11
237.7219830367044
 21
57.22158231636488
 72
     2
 10
236.7496365381628
 20
58.23204164361047
 40
1.402314431660656
 50
313.8988153445118
 51
439.730601033339
 73
     1
 72
     1
 10
236.9996365381628
 20
59.61189155039155
 11
236.9996365381628
 21
59.05532345967459
 72
     2
 10
236.7496365381628
 20
58.23204164361047
 40
0.8604027828068782
 50
286.8915805399266
 51
415.1604865505413
 73
     0
 72
     1
 10
237.2411672068353
 20
57.52586139012261
 11
237.2411672068353
 21
55.49795722557887
 72
     2
 10
236.7496365381628
 20
55.49795722557887
 40
0.4915306686725041
 50
0.0
 51
59.42836299135124
 73
     0
 72
     1
 10
236.9996365381628
 20
55.07475231274628
 11
236.9996365381628
 21
54.55829892958712
 72
     2
 10
236.7496365381628
 20
55.49795722557887
 40
0.9723464985416097
 50
284.8986481111874
 51
360.0000000000008
 73
     1
 97
        0
 92
        0
 93
        8
 72
     2
 10
236.7496365381628
 20
55.49795722557887
 40
0.4915306686725041
 50
120.5716370086484
 51
180.0
 73
     0
 72
     1
 10
236.2581058694904
 20
55.49795722557887
 11
236.2581058694904
 21
57.52586139012261
 72
     2
 10
236.7496365381628
 20
58.23204164361047
 40
0.8604027828068782
 50
124.839513449458
 51
253.108419460075
 73
     0
 72
     1
 10
236.4996365381628
 20
59.05532345967459
 11
236.4996365381628
 21
59.61189155039155
 72
     2
 10
236.7496365381628
 20
58.23204164361047
 40
1.402314431660656
 50
100.2693989666618
 51
226.1011846554898
 73
     1
 72
     1
 10
235.7772900396212
 20
57.22158231636488
 11
235.7772900396212
 21
55.49795722557887
 72
     2
 10
236.7496365381628
 20
55.49795722557887
 40
0.9723464985416097
 50
180.0
 51
255.1013518888143
 73
     1
 72
     1
 10
236.4996365381628
 20
54.55829892958712
 11
236.4996365381628
 21
55.07475231274628
 97
        0
 92
        0
 93
        4
 72
     2
 10
236.7496365381628
 20
57.09906009969301
 40
3.000000000000011
 50
274.7801918471999
 51
445.2198081528016
 73
     0
 72
     1
 10
236.9996365381628
 20
54.10949491391764
 11
236.9996365381628
 21
53.35740271291905
 72
     2
 10
236.7496365381628
 20
57.09906009969301
 40
3.750000000000007
 50
273.8225537292751
 51
446.1774462707265
 73
     1
 72
     1
 10
236.9996365381628
 20
60.84071748646695
 11
236.9996365381628
 21
60.08862528546836
 97
        0
 75
     0
 76
     1
 98
        1
 10
0.0
 20
0.0
  0
INSERT
  5
11F
330
FB
100
AcDbEntity
  8
FORMAT
 62
     7
100
AcDbBlockReference
  2
SW_NOTE_0_6
 10
232.2514665163
 20
47.7232938825
 30
0.0
  0
INSERT
  5
126
330
FB
100
AcDbEntity
  8
0
  6
Continuous
 62
     7
370
     0
100
AcDbBlockReference
  2
SW_NOTE_0_7
 10
244.0723034979
 20
57.1176018272
 30
0.0
  0
ENDBLK
  5
FD
330
FB
100
AcDbEntity
  8
0
100
AcDbBlockEnd
  0
BLOCK
  5
11C
330
11B
100
AcDbEntity
  8
0
100
AcDbBlockBegin
  2
SW_NOTE_0_6
 70
     0
 10
0.0
 20
0.0
 30
0.0
  3
SW_NOTE_0_6
  1

  0
MTEXT
  5
11E
330
11B
100
AcDbEntity
  8
FORMAT
 62
     0
100
AcDbMText
 10
0.0
 20
3.8651911469
 30
0.0
 40
3.0
 41
0.0
 71
     1
 72
     1
  1
ECO
  7
SLDTEXTSTYLE1
 73
     1
 44
1.0
  0
ENDBLK
  5
11D
330
11B
100
AcDbEntity
  8
0
100
AcDbBlockEnd
  0
BLOCK
  5
121
330
120
100
AcDbEntity
  8
0
100
AcDbBlockBegin
  2
SW_NOTE_0_7
 70
     0
 10
0.0
 20
0.0
 30
0.0
  3
SW_NOTE_0_7
  1

  0
MTEXT
  5
123
330
120
100
AcDbEntity
  8
0
  6
Continuous
 62
     0
370
     0
100
AcDbMText
 10
0.0
 20
3.2226693494
 30
0.0
 40
2.5
 41
0.0
 71
     1
 72
     1
  1
ECO Schulte GmbH & Co. KG
  7
SLDTEXTSTYLE2
 73
     1
 44
1.0
  0
MTEXT
  5
124
330
120
100
AcDbEntity
  8
0
  6
Continuous
 62
     0
370
     0
100
AcDbMText
 10
0.0
 20
-0.2773307586
 30
0.0
 40
2.5
 41
0.0
 71
     1
 72
     1
  1
Postfach 206
  7
SLDTEXTSTYLE2
 73
     1
 44
1.0
  0
MTEXT
  5
125
330
120
100
AcDbEntity
  8
0
  6
Continuous
 62
     0
370
     0
100
AcDbMText
 10
0.0
 20
-3.7773308666
 30
0.0
 40
2.5
 41
0.0
 71
     1
 72
     1
  1
58682 Menden
  7
SLDTEXTSTYLE2
 73
     1
 44
1.0
  0
ENDBLK
  5
122
330
120
100
AcDbEntity
  8
0
100
AcDbBlockEnd
  0
BLOCK
  5
128
330
127
100
AcDbEntity
  8
0
100
AcDbBlockBegin
  2
rechtlicher_Hinweis_Katalogzeichnungen_1_1
 70
     0
 10
0.0
 20
0.0
 30
0.0
  3
rechtlicher_Hinweis_Katalogzeichnungen_1_1
  1

  0
INSERT
  5
133
330
127
100
AcDbEntity
  8
0
  6
Continuous
 62
     7
370
     0
100
AcDbBlockReference
  2
SW_NOTE_0_8
 10
0.677633552
 20
47.8243897458
 30
0.0
  0
ENDBLK
  5
129
330
127
100
AcDbEntity
  8
0
100
AcDbBlockEnd
  0
BLOCK
  5
12B
330
12A
100
AcDbEntity
  8
0
100
AcDbBlockBegin
  2
SW_NOTE_0_8
 70
     0
 10
0.0
 20
0.0
 30
0.0
  3
SW_NOTE_0_8
  1

  0
MTEXT
  5
12D
330
12A
100
AcDbEntity
  8
0
  6
Continuous
 62
     0
370
     0
100
AcDbMText
 10
0.0
 20
6.4453386989
 30
0.0
 40
5.0
 41
0.0
 71
     1
 72
     1
  1
Technische Änderungen und Irrtümer vorbehalten. Aus dem Gebrauch der Zeichnung können keinerlei Ansprüche 
  7
SLDTEXTSTYLE0
 73
     1
 44
1.0
  0
MTEXT
  5
12E
330
12A
100
AcDbEntity
  8
0
  6
Continuous
 62
     0
370
     0
100
AcDbMText
 10
0.0
 20
-0.5546615172
 30
0.0
 40
5.0
 41
0.0
 71
     1
 72
     1
  1
(inkl. Schadenersatzansprüche) erhoben und gegen ECO Schulte geltend gemacht werden. Die Zeichnung bleibt 
  7
SLDTEXTSTYLE0
 73
     1
 44
1.0
  0
MTEXT
  5
12F
330
12A
100
AcDbEntity
  8
0
  6
Continuous
 62
     0
370
     0
100
AcDbMText
 10
0.0
 20
-7.5546617333
 30
0.0
 40
5.0
 41
0.0
 71
     1
 72
     1
  1
unser Eigentum. Sämtliche sich aus der Zeichnung ergebenden Ansprüche stehen ausschließlich ECO Schulte zu.
  7
SLDTEXTSTYLE0
 73
     1
 44
1.0
  0
MTEXT
  5
130
330
12A
100
AcDbEntity
  8
0
  6
Continuous
 62
     0
370
     0
100
AcDbMText
 10
0.0
 20
-21.5546621654
 30
0.0
 40
5.0
 41
0.0
 71
     1
 72
     1
  1
Technical changes and errors excepted. No claims (including compensation claims) may be raised against ECO 
  7
SLDTEXTSTYLE0
 73
     1
 44
1.0
  0
MTEXT
  5
131
330
12A
100
AcDbEntity
  8
0
  6
Continuous
 62
     0
370
     0
100
AcDbMText
 10
0.0
 20
-28.5546623815
 30
0.0
 40
5.0
 41
0.0
 71
     1
 72
     1
  1
Schulte by using of this drawing. The drawing remains the property of ECO Schulte. All claims resulting from this 
  7
SLDTEXTSTYLE0
 73
     1
 44
1.0
  0
MTEXT
  5
132
330
12A
100
AcDbEntity
  8
0
  6
Continuous
 62
     0
370
     0
100
AcDbMText
 10
0.0
 20
-35.5546625975
 30
0.0
 40
5.0
 41
0.0
 71
     1
 72
     1
  1
drawing are solely entitled to ECO Schulte.
  7
SLDTEXTSTYLE0
 73
     1
 44
1.0
  0
ENDBLK
  5
12C
330
12A
100
AcDbEntity
  8
0
100
AcDbBlockEnd
  0
BLOCK
  5
158
330
157
100
AcDbEntity
  8
0
100
AcDbBlockBegin
  2
SW_NOTE_0_9
 70
     0
 10
0.0
 20
0.0
 30
0.0
  3
SW_NOTE_0_9
  1

  0
MTEXT
  5
15A
330
157
100
AcDbEntity
  8
FORMAT
 62
     0
100
AcDbMText
 10
0.0
 20
2.5781354795
 30
0.0
 40
2.0
 41
0.0
 71
     1
 72
     1
  1
Technische Änderungen und Irrtümer vorbehalten. Aus dem Gebrauch der Zeichnung 
  7
SLDTEXTSTYLE0
 73
     1
 44
1.0
  0
MTEXT
  5
15B
330
157
100
AcDbEntity
  8
FORMAT
 62
     0
100
AcDbMText
 10
0.0
 20
-0.4218645465
 30
0.0
 40
2.0
 41
0.0
 71
     1
 72
     1
  1
können keinerlei Ansprüche (inkl. Schadenersatzansprüche) erhoben und gegen ECO 
  7
SLDTEXTSTYLE0
 73
     1
 44
1.0
  0
MTEXT
  5
15C
330
157
100
AcDbEntity
  8
FORMAT
 62
     0
100
AcDbMText
 10
0.0
 20
-3.4218645726
 30
0.0
 40
2.0
 41
0.0
 71
     1
 72
     1
  1
Schulte geltend gemacht werden. Die Zeichnung bleibt unser Eigentum. Sämtliche sich 
  7
SLDTEXTSTYLE0
 73
     1
 44
1.0
  0
MTEXT
  5
15D
330
157
100
AcDbEntity
  8
FORMAT
 62
     0
100
AcDbMText
 10
0.0
 20
-6.4218645987
 30
0.0
 40
2.0
 41
0.0
 71
     1
 72
     1
  1
aus der Zeichnung ergebenden Ansprüche stehen ausschließlich ECO Schulte zu. 
  7
SLDTEXTSTYLE0
 73
     1
 44
1.0
  0
MTEXT
  5
15E
330
157
100
AcDbEntity
  8
FORMAT
 62
     0
100
AcDbMText
 10
0.0
 20
-12.4218646508
 30
0.0
 40
2.0
 41
0.0
 71
     1
 72
     1
  1
Technical changes and errors excepted. No claims (including compensation claims) may 
  7
SLDTEXTSTYLE0
 73
     1
 44
1.0
  0
MTEXT
  5
15F
330
157
100
AcDbEntity
  8
FORMAT
 62
     0
100
AcDbMText
 10
0.0
 20
-15.4218646769
 30
0.0
 40
2.0
 41
0.0
 71
     1
 72
     1
  1
be raised against ECO Schulte by using of this drawing. The drawing remains the property 
  7
SLDTEXTSTYLE0
 73
     1
 44
1.0
  0
MTEXT
  5
160
330
157
100
AcDbEntity
  8
FORMAT
 62
     0
100
AcDbMText
 10
0.0
 20
-18.421864703
 30
0.0
 40
2.0
 41
0.0
 71
     1
 72
     1
  1
of ECO Schulte. All claims resulting from this drawing are solely entitled to ECO Schulte.
  7
SLDTEXTSTYLE0
 73
     1
 44
1.0
  0
ENDBLK
  5
159
330
157
100
AcDbEntity
  8
0
100
AcDbBlockEnd
  0
BLOCK
  5
1DF
330
1DE
100
AcDbEntity
  8
0
100
AcDbBlockBegin
  2
_D
 70
     0
 10
0.0
 20
0.0
 30
0.0
  3
_D
  1

  0
SOLID
  5
1E1
330
1DE
100
AcDbEntity
  8
FORMAT
100
AcDbTrace
 10
15.3483683727
 20
125.2821019626
 30
0.0
 11
15.8563683727
 21
128.5841019626
 31
0.0
 12
14.8403683727
 22
128.5841019626
 32
0.0
 13
14.8403683727
 23
128.5841019626
 33
0.0
  0
SOLID
  5
1E2
330
1DE
100
AcDbEntity
  8
FORMAT
100
AcDbTrace
 10
15.3483683727
 20
143.2821019626
 30
0.0
 11
14.8403683727
 21
139.9801019626
 31
0.0
 12
15.8563683727
 22
139.9801019626
 32
0.0
 13
15.8563683727
 23
139.9801019626
 33
0.0
  0
LINE
  5
1E3
330
1DE
100
AcDbEntity
  8
FORMAT
100
AcDbLine
 10
23.0695309894
 20
125.2821019626
 30
0.0
 11
14.3483683727
 21
125.2821019626
 31
0.0
  0
LINE
  5
1E4
330
1DE
100
AcDbEntity
  8
FORMAT
100
AcDbLine
 10
23.0695309894
 20
143.2821019626
 30
0.0
 11
14.3483683727
 21
143.2821019626
 31
0.0
  0
LINE
  5
1E5
330
1DE
100
AcDbEntity
  8
FORMAT
100
AcDbLine
 10
15.3483683727
 20
125.2821019626
 30
0.0
 11
15.3483683727
 21
143.2821019626
 31
0.0
  0
MTEXT
  5
1E6
330
1DE
100
AcDbEntity
  8
FORMAT
100
AcDbMText
 10
10.8366312835
 20
129.0570153779
 30
0.0
 40
3.5
 41
0.0
 71
     1
 72
     1
  1
%%c
  7
SLDTEXTSTYLE0
 11
6.123233995736766E-17
 21
1.0
 31
0.0
 73
     1
 44
1.0
  0
MTEXT
  5
1E7
330
1DE
100
AcDbEntity
  8
FORMAT
100
AcDbMText
 10
10.8269089743
 20
134.1599669232
 30
0.0
 40
3.5
 41
0.0
 71
     1
 72
     1
  1
18
  7
SLDTEXTSTYLE0
 11
6.123233995736766E-17
 21
1.0
 31
0.0
 73
     1
 44
1.0
  0
ENDBLK
  5
1E0
330
1DE
100
AcDbEntity
  8
0
100
AcDbBlockEnd
  0
BLOCK
  5
1EA
330
1E9
100
AcDbEntity
  8
0
100
AcDbBlockBegin
  2
_D_1
 70
     0
 10
0.0
 20
0.0
 30
0.0
  3
_D_1
  1

  0
SOLID
  5
1EC
330
1E9
100
AcDbEntity
  8
FORMAT
100
AcDbTrace
 10
75.8695309894
 20
85.2821019626
 30
0.0
 11
79.1715309894
 21
84.7741019626
 31
0.0
 12
79.1715309894
 22
85.7901019626
 32
0.0
 13
79.1715309894
 23
85.7901019626
 33
0.0
  0
SOLID
  5
1ED
330
1E9
100
AcDbEntity
  8
FORMAT
100
AcDbTrace
 10
103.8695309894
 20
85.2821019626
 30
0.0
 11
100.5675309894
 21
85.7901019626
 31
0.0
 12
100.5675309894
 22
84.7741019626
 32
0.0
 13
100.5675309894
 23
84.7741019626
 33
0.0
  0
LINE
  5
1EE
330
1E9
100
AcDbEntity
  8
FORMAT
100
AcDbLine
 10
75.8695309894
 20
98.7821019626
 30
0.0
 11
75.8695309894
 21
84.2821019626
 31
0.0
  0
LINE
  5
1EF
330
1E9
100
AcDbEntity
  8
FORMAT
100
AcDbLine
 10
103.8695309894
 20
92.7821019626
 30
0.0
 11
103.8695309894
 21
84.2821019626
 31
0.0
  0
LINE
  5
1F0
330
1E9
100
AcDbEntity
  8
FORMAT
100
AcDbLine
 10
75.8695309894
 20
85.2821019626
 30
0.0
 11
103.8695309894
 21
85.2821019626
 31
0.0
  0
MTEXT
  5
1F1
330
1E9
100
AcDbEntity
  8
FORMAT
100
AcDbMText
 10
87.1959199445
 20
89.7938392846
 30
0.0
 40
3.5
 41
0.0
 71
     1
 72
     1
  1
28
  7
SLDTEXTSTYLE0
 73
     1
 44
1.0
  0
ENDBLK
  5
1EB
330
1E9
100
AcDbEntity
  8
0
100
AcDbBlockEnd
  0
BLOCK
  5
1F4
330
1F3
100
AcDbEntity
  8
0
100
AcDbBlockBegin
  2
_D_2
 70
     0
 10
0.0
 20
0.0
 30
0.0
  3
_D_2
  1

  0
SOLID
  5
1F6
330
1F3
100
AcDbEntity
  8
FORMAT
100
AcDbTrace
 10
131.8695309894
 20
85.2821019626
 30
0.0
 11
128.5675309894
 21
85.7901019626
 31
0.0
 12
128.5675309894
 22
84.7741019626
 32
0.0
 13
128.5675309894
 23
84.7741019626
 33
0.0
  0
SOLID
  5
1F7
330
1F3
100
AcDbEntity
  8
FORMAT
100
AcDbTrace
 10
103.8695309894
 20
85.2821019626
 30
0.0
 11
107.1715309894
 21
84.7741019626
 31
0.0
 12
107.1715309894
 22
85.7901019626
 32
0.0
 13
107.1715309894
 23
85.7901019626
 33
0.0
  0
LINE
  5
1F8
330
1F3
100
AcDbEntity
  8
FORMAT
100
AcDbLine
 10
131.8695309894
 20
98.7821019626
 30
0.0
 11
131.8695309894
 21
84.2821019626
 31
0.0
  0
LINE
  5
1F9
330
1F3
100
AcDbEntity
  8
FORMAT
100
AcDbLine
 10
103.8695309894
 20
92.7821019626
 30
0.0
 11
103.8695309894
 21
84.2821019626
 31
0.0
  0
LINE
  5
1FA
330
1F3
100
AcDbEntity
  8
FORMAT
100
AcDbLine
 10
131.8695309894
 20
85.2821019626
 30
0.0
 11
103.8695309894
 21
85.2821019626
 31
0.0
  0
MTEXT
  5
1FB
330
1F3
100
AcDbEntity
  8
FORMAT
100
AcDbMText
 10
115.1959199445
 20
89.7938392846
 30
0.0
 40
3.5
 41
0.0
 71
     1
 72
     1
  1
28
  7
SLDTEXTSTYLE0
 73
     1
 44
1.0
  0
ENDBLK
  5
1F5
330
1F3
100
AcDbEntity
  8
0
100
AcDbBlockEnd
  0
BLOCK
  5
1FE
330
1FD
100
AcDbEntity
  8
0
100
AcDbBlockBegin
  2
_D_3
 70
     0
 10
0.0
 20
0.0
 30
0.0
  3
_D_3
  1

  0
SOLID
  5
200
330
1FD
100
AcDbEntity
  8
FORMAT
100
AcDbTrace
 10
61.8695309894
 20
73.2821019626
 30
0.0
 11
65.1715309894
 21
72.7741019626
 31
0.0
 12
65.1715309894
 22
73.7901019626
 32
0.0
 13
65.1715309894
 23
73.7901019626
 33
0.0
  0
SOLID
  5
201
330
1FD
100
AcDbEntity
  8
FORMAT
100
AcDbTrace
 10
145.8695309894
 20
73.2821019626
 30
0.0
 11
142.5675309894
 21
73.7901019626
 31
0.0
 12
142.5675309894
 22
72.7741019626
 32
0.0
 13
142.5675309894
 23
72.7741019626
 33
0.0
  0
LINE
  5
202
330
1FD
100
AcDbEntity
  8
FORMAT
100
AcDbLine
 10
61.8695309894
 20
94.7821019626
 30
0.0
 11
61.8695309894
 21
72.2821019626
 31
0.0
  0
LINE
  5
203
330
1FD
100
AcDbEntity
  8
FORMAT
100
AcDbLine
 10
145.8695309894
 20
94.7821019626
 30
0.0
 11
145.8695309894
 21
72.2821019626
 31
0.0
  0
LINE
  5
204
330
1FD
100
AcDbEntity
  8
FORMAT
100
AcDbLine
 10
61.8695309894
 20
73.2821019626
 30
0.0
 11
145.8695309894
 21
73.2821019626
 31
0.0
  0
MTEXT
  5
205
330
1FD
100
AcDbEntity
  8
FORMAT
100
AcDbMText
 10
101.1959199445
 20
77.7938392846
 30
0.0
 40
3.5
 41
0.0
 71
     1
 72
     1
  1
84
  7
SLDTEXTSTYLE0
 73
     1
 44
1.0
  0
ENDBLK
  5
1FF
330
1FD
100
AcDbEntity
  8
0
100
AcDbBlockEnd
  0
BLOCK
  5
208
330
207
100
AcDbEntity
  8
0
100
AcDbBlockBegin
  2
_D_4
 70
     0
 10
0.0
 20
0.0
 30
0.0
  3
_D_4
  1

  0
SOLID
  5
20A
330
207
100
AcDbEntity
  8
FORMAT
100
AcDbTrace
 10
35.8695309894
 20
175.7821019626
 30
0.0
 11
39.1715309894
 21
175.2741019626
 31
0.0
 12
39.1715309894
 22
176.2901019626
 32
0.0
 13
39.1715309894
 23
176.2901019626
 33
0.0
  0
SOLID
  5
20B
330
207
100
AcDbEntity
  8
FORMAT
100
AcDbTrace
 10
69.8695309894
 20
175.7821019626
 30
0.0
 11
66.5675309894
 21
176.2901019626
 31
0.0
 12
66.5675309894
 22
175.2741019626
 32
0.0
 13
66.5675309894
 23
175.2741019626
 33
0.0
  0
LINE
  5
20C
330
207
100
AcDbEntity
  8
FORMAT
100
AcDbLine
 10
35.8695309894
 20
167.7821019626
 30
0.0
 11
35.8695309894
 21
176.7821019626
 31
0.0
  0
LINE
  5
20D
330
207
100
AcDbEntity
  8
FORMAT
100
AcDbLine
 10
69.8695309894
 20
161.7821019626
 30
0.0
 11
69.8695309894
 21
176.7821019626
 31
0.0
  0
LINE
  5
20E
330
207
100
AcDbEntity
  8
FORMAT
100
AcDbLine
 10
35.8695309894
 20
175.7821019626
 30
0.0
 11
69.8695309894
 21
175.7821019626
 31
0.0
  0
MTEXT
  5
20F
330
207
100
AcDbEntity
  8
FORMAT
100
AcDbMText
 10
47.1553363519
 20
180.2938392846
 30
0.0
 40
3.5
 41
0.0
 71
     1
 72
     1
  1
34
  7
SLDTEXTSTYLE0
 73
     1
 44
1.0
  0
ENDBLK
  5
209
330
207
100
AcDbEntity
  8
0
100
AcDbBlockEnd
  0
BLOCK
  5
212
330
211
100
AcDbEntity
  8
0
100
AcDbBlockBegin
  2
_D_5
 70
     0
 10
0.0
 20
0.0
 30
0.0
  3
_D_5
  1

  0
SOLID
  5
214
330
211
100
AcDbEntity
  8
FORMAT
100
AcDbTrace
 10
69.8695309894
 20
175.7821019626
 30
0.0
 11
73.1715309894
 21
175.2741019626
 31
0.0
 12
73.1715309894
 22
176.2901019626
 32
0.0
 13
73.1715309894
 23
176.2901019626
 33
0.0
  0
SOLID
  5
215
330
211
100
AcDbEntity
  8
FORMAT
100
AcDbTrace
 10
103.8695309894
 20
175.7821019626
 30
0.0
 11
100.5675309894
 21
176.2901019626
 31
0.0
 12
100.5675309894
 22
175.2741019626
 32
0.0
 13
100.5675309894
 23
175.2741019626
 33
0.0
  0
LINE
  5
216
330
211
100
AcDbEntity
  8
FORMAT
100
AcDbLine
 10
69.8695309894
 20
161.7821019626
 30
0.0
 11
69.8695309894
 21
176.7821019626
 31
0.0
  0
LINE
  5
217
330
211
100
AcDbEntity
  8
FORMAT
100
AcDbLine
 10
103.8695309894
 20
167.7821019626
 30
0.0
 11
103.8695309894
 21
176.7821019626
 31
0.0
  0
LINE
  5
218
330
211
100
AcDbEntity
  8
FORMAT
100
AcDbLine
 10
69.8695309894
 20
175.7821019626
 30
0.0
 11
103.8695309894
 21
175.7821019626
 31
0.0
  0
MTEXT
  5
219
330
211
100
AcDbEntity
  8
FORMAT
100
AcDbMText
 10
84.1959199445
 20
180.2938392846
 30
0.0
 40
3.5
 41
0.0
 71
     1
 72
     1
  1
34
  7
SLDTEXTSTYLE0
 73
     1
 44
1.0
  0
ENDBLK
  5
213
330
211
100
AcDbEntity
  8
0
100
AcDbBlockEnd
  0
BLOCK
  5
21C
330
21B
100
AcDbEntity
  8
0
100
AcDbBlockBegin
  2
_D_6
 70
     0
 10
0.0
 20
0.0
 30
0.0
  3
_D_6
  1

  0
SOLID
  5
21E
330
21B
100
AcDbEntity
  8
FORMAT
100
AcDbTrace
 10
103.8695309894
 20
175.7821019626
 30
0.0
 11
107.1715309894
 21
175.2741019626
 31
0.0
 12
107.1715309894
 22
176.2901019626
 32
0.0
 13
107.1715309894
 23
176.2901019626
 33
0.0
  0
SOLID
  5
21F
330
21B
100
AcDbEntity
  8
FORMAT
100
AcDbTrace
 10
137.8695309894
 20
175.7821019626
 30
0.0
 11
134.5675309894
 21
176.2901019626
 31
0.0
 12
134.5675309894
 22
175.2741019626
 32
0.0
 13
134.5675309894
 23
175.2741019626
 33
0.0
  0
LINE
  5
220
330
21B
100
AcDbEntity
  8
FORMAT
100
AcDbLine
 10
103.8695309894
 20
167.7821019626
 30
0.0
 11
103.8695309894
 21
176.7821019626
 31
0.0
  0
LINE
  5
221
330
21B
100
AcDbEntity
  8
FORMAT
100
AcDbLine
 10
137.8695309894
 20
161.7821019626
 30
0.0
 11
137.8695309894
 21
176.7821019626
 31
0.0
  0
LINE
  5
222
330
21B
100
AcDbEntity
  8
FORMAT
100
AcDbLine
 10
103.8695309894
 20
175.7821019626
 30
0.0
 11
137.8695309894
 21
175.7821019626
 31
0.0
  0
MTEXT
  5
223
330
21B
100
AcDbEntity
  8
FORMAT
100
AcDbMText
 10
118.1959199445
 20
180.2938392846
 30
0.0
 40
3.5
 41
0.0
 71
     1
 72
     1
  1
34
  7
SLDTEXTSTYLE0
 73
     1
 44
1.0
  0
ENDBLK
  5
21D
330
21B
100
AcDbEntity
  8
0
100
AcDbBlockEnd
  0
BLOCK
  5
226
330
225
100
AcDbEntity
  8
0
100
AcDbBlockBegin
  2
_D_7
 70
     0
 10
0.0
 20
0.0
 30
0.0
  3
_D_7
  1

  0
SOLID
  5
228
330
225
100
AcDbEntity
  8
FORMAT
100
AcDbTrace
 10
137.8695309894
 20
175.7821019626
 30
0.0
 11
141.1715309894
 21
175.2741019626
 31
0.0
 12
141.1715309894
 22
176.2901019626
 32
0.0
 13
141.1715309894
 23
176.2901019626
 33
0.0
  0
SOLID
  5
229
330
225
100
AcDbEntity
  8
FORMAT
100
AcDbTrace
 10
171.8695309894
 20
175.7821019626
 30
0.0
 11
168.5675309894
 21
176.2901019626
 31
0.0
 12
168.5675309894
 22
175.2741019626
 32
0.0
 13
168.5675309894
 23
175.2741019626
 33
0.0
  0
LINE
  5
22A
330
225
100
AcDbEntity
  8
FORMAT
100
AcDbLine
 10
137.8695309894
 20
161.7821019626
 30
0.0
 11
137.8695309894
 21
176.7821019626
 31
0.0
  0
LINE
  5
22B
330
225
100
AcDbEntity
  8
FORMAT
100
AcDbLine
 10
171.8695309894
 20
167.7821019626
 30
0.0
 11
171.8695309894
 21
176.7821019626
 31
0.0
  0
LINE
  5
22C
330
225
100
AcDbEntity
  8
FORMAT
100
AcDbLine
 10
137.8695309894
 20
175.7821019626
 30
0.0
 11
171.8695309894
 21
175.7821019626
 31
0.0
  0
MTEXT
  5
22D
330
225
100
AcDbEntity
  8
FORMAT
100
AcDbMText
 10
155.1982790577
 20
180.2938392846
 30
0.0
 40
3.5
 41
0.0
 71
     1
 72
     1
  1
34
  7
SLDTEXTSTYLE0
 73
     1
 44
1.0
  0
ENDBLK
  5
227
330
225
100
AcDbEntity
  8
0
100
AcDbBlockEnd
  0
BLOCK
  5
231
330
230
100
AcDbEntity
  8
0
100
AcDbBlockBegin
  2
_D_8
 70
     0
 10
0.0
 20
0.0
 30
0.0
  3
_D_8
  1

  0
SOLID
  5
233
330
230
100
AcDbEntity
  8
FORMAT
100
AcDbTrace
 10
16.1483683727
 20
165.7821019626
 30
0.0
 11
16.6563683727
 21
169.0841019626
 31
0.0
 12
15.6403683727
 22
169.0841019626
 32
0.0
 13
15.6403683727
 23
169.0841019626
 33
0.0
  0
SOLID
  5
234
330
230
100
AcDbEntity
  8
FORMAT
100
AcDbTrace
 10
16.1483683727
 20
158.7821019626
 30
0.0
 11
15.6403683727
 21
155.4801019626
 31
0.0
 12
16.6563683727
 22
155.4801019626
 32
0.0
 13
16.6563683727
 23
155.4801019626
 33
0.0
  0
LINE
  5
235
330
230
100
AcDbEntity
  8
FORMAT
100
AcDbLine
 10
34.8695309894
 20
165.7821019626
 30
0.0
 11
15.1483683727
 21
165.7821019626
 31
0.0
  0
LINE
  5
236
330
230
100
AcDbEntity
  8
FORMAT
100
AcDbLine
 10
26.8695309894
 20
158.7821019626
 30
0.0
 11
15.1483683727
 21
158.7821019626
 31
0.0
  0
LINE
  5
237
330
230
100
AcDbEntity
  8
FORMAT
100
AcDbLine
 10
16.1483683727
 20
165.7821019626
 30
0.0
 11
16.1483683727
 21
172.1321019626
 31
0.0
  0
LINE
  5
238
330
230
100
AcDbEntity
  8
FORMAT
100
AcDbLine
 10
16.1483683727
 20
165.7821019626
 30
0.0
 11
16.1483683727
 21
158.7821019626
 31
0.0
  0
LINE
  5
239
330
230
100
AcDbEntity
  8
FORMAT
100
AcDbLine
 10
16.1483683727
 20
158.7821019626
 30
0.0
 11
16.1483683727
 21
152.4321019626
 31
0.0
  0
MTEXT
  5
23A
330
230
100
AcDbEntity
  8
FORMAT
100
AcDbMText
 10
11.6366310507
 20
160.9452964401
 30
0.0
 40
3.5
 41
0.0
 71
     1
 72
     1
  1
7
  7
SLDTEXTSTYLE0
 11
-7.044195017643634E-15
 21
1.0
 31
0.0
 73
     1
 44
1.0
  0
ENDBLK
  5
232
330
230
100
AcDbEntity
  8
0
100
AcDbBlockEnd
  0
BLOCK
  5
23D
330
23C
100
AcDbEntity
  8
0
100
AcDbBlockBegin
  2
_D_9
 70
     0
 10
0.0
 20
0.0
 30
0.0
  3
_D_9
  1

  0
SOLID
  5
23F
330
23C
100
AcDbEntity
  8
FORMAT
100
AcDbTrace
 10
87.8883618631
 20
152.7821019626
 30
0.0
 11
88.3963618631
 21
156.0841019626
 31
0.0
 12
87.3803618631
 22
156.0841019626
 32
0.0
 13
87.3803618631
 23
156.0841019626
 33
0.0
  0
SOLID
  5
240
330
23C
100
AcDbEntity
  8
FORMAT
100
AcDbTrace
 10
87.8883618631
 20
165.7821019626
 30
0.0
 11
87.3803618631
 21
162.4801019626
 31
0.0
 12
88.3963618631
 22
162.4801019626
 32
0.0
 13
88.3963618631
 23
162.4801019626
 33
0.0
  0
LINE
  5
241
330
23C
100
AcDbEntity
  8
FORMAT
100
AcDbLine
 10
78.8695309894
 20
152.7821019626
 30
0.0
 11
88.8883618631
 21
152.7821019626
 31
0.0
  0
LINE
  5
242
330
23C
100
AcDbEntity
  8
FORMAT
100
AcDbLine
 10
87.8883618631
 20
152.7821019626
 30
0.0
 11
87.8883618631
 21
165.7821019626
 31
0.0
  0
MTEXT
  5
243
330
23C
100
AcDbEntity
  8
FORMAT
100
AcDbMText
 10
83.376624541
 20
156.6084909177
 30
0.0
 40
3.5
 41
0.0
 71
     1
 72
     1
  1
13
  7
SLDTEXTSTYLE0
 11
6.123233995736766E-17
 21
1.0
 31
0.0
 73
     1
 44
1.0
  0
ENDBLK
  5
23E
330
23C
100
AcDbEntity
  8
0
100
AcDbBlockEnd
  0
BLOCK
  5
246
330
245
100
AcDbEntity
  8
0
100
AcDbBlockBegin
  2
_D_10
 70
     0
 10
0.0
 20
0.0
 30
0.0
  3
_D_10
  1

  0
SOLID
  5
248
330
245
100
AcDbEntity
  8
FORMAT
100
AcDbTrace
 10
95.6125702946
 20
165.7821019626
 30
0.0
 11
96.1205702946
 21
169.0841019626
 31
0.0
 12
95.1045702946
 22
169.0841019626
 32
0.0
 13
95.1045702946
 23
169.0841019626
 33
0.0
  0
SOLID
  5
249
330
245
100
AcDbEntity
  8
FORMAT
100
AcDbTrace
 10
95.6125702946
 20
158.7821019626
 30
0.0
 11
95.1045702946
 21
155.4801019626
 31
0.0
 12
96.1205702946
 22
155.4801019626
 32
0.0
 13
96.1205702946
 23
155.4801019626
 33
0.0
  0
LINE
  5
24A
330
245
100
AcDbEntity
  8
FORMAT
100
AcDbLine
 10
94.8695309894
 20
158.7821019626
 30
0.0
 11
94.6125702946
 21
158.7821019626
 31
0.0
  0
LINE
  5
24B
330
245
100
AcDbEntity
  8
FORMAT
100
AcDbLine
 10
95.6125702946
 20
165.7821019626
 30
0.0
 11
95.6125702946
 21
172.1321019626
 31
0.0
  0
LINE
  5
24C
330
245
100
AcDbEntity
  8
FORMAT
100
AcDbLine
 10
95.6125702946
 20
165.7821019626
 30
0.0
 11
95.6125702946
 21
158.7821019626
 31
0.0
  0
LINE
  5
24D
330
245
100
AcDbEntity
  8
FORMAT
100
AcDbLine
 10
95.6125702946
 20
158.7821019626
 30
0.0
 11
95.6125702946
 21
152.4321019626
 31
0.0
  0
MTEXT
  5
24E
330
245
100
AcDbEntity
  8
FORMAT
100
AcDbMText
 10
91.1008329726
 20
160.9452964401
 30
0.0
 40
3.5
 41
0.0
 71
     1
 72
     1
  1
7
  7
SLDTEXTSTYLE0
 11
-7.044195017643634E-15
 21
1.0
 31
0.0
 73
     1
 44
1.0
  0
ENDBLK
  5
247
330
245
100
AcDbEntity
  8
0
100
AcDbBlockEnd
  0
BLOCK
  5
252
330
251
100
AcDbEntity
  8
0
100
AcDbBlockBegin
  2
_D_11
 70
     0
 10
0.0
 20
0.0
 30
0.0
  3
_D_11
  1

  0
SOLID
  5
254
330
251
100
AcDbEntity
  8
FORMAT
100
AcDbTrace
 10
181.00853114
 20
161.5589056921
 30
0.0
 11
183.8524973727
 21
163.3119385119
 31
0.0
 12
183.1940613236
 22
164.0857071913
 32
0.0
 13
183.1940613236
 23
164.0857071913
 33
0.0
  0
LINE
  5
255
330
251
100
AcDbEntity
  8
FORMAT
100
AcDbLine
 10
181.00853114
 20
161.5589056921
 30
0.0
 11
195.8832898512
 21
174.2165353139
 31
0.0
  0
MTEXT
  5
256
330
251
100
AcDbEntity
  8
FORMAT
100
AcDbMText
 10
186.2520882633
 20
171.9280484376
 30
0.0
 40
3.5
 41
0.0
 71
     1
 72
     1
  1
R12
  7
SLDTEXTSTYLE0
 11
0.7615833458849046
 21
0.6480669774573873
 31
0.0
 73
     1
 44
1.0
  0
ENDBLK
  5
253
330
251
100
AcDbEntity
  8
0
100
AcDbBlockEnd
  0
BLOCK
  5
259
330
258
100
AcDbEntity
  8
0
100
AcDbBlockBegin
  2
_D_12
 70
     0
 10
0.0
 20
0.0
 30
0.0
  3
_D_12
  1

  0
SOLID
  5
25B
330
258
100
AcDbEntity
  8
FORMAT
100
AcDbTrace
 10
53.8695309894
 20
181.7821019626
 30
0.0
 11
57.1715309894
 21
181.2741019626
 31
0.0
 12
57.1715309894
 22
182.2901019626
 32
0.0
 13
57.1715309894
 23
182.2901019626
 33
0.0
  0
SOLID
  5
25C
330
258
100
AcDbEntity
  8
FORMAT
100
AcDbTrace
 10
103.8695309894
 20
181.7821019626
 30
0.0
 11
100.5675309894
 21
182.2901019626
 31
0.0
 12
100.5675309894
 22
181.2741019626
 32
0.0
 13
100.5675309894
 23
181.2741019626
 33
0.0
  0
LINE
  5
25D
330
258
100
AcDbEntity
  8
FORMAT
100
AcDbLine
 10
53.8695309894
 20
156.7821019626
 30
0.0
 11
53.8695309894
 21
174.2821019626
 31
0.0
  0
LINE
  5
25E
330
258
100
AcDbEntity
  8
FORMAT
100
AcDbLine
 10
53.8695309894
 20
177.2821019626
 30
0.0
 11
53.8695309894
 21
182.7821019626
 31
0.0
  0
LINE
  5
25F
330
258
100
AcDbEntity
  8
FORMAT
100
AcDbLine
 10
103.8695309894
 20
167.7821019626
 30
0.0
 11
103.8695309894
 21
182.7821019626
 31
0.0
  0
LINE
  5
260
330
258
100
AcDbEntity
  8
FORMAT
100
AcDbLine
 10
53.8695309894
 20
181.7821019626
 30
0.0
 11
103.8695309894
 21
181.7821019626
 31
0.0
  0
MTEXT
  5
261
330
258
100
AcDbEntity
  8
FORMAT
100
AcDbMText
 10
76.1959199445
 20
186.2938392846
 30
0.0
 40
3.5
 41
0.0
 71
     1
 72
     1
  1
50
  7
SLDTEXTSTYLE0
 73
     1
 44
1.0
  0
ENDBLK
  5
25A
330
258
100
AcDbEntity
  8
0
100
AcDbBlockEnd
  0
BLOCK
  5
264
330
263
100
AcDbEntity
  8
0
100
AcDbBlockBegin
  2
_D_13
 70
     0
 10
0.0
 20
0.0
 30
0.0
  3
_D_13
  1

  0
SOLID
  5
266
330
263
100
AcDbEntity
  8
FORMAT
100
AcDbTrace
 10
103.8695309894
 20
181.7821019626
 30
0.0
 11
107.1715309894
 21
181.2741019626
 31
0.0
 12
107.1715309894
 22
182.2901019626
 32
0.0
 13
107.1715309894
 23
182.2901019626
 33
0.0
  0
SOLID
  5
267
330
263
100
AcDbEntity
  8
FORMAT
100
AcDbTrace
 10
153.8695309894
 20
181.7821019626
 30
0.0
 11
150.5675309894
 21
182.2901019626
 31
0.0
 12
150.5675309894
 22
181.2741019626
 32
0.0
 13
150.5675309894
 23
181.2741019626
 33
0.0
  0
LINE
  5
268
330
263
100
AcDbEntity
  8
FORMAT
100
AcDbLine
 10
103.8695309894
 20
167.7821019626
 30
0.0
 11
103.8695309894
 21
182.7821019626
 31
0.0
  0
LINE
  5
269
330
263
100
AcDbEntity
  8
FORMAT
100
AcDbLine
 10
153.8695309894
 20
165.7821019626
 30
0.0
 11
153.8695309894
 21
174.2821019626
 31
0.0
  0
LINE
  5
26A
330
263
100
AcDbEntity
  8
FORMAT
100
AcDbLine
 10
153.8695309894
 20
177.2821019626
 30
0.0
 11
153.8695309894
 21
182.7821019626
 31
0.0
  0
LINE
  5
26B
330
263
100
AcDbEntity
  8
FORMAT
100
AcDbLine
 10
103.8695309894
 20
181.7821019626
 30
0.0
 11
153.8695309894
 21
181.7821019626
 31
0.0
  0
MTEXT
  5
26C
330
263
100
AcDbEntity
  8
FORMAT
100
AcDbMText
 10
126.1959199445
 20
186.2938392846
 30
0.0
 40
3.5
 41
0.0
 71
     1
 72
     1
  1
50
  7
SLDTEXTSTYLE0
 73
     1
 44
1.0
  0
ENDBLK
  5
265
330
263
100
AcDbEntity
  8
0
100
AcDbBlockEnd
  0
BLOCK
  5
26F
330
26E
100
AcDbEntity
  8
0
100
AcDbBlockBegin
  2
_D_14
 70
     0
 10
0.0
 20
0.0
 30
0.0
  3
_D_14
  1

  0
SOLID
  5
271
330
26E
100
AcDbEntity
  8
FORMAT
100
AcDbTrace
 10
79.5170459288
 20
165.7821019626
 30
0.0
 11
79.0090459288
 21
162.4801019626
 31
0.0
 12
80.0250459288
 22
162.4801019626
 32
0.0
 13
80.0250459288
 23
162.4801019626
 33
0.0
  0
SOLID
  5
272
330
26E
100
AcDbEntity
  8
FORMAT
100
AcDbTrace
 10
79.5170459288
 20
155.7821019626
 30
0.0
 11
80.0250459288
 21
159.0841019626
 31
0.0
 12
79.0090459288
 22
159.0841019626
 32
0.0
 13
79.0090459288
 23
159.0841019626
 33
0.0
  0
LINE
  5
273
330
26E
100
AcDbEntity
  8
FORMAT
100
AcDbLine
 10
54.8695309894
 20
155.7821019626
 30
0.0
 11
80.5170459288
 21
155.7821019626
 31
0.0
  0
LINE
  5
274
330
26E
100
AcDbEntity
  8
FORMAT
100
AcDbLine
 10
79.5170459288
 20
165.7821019626
 30
0.0
 11
79.5170459288
 21
155.7821019626
 31
0.0
  0
MTEXT
  5
275
330
26E
100
AcDbEntity
  8
FORMAT
100
AcDbMText
 10
75.0053086067
 20
158.1084909177
 30
0.0
 40
3.5
 41
0.0
 71
     1
 72
     1
  1
10
  7
SLDTEXTSTYLE0
 11
-7.044195017643634E-15
 21
1.0
 31
0.0
 73
     1
 44
1.0
  0
ENDBLK
  5
270
330
26E
100
AcDbEntity
  8
0
100
AcDbBlockEnd
  0
BLOCK
  5
278
330
277
100
AcDbEntity
  8
0
100
AcDbBlockBegin
  2
_D_15
 70
     0
 10
0.0
 20
0.0
 30
0.0
  3
_D_15
  1

  0
SOLID
  5
27A
330
277
100
AcDbEntity
  8
FORMAT
100
AcDbTrace
 10
183.8695309894
 20
189.7636364334
 30
0.0
 11
180.5675309894
 21
190.2716364334
 31
0.0
 12
180.5675309894
 22
189.2556364334
 32
0.0
 13
180.5675309894
 23
189.2556364334
 33
0.0
  0
SOLID
  5
27B
330
277
100
AcDbEntity
  8
FORMAT
100
AcDbTrace
 10
23.8695309894
 20
189.7636364334
 30
0.0
 11
27.1715309894
 21
189.2556364334
 31
0.0
 12
27.1715309894
 22
190.2716364334
 32
0.0
 13
27.1715309894
 23
190.2716364334
 33
0.0
  0
LINE
  5
27C
330
277
100
AcDbEntity
  8
FORMAT
100
AcDbLine
 10
183.8695309894
 20
154.7821019626
 30
0.0
 11
183.8695309894
 21
162.4934646079
 31
0.0
  0
LINE
  5
27D
330
277
100
AcDbEntity
  8
FORMAT
100
AcDbLine
 10
183.8695309894
 20
167.8273292411
 30
0.0
 11
183.8695309894
 21
173.736874684
 31
0.0
  0
LINE
  5
27E
330
277
100
AcDbEntity
  8
FORMAT
100
AcDbLine
 10
183.8695309894
 20
176.736874684
 30
0.0
 11
183.8695309894
 21
190.7636364334
 31
0.0
  0
LINE
  5
27F
330
277
100
AcDbEntity
  8
FORMAT
100
AcDbLine
 10
23.8695309894
 20
154.7821019626
 30
0.0
 11
23.8695309894
 21
157.2821019626
 31
0.0
  0
LINE
  5
280
330
277
100
AcDbEntity
  8
FORMAT
100
AcDbLine
 10
23.8695309894
 20
160.2821019626
 30
0.0
 11
23.8695309894
 21
164.2821019626
 31
0.0
  0
LINE
  5
281
330
277
100
AcDbEntity
  8
FORMAT
100
AcDbLine
 10
23.8695309894
 20
167.2821019626
 30
0.0
 11
23.8695309894
 21
190.7636364334
 31
0.0
  0
LINE
  5
282
330
277
100
AcDbEntity
  8
FORMAT
100
AcDbLine
 10
183.8695309894
 20
189.7636364334
 30
0.0
 11
23.8695309894
 21
189.7636364334
 31
0.0
  0
MTEXT
  5
283
330
277
100
AcDbEntity
  8
FORMAT
100
AcDbMText
 10
99.8591144221
 20
194.2753737555
 30
0.0
 40
3.5
 41
0.0
 71
     1
 72
     1
  1
160
  7
SLDTEXTSTYLE0
 73
     1
 44
1.0
  0
ENDBLK
  5
279
330
277
100
AcDbEntity
  8
0
100
AcDbBlockEnd
  0
BLOCK
  5
286
330
285
100
AcDbEntity
  8
0
100
AcDbBlockBegin
  2
SW_CENTERMARKSYMBOL_0
 70
     0
 10
0.0
 20
0.0
 30
0.0
  3
SW_CENTERMARKSYMBOL_0
  1

  0
LINE
  5
288
330
285
100
AcDbEntity
  8
FORMAT
 62
     0
100
AcDbLine
 10
0.0
 20
0.0
 30
0.0
 11
0.0
 21
2.5
 31
0.0
  0
LINE
  5
289
330
285
100
AcDbEntity
  8
FORMAT
 62
     0
100
AcDbLine
 10
0.0
 20
0.0
 30
0.0
 11
-2.5
 21
0.0
 31
0.0
  0
LINE
  5
28A
330
285
100
AcDbEntity
  8
FORMAT
 62
     0
100
AcDbLine
 10
0.0
 20
0.0
 30
0.0
 11
0.0
 21
-2.5
 31
0.0
  0
LINE
  5
28B
330
285
100
AcDbEntity
  8
FORMAT
 62
     0
100
AcDbLine
 10
0.0
 20
0.0
 30
0.0
 11
2.5
 21
0.0
 31
0.0
  0
LINE
  5
28C
330
285
100
AcDbEntity
  8
FORMAT
 62
     0
100
AcDbLine
 10
0.0
 20
5.0
 30
0.0
 11
0.0
 21
8.0
 31
0.0
  0
LINE
  5
28D
330
285
100
AcDbEntity
  8
FORMAT
 62
     0
100
AcDbLine
 10
-5.0
 20
0.0
 30
0.0
 11
-8.0
 21
0.0
 31
0.0
  0
LINE
  5
28E
330
285
100
AcDbEntity
  8
FORMAT
 62
     0
100
AcDbLine
 10
0.0
 20
-5.0
 30
0.0
 11
0.0
 21
-8.0
 31
0.0
  0
LINE
  5
28F
330
285
100
AcDbEntity
  8
FORMAT
 62
     0
100
AcDbLine
 10
5.0
 20
0.0
 30
0.0
 11
8.0
 21
0.0
 31
0.0
  0
ENDBLK
  5
287
330
285
100
AcDbEntity
  8
0
100
AcDbBlockEnd
  0
BLOCK
  5
292
330
291
100
AcDbEntity
  8
0
100
AcDbBlockBegin
  2
SW_CENTERMARKSYMBOL_1
 70
     0
 10
0.0
 20
0.0
 30
0.0
  3
SW_CENTERMARKSYMBOL_1
  1

  0
LINE
  5
294
330
291
100
AcDbEntity
  8
FORMAT
 62
     0
100
AcDbLine
 10
0.0
 20
0.0
 30
0.0
 11
0.0
 21
2.5
 31
0.0
  0
LINE
  5
295
330
291
100
AcDbEntity
  8
FORMAT
 62
     0
100
AcDbLine
 10
0.0
 20
0.0
 30
0.0
 11
-2.5
 21
0.0
 31
0.0
  0
LINE
  5
296
330
291
100
AcDbEntity
  8
FORMAT
 62
     0
100
AcDbLine
 10
0.0
 20
0.0
 30
0.0
 11
0.0
 21
-2.5
 31
0.0
  0
LINE
  5
297
330
291
100
AcDbEntity
  8
FORMAT
 62
     0
100
AcDbLine
 10
0.0
 20
0.0
 30
0.0
 11
2.5
 21
0.0
 31
0.0
  0
LINE
  5
298
330
291
100
AcDbEntity
  8
FORMAT
 62
     0
100
AcDbLine
 10
0.0
 20
5.0
 30
0.0
 11
0.0
 21
8.0
 31
0.0
  0
LINE
  5
299
330
291
100
AcDbEntity
  8
FORMAT
 62
     0
100
AcDbLine
 10
-5.0
 20
0.0
 30
0.0
 11
-8.0
 21
0.0
 31
0.0
  0
LINE
  5
29A
330
291
100
AcDbEntity
  8
FORMAT
 62
     0
100
AcDbLine
 10
0.0
 20
-5.0
 30
0.0
 11
0.0
 21
-8.0
 31
0.0
  0
LINE
  5
29B
330
291
100
AcDbEntity
  8
FORMAT
 62
     0
100
AcDbLine
 10
5.0
 20
0.0
 30
0.0
 11
8.0
 21
0.0
 31
0.0
  0
ENDBLK
  5
293
330
291
100
AcDbEntity
  8
0
100
AcDbBlockEnd
  0
BLOCK
  5
29E
330
29D
100
AcDbEntity
  8
0
100
AcDbBlockBegin
  2
SW_CENTERMARKSYMBOL_2
 70
     0
 10
0.0
 20
0.0
 30
0.0
  3
SW_CENTERMARKSYMBOL_2
  1

  0
LINE
  5
2A0
330
29D
100
AcDbEntity
  8
FORMAT
 62
     0
100
AcDbLine
 10
0.0
 20
0.0
 30
0.0
 11
0.0
 21
2.5
 31
0.0
  0
LINE
  5
2A1
330
29D
100
AcDbEntity
  8
FORMAT
 62
     0
100
AcDbLine
 10
0.0
 20
0.0
 30
0.0
 11
-2.5
 21
0.0
 31
0.0
  0
LINE
  5
2A2
330
29D
100
AcDbEntity
  8
FORMAT
 62
     0
100
AcDbLine
 10
0.0
 20
0.0
 30
0.0
 11
0.0
 21
-2.5
 31
0.0
  0
LINE
  5
2A3
330
29D
100
AcDbEntity
  8
FORMAT
 62
     0
100
AcDbLine
 10
0.0
 20
0.0
 30
0.0
 11
2.5
 21
0.0
 31
0.0
  0
LINE
  5
2A4
330
29D
100
AcDbEntity
  8
FORMAT
 62
     0
100
AcDbLine
 10
0.0
 20
5.0
 30
0.0
 11
0.0
 21
8.0
 31
0.0
  0
LINE
  5
2A5
330
29D
100
AcDbEntity
  8
FORMAT
 62
     0
100
AcDbLine
 10
-5.0
 20
0.0
 30
0.0
 11
-8.0
 21
0.0
 31
0.0
  0
LINE
  5
2A6
330
29D
100
AcDbEntity
  8
FORMAT
 62
     0
100
AcDbLine
 10
0.0
 20
-5.0
 30
0.0
 11
0.0
 21
-8.0
 31
0.0
  0
LINE
  5
2A7
330
29D
100
AcDbEntity
  8
FORMAT
 62
     0
100
AcDbLine
 10
5.0
 20
0.0
 30
0.0
 11
8.0
 21
0.0
 31
0.0
  0
ENDBLK
  5
29F
330
29D
100
AcDbEntity
  8
0
100
AcDbBlockEnd
  0
BLOCK
  5
2AA
330
2A9
100
AcDbEntity
  8
0
100
AcDbBlockBegin
  2
SW_CENTERMARKSYMBOL_3
 70
     0
 10
0.0
 20
0.0
 30
0.0
  3
SW_CENTERMARKSYMBOL_3
  1

  0
LINE
  5
2AC
330
2A9
100
AcDbEntity
  8
FORMAT
 62
     0
100
AcDbLine
 10
0.0
 20
0.0
 30
0.0
 11
0.0
 21
2.5
 31
0.0
  0
LINE
  5
2AD
330
2A9
100
AcDbEntity
  8
FORMAT
 62
     0
100
AcDbLine
 10
0.0
 20
0.0
 30
0.0
 11
-2.5
 21
0.0
 31
0.0
  0
LINE
  5
2AE
330
2A9
100
AcDbEntity
  8
FORMAT
 62
     0
100
AcDbLine
 10
0.0
 20
0.0
 30
0.0
 11
0.0
 21
-2.5
 31
0.0
  0
LINE
  5
2AF
330
2A9
100
AcDbEntity
  8
FORMAT
 62
     0
100
AcDbLine
 10
0.0
 20
0.0
 30
0.0
 11
2.5
 21
0.0
 31
0.0
  0
LINE
  5
2B0
330
2A9
100
AcDbEntity
  8
FORMAT
 62
     0
100
AcDbLine
 10
0.0
 20
5.0
 30
0.0
 11
0.0
 21
8.0
 31
0.0
  0
LINE
  5
2B1
330
2A9
100
AcDbEntity
  8
FORMAT
 62
     0
100
AcDbLine
 10
-5.0
 20
0.0
 30
0.0
 11
-8.0
 21
0.0
 31
0.0
  0
LINE
  5
2B2
330
2A9
100
AcDbEntity
  8
FORMAT
 62
     0
100
AcDbLine
 10
0.0
 20
-5.0
 30
0.0
 11
0.0
 21
-8.0
 31
0.0
  0
LINE
  5
2B3
330
2A9
100
AcDbEntity
  8
FORMAT
 62
     0
100
AcDbLine
 10
5.0
 20
0.0
 30
0.0
 11
8.0
 21
0.0
 31
0.0
  0
ENDBLK
  5
2AB
330
2A9
100
AcDbEntity
  8
0
100
AcDbBlockEnd
  0
BLOCK
  5
2B6
330
2B5
100
AcDbEntity
  8
0
100
AcDbBlockBegin
  2
SW_CENTERMARKSYMBOL_4
 70
     0
 10
0.0
 20
0.0
 30
0.0
  3
SW_CENTERMARKSYMBOL_4
  1

  0
LINE
  5
2B8
330
2B5
100
AcDbEntity
  8
FORMAT
 62
     0
100
AcDbLine
 10
0.0
 20
0.0
 30
0.0
 11
0.0
 21
2.5
 31
0.0
  0
LINE
  5
2B9
330
2B5
100
AcDbEntity
  8
FORMAT
 62
     0
100
AcDbLine
 10
0.0
 20
0.0
 30
0.0
 11
-2.5
 21
0.0
 31
0.0
  0
LINE
  5
2BA
330
2B5
100
AcDbEntity
  8
FORMAT
 62
     0
100
AcDbLine
 10
0.0
 20
0.0
 30
0.0
 11
0.0
 21
-2.5
 31
0.0
  0
LINE
  5
2BB
330
2B5
100
AcDbEntity
  8
FORMAT
 62
     0
100
AcDbLine
 10
0.0
 20
0.0
 30
0.0
 11
2.5
 21
0.0
 31
0.0
  0
LINE
  5
2BC
330
2B5
100
AcDbEntity
  8
FORMAT
 62
     0
100
AcDbLine
 10
0.0
 20
5.0
 30
0.0
 11
0.0
 21
8.0
 31
0.0
  0
LINE
  5
2BD
330
2B5
100
AcDbEntity
  8
FORMAT
 62
     0
100
AcDbLine
 10
-5.0
 20
0.0
 30
0.0
 11
-8.0
 21
0.0
 31
0.0
  0
LINE
  5
2BE
330
2B5
100
AcDbEntity
  8
FORMAT
 62
     0
100
AcDbLine
 10
0.0
 20
-5.0
 30
0.0
 11
0.0
 21
-8.0
 31
0.0
  0
LINE
  5
2BF
330
2B5
100
AcDbEntity
  8
FORMAT
 62
     0
100
AcDbLine
 10
5.0
 20
0.0
 30
0.0
 11
8.0
 21
0.0
 31
0.0
  0
ENDBLK
  5
2B7
330
2B5
100
AcDbEntity
  8
0
100
AcDbBlockEnd
  0
BLOCK
  5
2C2
330
2C1
100
AcDbEntity
  8
0
100
AcDbBlockBegin
  2
SW_CENTERMARKSYMBOL_5
 70
     0
 10
0.0
 20
0.0
 30
0.0
  3
SW_CENTERMARKSYMBOL_5
  1

  0
LINE
  5
2C4
330
2C1
100
AcDbEntity
  8
FORMAT
 62
     0
100
AcDbLine
 10
0.0
 20
0.0
 30
0.0
 11
0.0
 21
2.5
 31
0.0
  0
LINE
  5
2C5
330
2C1
100
AcDbEntity
  8
FORMAT
 62
     0
100
AcDbLine
 10
0.0
 20
0.0
 30
0.0
 11
-2.5
 21
0.0
 31
0.0
  0
LINE
  5
2C6
330
2C1
100
AcDbEntity
  8
FORMAT
 62
     0
100
AcDbLine
 10
0.0
 20
0.0
 30
0.0
 11
0.0
 21
-2.5
 31
0.0
  0
LINE
  5
2C7
330
2C1
100
AcDbEntity
  8
FORMAT
 62
     0
100
AcDbLine
 10
0.0
 20
0.0
 30
0.0
 11
2.5
 21
0.0
 31
0.0
  0
LINE
  5
2C8
330
2C1
100
AcDbEntity
  8
FORMAT
 62
     0
100
AcDbLine
 10
0.0
 20
5.0
 30
0.0
 11
0.0
 21
9.0
 31
0.0
  0
LINE
  5
2C9
330
2C1
100
AcDbEntity
  8
FORMAT
 62
     0
100
AcDbLine
 10
-5.0
 20
0.0
 30
0.0
 11
-9.0
 21
0.0
 31
0.0
  0
LINE
  5
2CA
330
2C1
100
AcDbEntity
  8
FORMAT
 62
     0
100
AcDbLine
 10
0.0
 20
-5.0
 30
0.0
 11
0.0
 21
-9.0
 31
0.0
  0
LINE
  5
2CB
330
2C1
100
AcDbEntity
  8
FORMAT
 62
     0
100
AcDbLine
 10
5.0
 20
0.0
 30
0.0
 11
9.0
 21
0.0
 31
0.0
  0
ENDBLK
  5
2C3
330
2C1
100
AcDbEntity
  8
0
100
AcDbBlockEnd
  0
BLOCK
  5
2CE
330
2CD
100
AcDbEntity
  8
0
100
AcDbBlockBegin
  2
SW_CENTERMARKSYMBOL_6
 70
     0
 10
0.0
 20
0.0
 30
0.0
  3
SW_CENTERMARKSYMBOL_6
  1

  0
LINE
  5
2D0
330
2CD
100
AcDbEntity
  8
FORMAT
 62
     0
100
AcDbLine
 10
0.0
 20
0.0
 30
0.0
 11
0.0
 21
2.5
 31
0.0
  0
LINE
  5
2D1
330
2CD
100
AcDbEntity
  8
FORMAT
 62
     0
100
AcDbLine
 10
0.0
 20
0.0
 30
0.0
 11
-2.5
 21
0.0
 31
0.0
  0
LINE
  5
2D2
330
2CD
100
AcDbEntity
  8
FORMAT
 62
     0
100
AcDbLine
 10
0.0
 20
0.0
 30
0.0
 11
0.0
 21
-2.5
 31
0.0
  0
LINE
  5
2D3
330
2CD
100
AcDbEntity
  8
FORMAT
 62
     0
100
AcDbLine
 10
0.0
 20
0.0
 30
0.0
 11
2.5
 21
0.0
 31
0.0
  0
LINE
  5
2D4
330
2CD
100
AcDbEntity
  8
FORMAT
 62
     0
100
AcDbLine
 10
0.0
 20
5.0
 30
0.0
 11
0.0
 21
9.0
 31
0.0
  0
LINE
  5
2D5
330
2CD
100
AcDbEntity
  8
FORMAT
 62
     0
100
AcDbLine
 10
-5.0
 20
0.0
 30
0.0
 11
-9.0
 21
0.0
 31
0.0
  0
LINE
  5
2D6
330
2CD
100
AcDbEntity
  8
FORMAT
 62
     0
100
AcDbLine
 10
0.0
 20
-5.0
 30
0.0
 11
0.0
 21
-9.0
 31
0.0
  0
LINE
  5
2D7
330
2CD
100
AcDbEntity
  8
FORMAT
 62
     0
100
AcDbLine
 10
5.0
 20
0.0
 30
0.0
 11
9.0
 21
0.0
 31
0.0
  0
ENDBLK
  5
2CF
330
2CD
100
AcDbEntity
  8
0
100
AcDbBlockEnd
  0
BLOCK
  5
322
330
321
100
AcDbEntity
  8
0
100
AcDbBlockBegin
  2
_D_16
 70
     0
 10
0.0
 20
0.0
 30
0.0
  3
_D_16
  1

  0
SOLID
  5
324
330
321
100
AcDbEntity
  8
FORMAT
100
AcDbTrace
 10
235.4867513749
 20
165.7821019432
 30
0.0
 11
234.9787513749
 21
162.4801019432
 31
0.0
 12
235.9947513749
 22
162.4801019432
 32
0.0
 13
235.9947513749
 23
162.4801019432
 33
0.0
  0
SOLID
  5
325
330
321
100
AcDbEntity
  8
FORMAT
100
AcDbTrace
 10
235.4867513749
 20
141.7821019626
 30
0.0
 11
235.9947513749
 21
145.0841019626
 31
0.0
 12
234.9787513749
 22
145.0841019626
 32
0.0
 13
234.9787513749
 23
145.0841019626
 33
0.0
  0
LINE
  5
326
330
321
100
AcDbEntity
  8
FORMAT
100
AcDbLine
 10
247.7386541768
 20
165.7821019432
 30
0.0
 11
242.9082408253
 21
165.7821019432
 31
0.0
  0
LINE
  5
327
330
321
100
AcDbEntity
  8
FORMAT
100
AcDbLine
 10
239.9082408253
 20
165.7821019432
 30
0.0
 11
234.4867513749
 21
165.7821019432
 31
0.0
  0
LINE
  5
328
330
321
100
AcDbEntity
  8
FORMAT
100
AcDbLine
 10
250.2185572177
 20
141.7821019626
 30
0.0
 11
234.4867513749
 21
141.7821019626
 31
0.0
  0
LINE
  5
329
330
321
100
AcDbEntity
  8
FORMAT
100
AcDbLine
 10
235.4867513749
 20
165.7821019432
 30
0.0
 11
235.4867513749
 21
141.7821019626
 31
0.0
  0
MTEXT
  5
32A
330
321
100
AcDbEntity
  8
FORMAT
100
AcDbMText
 10
230.9750140528
 20
151.108490908
 30
0.0
 40
3.5
 41
0.0
 71
     1
 72
     1
  1
24
  7
SLDTEXTSTYLE0
 11
-7.044195017643634E-15
 21
1.0
 31
0.0
 73
     1
 44
1.0
  0
ENDBLK
  5
323
330
321
100
AcDbEntity
  8
0
100
AcDbBlockEnd
  0
BLOCK
  5
32D
330
32C
100
AcDbEntity
  8
0
100
AcDbBlockBegin
  2
_D_17
 70
     0
 10
0.0
 20
0.0
 30
0.0
  3
_D_17
  1

  0
SOLID
  5
32F
330
32C
100
AcDbEntity
  8
FORMAT
100
AcDbTrace
 10
260.2813842715
 20
164.2821019626
 30
0.0
 11
259.7733842715
 21
160.9801019626
 31
0.0
 12
260.7893842715
 22
160.9801019626
 32
0.0
 13
260.7893842715
 23
160.9801019626
 33
0.0
  0
SOLID
  5
330
330
32C
100
AcDbEntity
  8
FORMAT
100
AcDbTrace
 10
260.2813842715
 20
153.2821019626
 30
0.0
 11
260.7893842715
 21
156.5841019626
 31
0.0
 12
259.7733842715
 22
156.5841019626
 32
0.0
 13
259.7733842715
 23
156.5841019626
 33
0.0
  0
LINE
  5
331
330
32C
100
AcDbEntity
  8
FORMAT
100
AcDbLine
 10
251.7185572177
 20
164.2821019626
 30
0.0
 11
261.2813842715
 21
164.2821019626
 31
0.0
  0
LINE
  5
332
330
32C
100
AcDbEntity
  8
FORMAT
100
AcDbLine
 10
251.7185572177
 20
153.2821019626
 30
0.0
 11
261.2813842715
 21
153.2821019626
 31
0.0
  0
LINE
  5
333
330
32C
100
AcDbEntity
  8
FORMAT
100
AcDbLine
 10
260.2813842715
 20
164.2821019626
 30
0.0
 11
260.2813842715
 21
153.2821019626
 31
0.0
  0
MTEXT
  5
334
330
32C
100
AcDbEntity
  8
FORMAT
100
AcDbMText
 10
255.7696471823
 20
153.5570153779
 30
0.0
 40
3.5
 41
0.0
 71
     1
 72
     1
  1
%%c
  7
SLDTEXTSTYLE0
 11
-7.044195017643634E-15
 21
1.0
 31
0.0
 73
     1
 44
1.0
  0
MTEXT
  5
335
330
32C
100
AcDbEntity
  8
FORMAT
100
AcDbMText
 10
255.7599248731
 20
158.6599669232
 30
0.0
 40
3.5
 41
0.0
 71
     1
 72
     1
  1
11
  7
SLDTEXTSTYLE0
 11
-7.044195017643634E-15
 21
1.0
 31
0.0
 73
     1
 44
1.0
  0
ENDBLK
  5
32E
330
32C
100
AcDbEntity
  8
0
100
AcDbBlockEnd
  0
BLOCK
  5
339
330
338
100
AcDbEntity
  8
0
100
AcDbBlockBegin
  2
_D_18
 70
     0
 10
0.0
 20
0.0
 30
0.0
  3
_D_18
  1

  0
ARC
  5
33B
330
338
100
AcDbEntity
  8
FORMAT
100
AcDbCircle
 10
245.2185572177
 20
158.7821019626
 30
0.0
 40
21.91334150965984
100
AcDbArc
 50
315.0
 51
45.0
  0
SOLID
  5
33C
330
338
100
AcDbEntity
  8
FORMAT
100
AcDbTrace
 10
260.7136295976
 20
143.2870295826
 30
0.0
 11
263.2525760985
 21
145.4584389558
 31
0.0
 12
262.4824902059
 22
146.1211785111
 32
0.0
 13
262.4824902059
 23
146.1211785111
 33
0.0
  0
SOLID
  5
33D
330
338
100
AcDbEntity
  8
FORMAT
100
AcDbTrace
 10
260.7136295976
 20
174.2771743425
 30
0.0
 11
262.4824902059
 21
171.4430254141
 31
0.0
 12
263.2525760985
 22
172.1057649693
 32
0.0
 13
263.2525760985
 23
172.1057649693
 33
0.0
  0
LINE
  5
33E
330
338
100
AcDbEntity
  8
FORMAT
100
AcDbLine
 10
251.4256639989
 20
152.5749951814
 30
0.0
 11
261.4207363788
 21
142.5799228015
 31
0.0
  0
LINE
  5
33F
330
338
100
AcDbEntity
  8
FORMAT
100
AcDbLine
 10
251.4256639989
 20
164.9892087438
 30
0.0
 11
261.4207363788
 21
174.9842811237
 31
0.0
  0
MTEXT
  5
340
330
338
100
AcDbEntity
  8
FORMAT
100
AcDbMText
 10
262.6201614053
 20
155.1459909229
 30
0.0
 40
3.5
 41
0.0
 71
     1
 72
     1
  1
90°
  7
SLDTEXTSTYLE0
 11
-3.935570548693196E-15
 21
1.0
 31
0.0
 73
     1
 44
1.0
  0
ENDBLK
  5
33A
330
338
100
AcDbEntity
  8
0
100
AcDbBlockEnd
  0
BLOCK
  5
343
330
342
100
AcDbEntity
  8
0
100
AcDbBlockBegin
  2
_D_19
 70
     0
 10
0.0
 20
0.0
 30
0.0
  3
_D_19
  1

  0
SOLID
  5
345
330
342
100
AcDbEntity
  8
FORMAT
100
AcDbTrace
 10
241.4082408253
 20
162.0321019626
 30
0.0
 11
241.9162408253
 21
165.3341019626
 31
0.0
 12
240.9002408253
 22
165.3341019626
 32
0.0
 13
240.9002408253
 23
165.3341019626
 33
0.0
  0
SOLID
  5
346
330
342
100
AcDbEntity
  8
FORMAT
100
AcDbTrace
 10
241.4082408253
 20
155.5321019626
 30
0.0
 11
240.9002408253
 21
152.2301019626
 31
0.0
 12
241.9162408253
 22
152.2301019626
 32
0.0
 13
241.9162408253
 23
152.2301019626
 33
0.0
  0
LINE
  5
347
330
342
100
AcDbEntity
  8
FORMAT
100
AcDbLine
 10
246.7185572177
 20
162.0321019626
 30
0.0
 11
240.4082408253
 21
162.0321019626
 31
0.0
  0
LINE
  5
348
330
342
100
AcDbEntity
  8
FORMAT
100
AcDbLine
 10
246.7185572177
 20
155.5321019626
 30
0.0
 11
240.4082408253
 21
155.5321019626
 31
0.0
  0
LINE
  5
349
330
342
100
AcDbEntity
  8
FORMAT
100
AcDbLine
 10
241.4082408253
 20
162.0321019626
 30
0.0
 11
241.4082408253
 21
178.076550119
 31
0.0
  0
LINE
  5
34A
330
342
100
AcDbEntity
  8
FORMAT
100
AcDbLine
 10
241.4082408253
 20
162.0321019626
 30
0.0
 11
241.4082408253
 21
155.5321019626
 31
0.0
  0
LINE
  5
34B
330
342
100
AcDbEntity
  8
FORMAT
100
AcDbLine
 10
241.4082408253
 20
155.5321019626
 30
0.0
 11
241.4082408253
 21
149.1821019626
 31
0.0
  0
MTEXT
  5
34C
330
342
100
AcDbEntity
  8
FORMAT
100
AcDbMText
 10
236.8965037361
 20
166.2895714271
 30
0.0
 40
3.5
 41
0.0
 71
     1
 72
     1
  1
%%c
  7
SLDTEXTSTYLE0
 11
-7.044195017643634E-15
 21
1.0
 31
0.0
 73
     1
 44
1.0
  0
MTEXT
  5
34D
330
342
100
AcDbEntity
  8
FORMAT
100
AcDbMText
 10
236.8867814269
 20
171.3925229724
 30
0.0
 40
3.5
 41
0.0
 71
     1
 72
     1
  1
6,5
  7
SLDTEXTSTYLE0
 11
-7.044195017643634E-15
 21
1.0
 31
0.0
 73
     1
 44
1.0
  0
ENDBLK
  5
344
330
342
100
AcDbEntity
  8
0
100
AcDbBlockEnd
  0
BLOCK
  5
34F
330
34E
100
AcDbEntity
  8
0
100
AcDbBlockBegin
  2
SW_CENTERMARKSYMBOL_7
 70
     0
 10
0.0
 20
0.0
 30
0.0
  3
SW_CENTERMARKSYMBOL_7
  1

  0
LINE
  5
351
330
34E
100
AcDbEntity
  8
FORMAT
 62
     0
100
AcDbLine
 10
0.0
 20
0.0
 30
0.0
 11
0.0
 21
2.5
 31
0.0
  0
LINE
  5
352
330
34E
100
AcDbEntity
  8
FORMAT
 62
     0
100
AcDbLine
 10
0.0
 20
0.0
 30
0.0
 11
-2.5
 21
0.0
 31
0.0
  0
LINE
  5
353
330
34E
100
AcDbEntity
  8
FORMAT
 62
     0
100
AcDbLine
 10
0.0
 20
0.0
 30
0.0
 11
0.0
 21
-2.5
 31
0.0
  0
LINE
  5
354
330
34E
100
AcDbEntity
  8
FORMAT
 62
     0
100
AcDbLine
 10
0.0
 20
0.0
 30
0.0
 11
2.5
 21
0.0
 31
0.0
  0
LINE
  5
355
330
34E
100
AcDbEntity
  8
FORMAT
 62
     0
100
AcDbLine
 10
0.0
 20
5.0
 30
0.0
 11
0.0
 21
11.3
 31
0.0
  0
LINE
  5
356
330
34E
100
AcDbEntity
  8
FORMAT
 62
     0
100
AcDbLine
 10
-5.0
 20
0.0
 30
0.0
 11
-11.3
 21
0.0
 31
0.0
  0
LINE
  5
357
330
34E
100
AcDbEntity
  8
FORMAT
 62
     0
100
AcDbLine
 10
0.0
 20
-5.0
 30
0.0
 11
0.0
 21
-11.3
 31
0.0
  0
LINE
  5
358
330
34E
100
AcDbEntity
  8
FORMAT
 62
     0
100
AcDbLine
 10
5.0
 20
0.0
 30
0.0
 11
11.3
 21
0.0
 31
0.0
  0
ENDBLK
  5
350
330
34E
100
AcDbEntity
  8
0
100
AcDbBlockEnd
  0
BLOCK
  5
396
330
395
100
AcDbEntity
  8
0
100
AcDbBlockBegin
  2
_D_20
 70
     0
 10
0.0
 20
0.0
 30
0.0
  3
_D_20
  1

  0
SOLID
  5
398
330
395
100
AcDbEntity
  8
FORMAT
100
AcDbTrace
 10
247.7185572177
 20
114.058780322
 30
0.0
 11
244.4165572177
 21
114.566780322
 31
0.0
 12
244.4165572177
 22
113.550780322
 32
0.0
 13
244.4165572177
 23
113.550780322
 33
0.0
  0
SOLID
  5
399
330
395
100
AcDbEntity
  8
FORMAT
100
AcDbTrace
 10
250.7185572177
 20
114.058780322
 30
0.0
 11
254.0205572177
 21
113.550780322
 31
0.0
 12
254.0205572177
 22
114.566780322
 32
0.0
 13
254.0205572177
 23
114.566780322
 33
0.0
  0
LINE
  5
39A
330
395
100
AcDbEntity
  8
FORMAT
100
AcDbLine
 10
247.7185572177
 20
97.5587803221
 30
0.0
 11
247.7185572177
 21
115.058780322
 31
0.0
  0
LINE
  5
39B
330
395
100
AcDbEntity
  8
FORMAT
100
AcDbLine
 10
250.7185572177
 20
97.5587803221
 30
0.0
 11
250.7185572177
 21
115.058780322
 31
0.0
  0
LINE
  5
39C
330
395
100
AcDbEntity
  8
FORMAT
100
AcDbLine
 10
247.7185572177
 20
114.058780322
 30
0.0
 11
240.3150267936
 21
114.058780322
 31
0.0
  0
LINE
  5
39D
330
395
100
AcDbEntity
  8
FORMAT
100
AcDbLine
 10
247.7185572177
 20
114.058780322
 30
0.0
 11
250.7185572177
 21
114.058780322
 31
0.0
  0
LINE
  5
39E
330
395
100
AcDbEntity
  8
FORMAT
100
AcDbLine
 10
250.7185572177
 20
114.058780322
 30
0.0
 11
257.0685572177
 21
114.058780322
 31
0.0
  0
MTEXT
  5
39F
330
395
100
AcDbEntity
  8
FORMAT
100
AcDbMText
 10
240.3150267936
 20
118.5705176441
 30
0.0
 40
3.5
 41
0.0
 71
     1
 72
     1
  1
3
  7
SLDTEXTSTYLE0
 73
     1
 44
1.0
  0
ENDBLK
  5
397
330
395
100
AcDbEntity
  8
0
100
AcDbBlockEnd
  0
BLOCK
  5
3A2
330
3A1
100
AcDbEntity
  8
0
100
AcDbBlockBegin
  2
_D_21
 70
     0
 10
0.0
 20
0.0
 30
0.0
  3
_D_21
  1

  0
SOLID
  5
3A4
330
3A1
100
AcDbEntity
  8
FORMAT
100
AcDbTrace
 10
264.7185572177
 20
114.058780322
 30
0.0
 11
261.4165572177
 21
114.566780322
 31
0.0
 12
261.4165572177
 22
113.550780322
 32
0.0
 13
261.4165572177
 23
113.550780322
 33
0.0
  0
SOLID
  5
3A5
330
3A1
100
AcDbEntity
  8
FORMAT
100
AcDbTrace
 10
267.7185572177
 20
114.058780322
 30
0.0
 11
271.0205572177
 21
113.550780322
 31
0.0
 12
271.0205572177
 22
114.566780322
 32
0.0
 13
271.0205572177
 23
114.566780322
 33
0.0
  0
LINE
  5
3A6
330
3A1
100
AcDbEntity
  8
FORMAT
100
AcDbLine
 10
264.7185572177
 20
105.058780322
 30
0.0
 11
264.7185572177
 21
115.058780322
 31
0.0
  0
LINE
  5
3A7
330
3A1
100
AcDbEntity
  8
FORMAT
100
AcDbLine
 10
267.7185572177
 20
105.058780322
 30
0.0
 11
267.7185572177
 21
115.058780322
 31
0.0
  0
LINE
  5
3A8
330
3A1
100
AcDbEntity
  8
FORMAT
100
AcDbLine
 10
264.7185572177
 20
114.058780322
 30
0.0
 11
258.3685572177
 21
114.058780322
 31
0.0
  0
LINE
  5
3A9
330
3A1
100
AcDbEntity
  8
FORMAT
100
AcDbLine
 10
264.7185572177
 20
114.058780322
 30
0.0
 11
267.7185572177
 21
114.058780322
 31
0.0
  0
LINE
  5
3AA
330
3A1
100
AcDbEntity
  8
FORMAT
100
AcDbLine
 10
267.7185572177
 20
114.058780322
 30
0.0
 11
275.6120364556
 21
114.058780322
 31
0.0
  0
MTEXT
  5
3AB
330
3A1
100
AcDbEntity
  8
FORMAT
100
AcDbMText
 10
272.9384254107
 20
118.5705176441
 30
0.0
 40
3.5
 41
0.0
 71
     1
 72
     1
  1
3
  7
SLDTEXTSTYLE0
 73
     1
 44
1.0
  0
ENDBLK
  5
3A3
330
3A1
100
AcDbEntity
  8
0
100
AcDbBlockEnd
  0
BLOCK
  5
3AE
330
3AD
100
AcDbEntity
  8
0
100
AcDbBlockBegin
  2
_D_22
 70
     0
 10
0.0
 20
0.0
 30
0.0
  3
_D_22
  1

  0
SOLID
  5
3B0
330
3AD
100
AcDbEntity
  8
FORMAT
100
AcDbTrace
 10
250.7185572177
 20
120.058780322
 30
0.0
 11
254.0205572177
 21
119.550780322
 31
0.0
 12
254.0205572177
 22
120.566780322
 32
0.0
 13
254.0205572177
 23
120.566780322
 33
0.0
  0
SOLID
  5
3B1
330
3AD
100
AcDbEntity
  8
FORMAT
100
AcDbTrace
 10
264.7185572177
 20
120.058780322
 30
0.0
 11
261.4165572177
 21
120.566780322
 31
0.0
 12
261.4165572177
 22
119.550780322
 32
0.0
 13
261.4165572177
 23
119.550780322
 33
0.0
  0
LINE
  5
3B2
330
3AD
100
AcDbEntity
  8
FORMAT
100
AcDbLine
 10
250.7185572177
 20
97.5587803221
 30
0.0
 11
250.7185572177
 21
121.058780322
 31
0.0
  0
LINE
  5
3B3
330
3AD
100
AcDbEntity
  8
FORMAT
100
AcDbLine
 10
264.7185572177
 20
104.558780322
 30
0.0
 11
264.7185572177
 21
121.058780322
 31
0.0
  0
LINE
  5
3B4
330
3AD
100
AcDbEntity
  8
FORMAT
100
AcDbLine
 10
250.7185572177
 20
120.058780322
 30
0.0
 11
264.7185572177
 21
120.058780322
 31
0.0
  0
MTEXT
  5
3B5
330
3AD
100
AcDbEntity
  8
FORMAT
100
AcDbMText
 10
255.0449461728
 20
124.5705176441
 30
0.0
 40
3.5
 41
0.0
 71
     1
 72
     1
  1
14
  7
SLDTEXTSTYLE0
 73
     1
 44
1.0
  0
ENDBLK
  5
3AF
330
3AD
100
AcDbEntity
  8
0
100
AcDbBlockEnd
  0
BLOCK
  5
3B8
330
3B7
100
AcDbEntity
  8
0
100
AcDbBlockBegin
  2
_D_23
 70
     0
 10
0.0
 20
0.0
 30
0.0
  3
_D_23
  1

  0
SOLID
  5
3BA
330
3B7
100
AcDbEntity
  8
FORMAT
100
AcDbTrace
 10
280.0751244876
 20
104.058780322
 30
0.0
 11
279.5671244876
 21
100.756780322
 31
0.0
 12
280.5831244876
 22
100.756780322
 32
0.0
 13
280.5831244876
 23
100.756780322
 33
0.0
  0
SOLID
  5
3BB
330
3B7
100
AcDbEntity
  8
FORMAT
100
AcDbTrace
 10
280.0751244876
 20
65.058780322
 30
0.0
 11
280.5831244876
 21
68.360780322
 31
0.0
 12
279.5671244876
 22
68.360780322
 32
0.0
 13
279.5671244876
 23
68.360780322
 33
0.0
  0
LINE
  5
3BC
330
3B7
100
AcDbEntity
  8
FORMAT
100
AcDbLine
 10
268.7185572177
 20
104.058780322
 30
0.0
 11
281.0751244876
 21
104.058780322
 31
0.0
  0
LINE
  5
3BD
330
3B7
100
AcDbEntity
  8
FORMAT
100
AcDbLine
 10
275.7185572177
 20
65.058780322
 30
0.0
 11
281.0751244876
 21
65.058780322
 31
0.0
  0
LINE
  5
3BE
330
3B7
100
AcDbEntity
  8
FORMAT
100
AcDbLine
 10
280.0751244876
 20
104.058780322
 30
0.0
 11
280.0751244876
 21
65.058780322
 31
0.0
  0
MTEXT
  5
3BF
330
3B7
100
AcDbEntity
  8
FORMAT
100
AcDbMText
 10
275.5633871656
 20
81.8851692772
 30
0.0
 40
3.5
 41
0.0
 71
     1
 72
     1
  1
39
  7
SLDTEXTSTYLE0
 11
6.123233995736766E-17
 21
1.0
 31
0.0
 73
     1
 44
1.0
  0
ENDBLK
  5
3B9
330
3B7
100
AcDbEntity
  8
0
100
AcDbBlockEnd
  0
BLOCK
  5
3C2
330
3C1
100
AcDbEntity
  8
0
100
AcDbBlockBegin
  2
_D_24
 70
     0
 10
0.0
 20
0.0
 30
0.0
  3
_D_24
  1

  0
ARC
  5
3C4
330
3C1
100
AcDbEntity
  8
FORMAT
100
AcDbCircle
 10
244.2185572177
 20
86.5587803221
 30
0.0
 40
19.58929592071863
100
AcDbArc
 50
315.0
 51
45.0
  0
SOLID
  5
3C5
330
3C1
100
AcDbEntity
  8
FORMAT
100
AcDbTrace
 10
258.0702812019
 20
72.7070563378
 30
0.0
 11
260.5902050618
 21
74.9005129115
 31
0.0
 12
259.8143719247
 22
75.556515155
 32
0.0
 13
259.8143719247
 23
75.556515155
 33
0.0
  0
SOLID
  5
3C6
330
3C1
100
AcDbEntity
  8
FORMAT
100
AcDbTrace
 10
258.0702812019
 20
100.4105043063
 30
0.0
 11
259.8143719247
 21
97.5610454891
 31
0.0
 12
260.5902050618
 22
98.2170477326
 32
0.0
 13
260.5902050618
 23
98.2170477326
 33
0.0
  0
LINE
  5
3C7
330
3C1
100
AcDbEntity
  8
FORMAT
100
AcDbLine
 10
251.4256639989
 20
79.3516735409
 30
0.0
 11
258.7773879831
 21
71.9999495567
 31
0.0
  0
LINE
  5
3C8
330
3C1
100
AcDbEntity
  8
FORMAT
100
AcDbLine
 10
251.4256639989
 20
93.7658871032
 30
0.0
 11
258.7773879831
 21
101.1176110874
 31
0.0
  0
MTEXT
  5
3C9
330
3C1
100
AcDbEntity
  8
FORMAT
100
AcDbMText
 10
259.2961158164
 20
82.9226692824
 30
0.0
 40
3.5
 41
0.0
 71
     1
 72
     1
  1
90°
  7
SLDTEXTSTYLE0
 11
2.281678389207681E-15
 21
1.0
 31
0.0
 73
     1
 44
1.0
  0
ENDBLK
  5
3C3
330
3C1
100
AcDbEntity
  8
0
100
AcDbBlockEnd
  0
BLOCK
  5
3CC
330
3CB
100
AcDbEntity
  8
0
100
AcDbBlockBegin
  2
_D_25
 70
     0
 10
0.0
 20
0.0
 30
0.0
  3
_D_25
  1

  0
SOLID
  5
3CE
330
3CB
100
AcDbEntity
  8
FORMAT
100
AcDbTrace
 10
257.2363311651
 20
93.0587803221
 30
0.0
 11
256.7283311651
 21
89.7567803221
 31
0.0
 12
257.7443311651
 22
89.7567803221
 32
0.0
 13
257.7443311651
 23
89.7567803221
 33
0.0
  0
SOLID
  5
3CF
330
3CB
100
AcDbEntity
  8
FORMAT
100
AcDbTrace
 10
257.2363311651
 20
80.0587803221
 30
0.0
 11
257.7443311651
 21
83.3607803221
 31
0.0
 12
256.7283311651
 22
83.3607803221
 32
0.0
 13
256.7283311651
 23
83.3607803221
 33
0.0
  0
LINE
  5
3D0
330
3CB
100
AcDbEntity
  8
FORMAT
100
AcDbLine
 10
251.7185572177
 20
93.0587803221
 30
0.0
 11
258.2363311651
 21
93.0587803221
 31
0.0
  0
LINE
  5
3D1
330
3CB
100
AcDbEntity
  8
FORMAT
100
AcDbLine
 10
251.7185572177
 20
80.0587803221
 30
0.0
 11
258.2363311651
 21
80.0587803221
 31
0.0
  0
LINE
  5
3D2
330
3CB
100
AcDbEntity
  8
FORMAT
100
AcDbLine
 10
257.2363311651
 20
93.0587803221
 30
0.0
 11
257.2363311651
 21
80.0587803221
 31
0.0
  0
MTEXT
  5
3D3
330
3CB
100
AcDbEntity
  8
FORMAT
100
AcDbMText
 10
252.7245940759
 20
81.3336937374
 30
0.0
 40
3.5
 41
0.0
 71
     1
 72
     1
  1
%%c
  7
SLDTEXTSTYLE0
 11
6.123233995736766E-17
 21
1.0
 31
0.0
 73
     1
 44
1.0
  0
MTEXT
  5
3D4
330
3CB
100
AcDbEntity
  8
FORMAT
100
AcDbMText
 10
252.7148717668
 20
86.4366452826
 30
0.0
 40
3.5
 41
0.0
 71
     1
 72
     1
  1
13
  7
SLDTEXTSTYLE0
 11
6.123233995736766E-17
 21
1.0
 31
0.0
 73
     1
 44
1.0
  0
ENDBLK
  5
3CD
330
3CB
100
AcDbEntity
  8
0
100
AcDbBlockEnd
  0
BLOCK
  5
3D7
330
3D6
100
AcDbEntity
  8
0
100
AcDbBlockBegin
  2
_D_26
 70
     0
 10
0.0
 20
0.0
 30
0.0
  3
_D_26
  1

  0
SOLID
  5
3D9
330
3D6
100
AcDbEntity
  8
FORMAT
100
AcDbTrace
 10
238.2582297139
 20
90.0587803221
 30
0.0
 11
238.7662297139
 21
93.3607803221
 31
0.0
 12
237.7502297139
 22
93.3607803221
 32
0.0
 13
237.7502297139
 23
93.3607803221
 33
0.0
  0
SOLID
  5
3DA
330
3D6
100
AcDbEntity
  8
FORMAT
100
AcDbTrace
 10
238.2582297139
 20
83.0587803221
 30
0.0
 11
237.7502297139
 21
79.7567803221
 31
0.0
 12
238.7662297139
 22
79.7567803221
 32
0.0
 13
238.7662297139
 23
79.7567803221
 33
0.0
  0
LINE
  5
3DB
330
3D6
100
AcDbEntity
  8
FORMAT
100
AcDbLine
 10
246.7185572177
 20
90.0587803221
 30
0.0
 11
237.2582297139
 21
90.0587803221
 31
0.0
  0
LINE
  5
3DC
330
3D6
100
AcDbEntity
  8
FORMAT
100
AcDbLine
 10
246.7185572177
 20
83.0587803221
 30
0.0
 11
237.2582297139
 21
83.0587803221
 31
0.0
  0
LINE
  5
3DD
330
3D6
100
AcDbEntity
  8
FORMAT
100
AcDbLine
 10
238.2582297139
 20
90.0587803221
 30
0.0
 11
238.2582297139
 21
96.4087803221
 31
0.0
  0
LINE
  5
3DE
330
3D6
100
AcDbEntity
  8
FORMAT
100
AcDbLine
 10
238.2582297139
 20
90.0587803221
 30
0.0
 11
238.2582297139
 21
83.0587803221
 31
0.0
  0
LINE
  5
3DF
330
3D6
100
AcDbEntity
  8
FORMAT
100
AcDbLine
 10
238.2582297139
 20
83.0587803221
 30
0.0
 11
238.2582297139
 21
76.7087803221
 31
0.0
  0
MTEXT
  5
3E0
330
3D6
100
AcDbEntity
  8
FORMAT
100
AcDbMText
 10
233.7464926247
 20
82.670499027
 30
0.0
 40
3.5
 41
0.0
 71
     1
 72
     1
  1
%%c
  7
SLDTEXTSTYLE0
 11
6.123233995736766E-17
 21
1.0
 31
0.0
 73
     1
 44
1.0
  0
MTEXT
  5
3E1
330
3D6
100
AcDbEntity
  8
FORMAT
100
AcDbMText
 10
233.7367703155
 20
87.7734505722
 30
0.0
 40
3.5
 41
0.0
 71
     1
 72
     1
  1
7
  7
SLDTEXTSTYLE0
 11
6.123233995736766E-17
 21
1.0
 31
0.0
 73
     1
 44
1.0
  0
ENDBLK
  5
3D8
330
3D6
100
AcDbEntity
  8
0
100
AcDbBlockEnd
  0
BLOCK
  5
3E4
330
3E3
100
AcDbEntity
  8
0
100
AcDbBlockBegin
  2
_D_27
 70
     0
 10
0.0
 20
0.0
 30
0.0
  3
_D_27
  1

  0
SOLID
  5
3E6
330
3E3
100
AcDbEntity
  8
FORMAT
100
AcDbTrace
 10
187.7185572177
 20
58.6091523327
 30
0.0
 11
191.0205572177
 21
58.1011523327
 31
0.0
 12
191.0205572177
 22
59.1171523327
 32
0.0
 13
191.0205572177
 23
59.1171523327
 33
0.0
  0
SOLID
  5
3E7
330
3E3
100
AcDbEntity
  8
FORMAT
100
AcDbTrace
 10
247.7185572177
 20
58.6091523326
 30
0.0
 11
244.4165572177
 21
59.1171523327
 31
0.0
 12
244.4165572177
 22
58.1011523327
 32
0.0
 13
244.4165572177
 23
58.1011523327
 33
0.0
  0
LINE
  5
3E8
330
3E3
100
AcDbEntity
  8
FORMAT
100
AcDbLine
 10
187.7185572177
 20
82.445531668
 30
0.0
 11
187.7185572177
 21
57.6091523327
 31
0.0
  0
LINE
  5
3E9
330
3E3
100
AcDbEntity
  8
FORMAT
100
AcDbLine
 10
247.7185572177
 20
75.0587803221
 30
0.0
 11
247.7185572177
 21
57.6091523326
 31
0.0
  0
LINE
  5
3EA
330
3E3
100
AcDbEntity
  8
FORMAT
100
AcDbLine
 10
187.7185572177
 20
58.6091523327
 30
0.0
 11
247.7185572177
 21
58.6091523326
 31
0.0
  0
MTEXT
  5
3EB
330
3E3
100
AcDbEntity
  8
FORMAT
100
AcDbMText
 10
215.0449461728
 20
63.1208896547
 30
0.0
 40
3.5
 41
0.0
 71
     1
 72
     1
  1
60
  7
SLDTEXTSTYLE0
 73
     1
 44
1.0
  0
ENDBLK
  5
3E5
330
3E3
100
AcDbEntity
  8
0
100
AcDbBlockEnd
  0
BLOCK
  5
3ED
330
3EC
100
AcDbEntity
  8
0
100
AcDbBlockBegin
  2
SW_NOTE_0_10
 70
     0
 10
0.0
 20
0.0
 30
0.0
  3
SW_NOTE_0_10
  1

  0
MTEXT
  5
3EF
330
3EC
100
AcDbEntity
  8
FORMAT
 62
     0
100
AcDbMText
 10
-0.4230220078
 20
10.8176310469
 30
0.0
 40
3.5
 41
0.0
 71
     1
 72
     1
  1
Tragzapfen/Schrauben 
  7
SLDTEXTSTYLE0
 73
     1
 44
1.0
  0
MTEXT
  5
3F0
330
3EC
100
AcDbEntity
  8
FORMAT
 62
     0
100
AcDbMText
 10
-0.4230220078
 20
6.2967975546
 30
0.0
 40
3.5
 41
0.0
 71
     1
 72
     1
  1
sind separat zu bestellen
  7
SLDTEXTSTYLE0
 73
     1
 44
1.0
  0
ENDBLK
  5
3EE
330
3EC
100
AcDbEntity
  8
0
100
AcDbBlockEnd
  0
BLOCK
  5
3F4
330
3F3
100
AcDbEntity
  8
0
100
AcDbBlockBegin
  2
_Dot
 70
     0
 10
0.0
 20
0.0
 30
0.0
  3
_Dot
  1

  0
LWPOLYLINE
  5
3F6
330
3F3
100
AcDbEntity
  8
0
  6
ByBlock
 62
     0
100
AcDbPolyline
 90
        2
 70
     1
 43
0.5
 10
-0.25
 20
0.0
 42
1.0
 10
0.25
 20
0.0
 42
1.0
  0
LINE
  5
3F7
330
3F3
100
AcDbEntity
  8
0
  6
ByBlock
 62
     0
370
    -2
100
AcDbLine
 10
-0.5
 20
0.0
 30
0.0
 11
-1.0
 21
0.0
 31
0.0
  0
ENDBLK
  5
3F5
330
3F3
100
AcDbEntity
  8
0
100
AcDbBlockEnd
  0
BLOCK
  5
3FA
330
3F9
100
AcDbEntity
  8
0
100
AcDbBlockBegin
  2
SW_CENTERMARKSYMBOL_8
 70
     0
 10
0.0
 20
0.0
 30
0.0
  3
SW_CENTERMARKSYMBOL_8
  1

  0
LINE
  5
3FC
330
3F9
100
AcDbEntity
  8
FORMAT
 62
     0
100
AcDbLine
 10
0.0
 20
0.0
 30
0.0
 11
0.0
 21
2.5
 31
0.0
  0
LINE
  5
3FD
330
3F9
100
AcDbEntity
  8
FORMAT
 62
     0
100
AcDbLine
 10
0.0
 20
0.0
 30
0.0
 11
-2.5
 21
0.0
 31
0.0
  0
LINE
  5
3FE
330
3F9
100
AcDbEntity
  8
FORMAT
 62
     0
100
AcDbLine
 10
0.0
 20
0.0
 30
0.0
 11
0.0
 21
-2.5
 31
0.0
  0
LINE
  5
3FF
330
3F9
100
AcDbEntity
  8
FORMAT
 62
     0
100
AcDbLine
 10
0.0
 20
0.0
 30
0.0
 11
2.5
 21
0.0
 31
0.0
  0
LINE
  5
400
330
3F9
100
AcDbEntity
  8
FORMAT
 62
     0
100
AcDbLine
 10
0.0
 20
5.0
 30
0.0
 11
0.0
 21
11.3
 31
0.0
  0
LINE
  5
401
330
3F9
100
AcDbEntity
  8
FORMAT
 62
     0
100
AcDbLine
 10
-5.0
 20
0.0
 30
0.0
 11
-11.3
 21
0.0
 31
0.0
  0
LINE
  5
402
330
3F9
100
AcDbEntity
  8
FORMAT
 62
     0
100
AcDbLine
 10
0.0
 20
-5.0
 30
0.0
 11
0.0
 21
-11.3
 31
0.0
  0
LINE
  5
403
330
3F9
100
AcDbEntity
  8
FORMAT
 62
     0
100
AcDbLine
 10
5.0
 20
0.0
 30
0.0
 11
11.3
 21
0.0
 31
0.0
  0
ENDBLK
  5
3FB
330
3F9
100
AcDbEntity
  8
0
100
AcDbBlockEnd
  0
ENDSEC
  0
SECTION
  2
ENTITIES
  0
LINE
  5
134
330
1F
100
AcDbEntity
  8
FORMAT
  6
Continuous
 62
     7
370
    18
100
AcDbLine
 10
255.3923879518
 20
35.6464717326
 30
0.0
 11
180.9851741751
 21
35.6464717326
 31
0.0
  0
LINE
  5
135
330
1F
100
AcDbEntity
  8
FORMAT
  6
Continuous
 62
     7
370
    18
100
AcDbLine
 10
255.3923879518
 20
48.7420674192
 30
0.0
 11
286.9438597858
 21
48.7420674192
 31
0.0
  0
LINE
  5
136
330
1F
100
AcDbEntity
  8
FORMAT
  6
Continuous
 62
     7
370
    18
100
AcDbLine
 10
241.7100609089
 20
35.6464717326
 30
0.0
 11
241.7100609089
 21
25.9765524102
 31
0.0
  0
LINE
  5
137
330
1F
100
AcDbEntity
  8
FORMAT
100
AcDbLine
 10
286.9438597858
 20
200.0
 30
0.0
 11
9.9438597858
 21
200.0
 31
0.0
  0
LINE
  5
138
330
1F
100
AcDbEntity
  8
FORMAT
100
AcDbLine
 10
9.9438597858
 20
200.0
 30
0.0
 11
9.9438597858
 21
10.0
 31
0.0
  0
LINE
  5
139
330
1F
100
AcDbEntity
  8
BEMASSUNG
  6
Continuous
 62
     7
370
    18
100
AcDbLine
 10
255.3923879518
 20
40.5638075942
 30
0.0
 11
286.9438597858
 21
40.5638075942
 31
0.0
  0
LINE
  5
13A
330
1F
100
AcDbEntity
  8
FORMAT
 62
     7
370
    18
100
AcDbLine
 10
180.9851741751
 20
52.6404959572
 30
0.0
 11
180.9851741751
 21
10.0
 31
0.0
  0
LINE
  5
13B
330
1F
100
AcDbEntity
  8
FORMAT
 62
     7
100
AcDbLine
 10
272.1993193029
 20
10.0
 30
0.0
 11
272.1993193029
 21
19.3470401503
 31
0.0
  0
LINE
  5
13C
330
1F
100
AcDbEntity
  8
FORMAT
 62
     7
100
AcDbLine
 10
180.9851741751
 20
25.9765524102
 30
0.0
 11
286.9438597858
 21
25.9765524102
 31
0.0
  0
LINE
  5
13D
330
1F
100
AcDbEntity
  8
FORMAT
100
AcDbLine
 10
9.9438597858
 20
10.0
 30
0.0
 11
286.9438597858
 21
10.0
 31
0.0
  0
LINE
  5
13E
330
1F
100
AcDbEntity
  8
FORMAT
 62
     7
100
AcDbLine
 10
255.3923879518
 20
19.3470401503
 30
0.0
 11
286.9438597858
 21
19.3470401503
 31
0.0
  0
LINE
  5
13F
330
1F
100
AcDbEntity
  8
FORMAT
 62
     7
100
AcDbLine
 10
180.9851741751
 20
52.6404959572
 30
0.0
 11
286.9572416722
 21
52.6404959572
 31
0.0
  0
LINE
  5
140
330
1F
100
AcDbEntity
  8
FORMAT
 62
     7
100
AcDbLine
 10
255.3923879518
 20
10.0
 30
0.0
 11
255.3923879518
 21
52.6404959572
 31
0.0
  0
LINE
  5
141
330
1F
100
AcDbEntity
  8
FORMAT
100
AcDbLine
 10
286.9438597858
 20
10.0
 30
0.0
 11
286.9438597858
 21
200.0
 31
0.0
  0
INSERT
  5
142
330
1F
100
AcDbEntity
  8
FORMAT
100
AcDbBlockReference
  2
Block1_2
 10
262.8019335354
 20
27.0956685316
 30
0.0
  0
INSERT
  5
143
330
1F
100
AcDbEntity
  8
FORMAT
100
AcDbBlockReference
  2
Block2_2
 10
-49.4796720125
 20
-37.2714257085
 30
0.0
  0
MTEXT
  5
144
330
1F
100
AcDbEntity
  8
BEMASSUNG
 62
     7
100
AcDbMText
 10
256.196469587
 20
47.9363931555
 30
0.0
 40
2.0
 41
0.0
 71
     1
 72
     1
  1
Ausführung:
  7
SLDTEXTSTYLE0
 73
     1
 44
1.0
  0
MTEXT
  5
145
330
1F
100
AcDbEntity
  8
FORMAT
100
AcDbMText
 10
244.8335352583
 20
34.4345411691
 30
0.0
 40
2.0
 41
0.0
 71
     1
 72
     1
  1
Index:
  7
SLDTEXTSTYLE0
 73
     1
 44
1.0
  0
MTEXT
  5
147
330
1F
100
AcDbEntity
  8
FORMAT
100
AcDbMText
 10
257.9461905645
 20
51.6009600552
 30
0.0
 40
1.8
 41
0.0
 71
     1
 72
     1
  1
KATALOGZEICHNUNG
  7
SLDTEXTSTYLE3
 73
     1
 44
1.0
  0
MTEXT
  5
148
330
1F
100
AcDbEntity
  8
FORMAT
100
AcDbMText
 10
182.9061937187
 20
34.8216251945
 30
0.0
 40
2.0
 41
0.0
 71
     1
 72
     1
  1
Zeichnungsnummer:
  7
SLDTEXTSTYLE0
 73
     1
 44
1.0
  0
MTEXT
  5
149
330
1F
100
AcDbEntity
  8
FORMAT
100
AcDbMText
 10
265.9344367942
 20
14.2806067945
 30
0.0
 40
2.1166666667
 41
0.0
 71
     1
 72
     1
  1
4
  7
SLDTEXTSTYLE0
 73
     1
 44
1.0
  0
MTEXT
  5
14A
330
1F
100
AcDbEntity
  8
FORMAT
100
AcDbMText
 10
259.8619150727
 20
14.2806067945
 30
0.0
 40
2.1166666667
 41
0.0
 71
     1
 72
     1
  1
2
  7
SLDTEXTSTYLE0
 73
     1
 44
1.0
  0
MTEXT
  5
14B
330
1F
100
AcDbEntity
  8
FORMAT
100
AcDbMText
 10
277.535567047
 20
14.1724992936
 30
0.0
 40
2.1166666667
 41
0.0
 71
     1
 72
     1
  1
A4
  7
SLDTEXTSTYLE0
 73
     1
 44
1.0
  0
MTEXT
  5
14C
330
1F
100
AcDbEntity
  8
FORMAT
100
AcDbMText
 10
270.2136096579
 20
23.7012230636
 30
0.0
 40
2.1166666667
 41
0.0
 71
     1
 72
     1
  1
1:1
  7
SLDTEXTSTYLE0
 73
     1
 44
1.0
  0
MTEXT
  5
14D
330
1F
100
AcDbEntity
  8
FORMAT
100
AcDbMText
 10
185.855694094
 20
31.2946896474
 30
0.0
 40
3.175
 41
0.0
 71
     1
 72
     1
  1
D042-25235
  7
SLDTEXTSTYLE3
 73
     1
 44
1.0
  0
MTEXT
  5
14E
330
1F
100
AcDbEntity
  8
FORMAT
100
AcDbMText
 10
263.6389415355
 20
14.3853488894
 30
0.0
 40
2.5
 41
0.0
 71
     2
 72
     1
  1
/
  7
SLDTEXTSTYLE0
 73
     1
 44
1.0
  0
MTEXT
  5
14F
330
1F
100
AcDbEntity
  8
FORMAT
100
AcDbMText
 10
257.6429342273
 20
17.8898077508
 30
0.0
 40
2.0
 41
0.0
 71
     1
 72
     1
  1
Blatt / von
  7
SLDTEXTSTYLE0
 73
     1
 44
1.0
  0
MTEXT
  5
150
330
1F
100
AcDbEntity
  8
FORMAT
100
AcDbMText
 10
182.596993557
 20
51.3045969115
 30
0.0
 40
2.0
 41
0.0
 71
     1
 72
     1
  1
Benennung:
  7
SLDTEXTSTYLE0
 73
     1
 44
1.0
  0
MTEXT
  5
151
330
1F
100
AcDbEntity
  8
FORMAT
100
AcDbMText
 10
274.992897395
 20
17.8898077508
 30
0.0
 40
2.0
 41
0.0
 71
     1
 72
     1
  1
Format
  7
SLDTEXTSTYLE0
 73
     1
 44
1.0
  0
MTEXT
  5
152
330
1F
100
AcDbEntity
  8
FORMAT
100
AcDbMText
 10
256.3213642251
 20
23.5727761737
 30
0.0
 40
2.0
 41
0.0
 71
     1
 72
     1
  1
Maßstab:
  7
SLDTEXTSTYLE0
 73
     1
 44
1.0
  0
MTEXT
  5
153
330
1F
100
AcDbEntity
  8
FORMAT
100
AcDbMText
 10
247.5724191773
 20
29.9687085165
 30
0.0
 40
2.5
 41
0.0
 71
     1
 72
     1
  1
b
  7
SLDTEXTSTYLE3
 73
     1
 44
1.0
  0
MTEXT
  5
154
330
1F
100
AcDbEntity
  8
FORMAT
100
AcDbMText
 10
182.8009845203
 20
40.0864163817
 30
0.0
 40
2.5
 41
0.0
 71
     1
 72
     1
  1
Lasergeschweißte Objektbänder
  7
SLDTEXTSTYLE3
 73
     1
 44
1.0
  0
MTEXT
  5
155
330
1F
100
AcDbEntity
  8
FORMAT
100
AcDbMText
 10
182.8290795751
 20
43.5216266319
 30
0.0
 40
2.5
 41
0.0
 71
     1
 72
     1
  1
OBX-18-1531/160-LG-TZ
  7
SLDTEXTSTYLE3
 73
     1
 44
1.0
  0
MTEXT
  5
156
330
1F
100
AcDbEntity
  8
FORMAT
100
AcDbMText
 10
182.8205662367
 20
47.7853851366
 30
0.0
 40
3.5
 41
0.0
 71
     1
 72
     1
  1
Zusammenbau
  7
SLDTEXTSTYLE3
 73
     1
 44
1.0
  0
INSERT
  5
161
330
1F
100
AcDbEntity
  8
FORMAT
100
AcDbBlockReference
  2
SW_NOTE_0_9
 10
13.3538297872
 20
34.2427660478
 30
0.0
  0
LINE
  5
162
330
1F
100
AcDbEntity
  8
0
  6
Continuous
 62
     7
370
    25
100
AcDbLine
 10
146.8695309894
 20
125.2821019626
 30
0.0
 11
183.6695309894
 21
125.2821019626
 31
0.0
  0
LINE
  5
163
330
1F
100
AcDbEntity
  8
0
  6
Continuous
 62
     7
370
    25
100
AcDbLine
 10
183.6695309894
 20
143.2821019626
 30
0.0
 11
146.8695309894
 21
143.2821019626
 31
0.0
  0
LINE
  5
164
330
1F
100
AcDbEntity
  8
0
  6
Continuous
 62
     7
370
    25
100
AcDbLine
 10
183.6695309894
 20
125.2821019626
 30
0.0
 11
183.8695309894
 21
125.4821019626
 31
0.0
  0
LINE
  5
165
330
1F
100
AcDbEntity
  8
0
  6
Continuous
 62
     7
370
    25
100
AcDbLine
 10
183.8695309894
 20
143.0821019626
 30
0.0
 11
183.6695309894
 21
143.2821019626
 31
0.0
  0
LINE
  5
166
330
1F
100
AcDbEntity
  8
0
  6
Continuous
 62
     7
370
    25
100
AcDbLine
 10
60.8695309894
 20
143.2821019626
 30
0.0
 11
24.0695309894
 21
143.2821019626
 31
0.0
  0
LINE
  5
167
330
1F
100
AcDbEntity
  8
0
  6
Continuous
 62
     7
370
    25
100
AcDbLine
 10
24.0695309894
 20
125.2821019626
 30
0.0
 11
60.8695309894
 21
125.2821019626
 31
0.0
  0
LINE
  5
168
330
1F
100
AcDbEntity
  8
0
  6
Continuous
 62
     7
370
    25
100
AcDbLine
 10
24.0695309894
 20
143.2821019626
 30
0.0
 11
23.8695309894
 21
143.0821019626
 31
0.0
  0
LINE
  5
169
330
1F
100
AcDbEntity
  8
0
  6
Continuous
 62
     7
370
    25
100
AcDbLine
 10
23.8695309894
 20
125.4821019626
 30
0.0
 11
24.0695309894
 21
125.2821019626
 31
0.0
  0
LINE
  5
16A
330
1F
100
AcDbEntity
  8
0
  6
Continuous
 62
     7
370
    25
100
AcDbLine
 10
145.8695309894
 20
143.2821019626
 30
0.0
 11
61.8695309894
 21
143.2821019626
 31
0.0
  0
LINE
  5
16B
330
1F
100
AcDbEntity
  8
0
  6
Continuous
 62
     7
370
    25
100
AcDbLine
 10
61.8695309894
 20
125.2821019626
 30
0.0
 11
62.5035345743
 21
125.2821019626
 31
0.0
  0
LINE
  5
16C
330
1F
100
AcDbEntity
  8
0
  6
Continuous
 62
     7
370
    25
100
AcDbLine
 10
145.2355274045
 20
125.2821019626
 30
0.0
 11
145.8695309894
 21
125.2821019626
 31
0.0
  0
LINE
  5
16D
330
1F
100
AcDbEntity
  8
0
  6
Continuous
 62
     7
370
    25
100
AcDbLine
 10
61.8695309894
 20
140.0321019626
 30
0.0
 11
60.8695309894
 21
140.0321019626
 31
0.0
  0
LINE
  5
16E
330
1F
100
AcDbEntity
  8
0
  6
Continuous
 62
     7
370
    25
100
AcDbLine
 10
60.8695309894
 20
128.5321019626
 30
0.0
 11
61.8695309894
 21
128.5321019626
 31
0.0
  0
LINE
  5
16F
330
1F
100
AcDbEntity
  8
0
  6
Continuous
 62
     7
370
    25
100
AcDbLine
 10
146.8695309894
 20
140.0321019626
 30
0.0
 11
145.8695309894
 21
140.0321019626
 31
0.0
  0
LINE
  5
170
330
1F
100
AcDbEntity
  8
0
  6
Continuous
 62
     7
370
    25
100
AcDbLine
 10
145.8695309894
 20
128.5321019626
 30
0.0
 11
146.8695309894
 21
128.5321019626
 31
0.0
  0
LINE
  5
171
330
1F
100
AcDbEntity
  8
0
  6
Continuous
 62
     7
370
    25
100
AcDbLine
 10
25.8695309894
 20
143.9333410451
 30
0.0
 11
29.3695309894
 21
143.9333410451
 31
0.0
  0
LINE
  5
172
330
1F
100
AcDbEntity
  8
0
  6
Continuous
 62
     7
370
    25
100
AcDbLine
 10
60.1195309894
 20
143.2821019626
 30
0.0
 11
60.1195309894
 21
143.9333410451
 31
0.0
  0
LINE
  5
173
330
1F
100
AcDbEntity
  8
0
  6
Continuous
 62
     7
370
    25
100
AcDbLine
 10
25.8695309894
 20
143.9333410451
 30
0.0
 11
25.8695309894
 21
143.2821019626
 31
0.0
  0
LINE
  5
174
330
1F
100
AcDbEntity
  8
0
  6
Continuous
 62
     7
370
    25
100
AcDbLine
 10
181.8695309894
 20
143.9333410451
 30
0.0
 11
178.3695309894
 21
143.9333410451
 31
0.0
  0
LINE
  5
175
330
1F
100
AcDbEntity
  8
0
  6
Continuous
 62
     7
370
    25
100
AcDbLine
 10
181.8695309894
 20
143.9333410451
 30
0.0
 11
181.8695309894
 21
143.2821019626
 31
0.0
  0
LINE
  5
176
330
1F
100
AcDbEntity
  8
0
  6
Continuous
 62
     7
370
    25
100
AcDbLine
 10
147.6195309894
 20
143.2821019626
 30
0.0
 11
147.6195309894
 21
143.9333410451
 31
0.0
  0
LINE
  5
177
330
1F
100
AcDbEntity
  8
0
  6
Continuous
 62
     7
370
    25
100
AcDbLine
 10
29.3695309894
 20
143.9333410451
 30
0.0
 11
29.3695309894
 21
144.7821019626
 31
0.0
  0
LINE
  5
178
330
1F
100
AcDbEntity
  8
0
  6
Continuous
 62
     7
370
    25
100
AcDbLine
 10
29.3695309894
 20
144.7821019626
 30
0.0
 11
60.1195309894
 21
144.7821019626
 31
0.0
  0
LINE
  5
179
330
1F
100
AcDbEntity
  8
0
  6
Continuous
 62
     7
370
    25
100
AcDbLine
 10
60.1195309894
 20
144.7821019626
 30
0.0
 11
60.1195309894
 21
143.9333410451
 31
0.0
  0
LINE
  5
17A
330
1F
100
AcDbEntity
  8
0
  6
Continuous
 62
     7
370
    25
100
AcDbLine
 10
147.6195309894
 20
143.9333410451
 30
0.0
 11
147.6195309894
 21
144.7821019626
 31
0.0
  0
LINE
  5
17B
330
1F
100
AcDbEntity
  8
0
  6
Continuous
 62
     7
370
    25
100
AcDbLine
 10
147.6195309894
 20
144.7821019626
 30
0.0
 11
178.3695309894
 21
144.7821019626
 31
0.0
  0
LINE
  5
17C
330
1F
100
AcDbEntity
  8
0
  6
Continuous
 62
     7
370
    25
100
AcDbLine
 10
178.3695309894
 20
144.7821019626
 30
0.0
 11
178.3695309894
 21
143.9333410451
 31
0.0
  0
LINE
  5
17D
330
1F
100
AcDbEntity
  8
0
  6
Continuous
 62
     7
370
    25
100
AcDbLine
 10
60.8695309894
 20
141.7821019626
 30
0.0
 11
61.8695309894
 21
141.7821019626
 31
0.0
  0
LINE
  5
17E
330
1F
100
AcDbEntity
  8
0
  6
Continuous
 62
     7
370
    25
100
AcDbLine
 10
145.8695309894
 20
141.7821019626
 30
0.0
 11
146.8695309894
 21
141.7821019626
 31
0.0
  0
LINE
  5
17F
330
1F
100
AcDbEntity
  8
0
  6
Continuous
 62
     7
370
    25
100
AcDbLine
 10
60.1195309894
 20
144.7821019626
 30
0.0
 11
147.6195309894
 21
144.7821019626
 31
0.0
  0
LINE
  5
180
330
1F
100
AcDbEntity
  8
0
  6
Continuous
 62
     7
370
    25
100
AcDbLine
 10
29.3695309894
 20
144.7821019626
 30
0.0
 11
29.3695309894
 21
145.2821019626
 31
0.0
  0
LINE
  5
181
330
1F
100
AcDbEntity
  8
0
  6
Continuous
 62
     7
370
    25
100
AcDbLine
 10
178.3695309894
 20
145.2821019626
 30
0.0
 11
178.3695309894
 21
144.7821019626
 31
0.0
  0
LINE
  5
182
330
1F
100
AcDbEntity
  8
0
  6
Continuous
 62
     7
370
    25
100
AcDbLine
 10
35.8695309894
 20
165.7821019626
 30
0.0
 11
171.8695309894
 21
165.7821019626
 31
0.0
  0
ARC
  5
183
330
1F
100
AcDbEntity
  8
0
  6
Continuous
 62
     7
370
    25
100
AcDbCircle
 10
171.8695309894
 20
153.7821019626
 30
0.0
 40
12.00000000000004
100
AcDbArc
 50
314.9005279607
 51
90.0
  0
LINE
  5
184
330
1F
100
AcDbEntity
  8
0
  6
Continuous
 62
     7
370
    25
100
AcDbLine
 10
178.3695309894
 20
145.2821019626
 30
0.0
 11
180.3400681625
 21
145.2821019626
 31
0.0
  0
LINE
  5
185
330
1F
100
AcDbEntity
  8
0
  6
Continuous
 62
     7
370
    25
100
AcDbLine
 10
27.3989938164
 20
145.2821019626
 30
0.0
 11
29.3695309894
 21
145.2821019626
 31
0.0
  0
ARC
  5
186
330
1F
100
AcDbEntity
  8
0
  6
Continuous
 62
     7
370
    25
100
AcDbCircle
 10
35.8695309894
 20
153.7821019626
 30
0.0
 40
12.00000000000003
100
AcDbArc
 50
90.0
 51
225.0994720393
  0
CIRCLE
  5
187
330
1F
100
AcDbEntity
  8
0
  6
Continuous
 62
     7
370
    25
100
AcDbCircle
 10
171.8695309894
 20
158.7821019626
 30
0.0
 40
5.5
  0
CIRCLE
  5
188
330
1F
100
AcDbEntity
  8
0
  6
Continuous
 62
     7
370
    25
100
AcDbCircle
 10
137.8695309894
 20
152.7821019626
 30
0.0
 40
5.5
  0
CIRCLE
  5
189
330
1F
100
AcDbEntity
  8
0
  6
Continuous
 62
     7
370
    25
100
AcDbCircle
 10
103.8695309894
 20
158.7821019626
 30
0.0
 40
5.5
  0
CIRCLE
  5
18A
330
1F
100
AcDbEntity
  8
0
  6
Continuous
 62
     7
370
    25
100
AcDbCircle
 10
69.8695309894
 20
152.7821019626
 30
0.0
 40
5.5
  0
CIRCLE
  5
18B
330
1F
100
AcDbEntity
  8
0
  6
Continuous
 62
     7
370
    25
100
AcDbCircle
 10
35.8695309894
 20
158.7821019626
 30
0.0
 40
5.5
  0
CIRCLE
  5
18C
330
1F
100
AcDbEntity
  8
0
  6
Continuous
 62
     7
370
    25
100
AcDbCircle
 10
153.8695309894
 20
155.7821019626
 30
0.0
 40
6.5
  0
CIRCLE
  5
18D
330
1F
100
AcDbEntity
  8
0
  6
Continuous
 62
     7
370
    25
100
AcDbCircle
 10
53.8695309894
 20
155.7821019626
 30
0.0
 40
6.5
  0
CIRCLE
  5
18E
330
1F
100
AcDbEntity
  8
0
  6
Continuous
 62
     7
370
    25
100
AcDbCircle
 10
69.8695309894
 20
152.7821019626
 30
0.0
 40
3.25
  0
CIRCLE
  5
18F
330
1F
100
AcDbEntity
  8
0
  6
Continuous
 62
     7
370
    25
100
AcDbCircle
 10
103.8695309894
 20
158.7821019626
 30
0.0
 40
3.25
  0
CIRCLE
  5
190
330
1F
100
AcDbEntity
  8
0
  6
Continuous
 62
     7
370
    25
100
AcDbCircle
 10
137.8695309894
 20
152.7821019626
 30
0.0
 40
3.25
  0
CIRCLE
  5
191
330
1F
100
AcDbEntity
  8
0
  6
Continuous
 62
     7
370
    25
100
AcDbCircle
 10
153.8695309894
 20
155.7821019626
 30
0.0
 40
3.5
  0
CIRCLE
  5
192
330
1F
100
AcDbEntity
  8
0
  6
Continuous
 62
     7
370
    25
100
AcDbCircle
 10
53.8695309894
 20
155.7821019626
 30
0.0
 40
3.5
  0
CIRCLE
  5
193
330
1F
100
AcDbEntity
  8
0
  6
Continuous
 62
     7
370
    25
100
AcDbCircle
 10
171.8695309894
 20
158.7821019626
 30
0.0
 40
3.250000000000028
  0
CIRCLE
  5
194
330
1F
100
AcDbEntity
  8
0
  6
Continuous
 62
     7
370
    25
100
AcDbCircle
 10
35.8695309894
 20
158.7821019626
 30
0.0
 40
3.25
  0
LINE
  5
195
330
1F
100
AcDbEntity
  8
0
  6
Continuous
 62
     7
370
    25
100
AcDbLine
 10
183.6695309894
 20
134.2821019626
 30
0.0
 11
183.6695309894
 21
143.2821019626
 31
0.0
  0
LINE
  5
196
330
1F
100
AcDbEntity
  8
0
  6
Continuous
 62
     7
370
    25
100
AcDbLine
 10
183.6695309894
 20
125.2821019626
 30
0.0
 11
183.6695309894
 21
134.2821019626
 31
0.0
  0
LINE
  5
197
330
1F
100
AcDbEntity
  8
0
  6
Continuous
 62
     7
370
    25
100
AcDbLine
 10
146.8695309894
 20
134.2821019626
 30
0.0
 11
146.8695309894
 21
143.2821019626
 31
0.0
  0
LINE
  5
198
330
1F
100
AcDbEntity
  8
0
  6
Continuous
 62
     7
370
    25
100
AcDbLine
 10
146.8695309894
 20
125.2821019626
 30
0.0
 11
146.8695309894
 21
134.2821019626
 31
0.0
  0
LINE
  5
199
330
1F
100
AcDbEntity
  8
0
  6
Continuous
 62
     7
370
    25
100
AcDbLine
 10
183.8695309894
 20
134.2821019626
 30
0.0
 11
183.8695309894
 21
143.0821019626
 31
0.0
  0
LINE
  5
19A
330
1F
100
AcDbEntity
  8
0
  6
Continuous
 62
     7
370
    25
100
AcDbLine
 10
183.8695309894
 20
125.4821019626
 30
0.0
 11
183.8695309894
 21
134.2821019626
 31
0.0
  0
LINE
  5
19B
330
1F
100
AcDbEntity
  8
0
  6
Continuous
 62
     7
370
    25
100
AcDbLine
 10
24.0695309894
 20
143.2821019626
 30
0.0
 11
24.0695309894
 21
125.2821019626
 31
0.0
  0
LINE
  5
19C
330
1F
100
AcDbEntity
  8
0
  6
Continuous
 62
     7
370
    25
100
AcDbLine
 10
60.8695309894
 20
143.2821019626
 30
0.0
 11
60.8695309894
 21
125.2821019626
 31
0.0
  0
LINE
  5
19D
330
1F
100
AcDbEntity
  8
0
  6
Continuous
 62
     7
370
    25
100
AcDbLine
 10
23.8695309894
 20
143.0821019626
 30
0.0
 11
23.8695309894
 21
125.4821019626
 31
0.0
  0
LINE
  5
19E
330
1F
100
AcDbEntity
  8
0
  6
Continuous
 62
     7
370
    25
100
AcDbLine
 10
62.5437657296
 20
126.4341715132
 30
0.0
 11
62.4619025363
 21
124.0899163772
 31
0.0
  0
LINE
  5
19F
330
1F
100
AcDbEntity
  8
0
  6
Continuous
 62
     7
370
    25
100
AcDbLine
 10
145.2771594425
 20
124.0899163772
 30
0.0
 11
145.1952962493
 21
126.4341715132
 31
0.0
  0
ARC
  5
1A0
330
1F
100
AcDbEntity
  8
0
  6
Continuous
 62
     7
370
    25
100
AcDbCircle
 10
145.3695309894
 20
95.7821019626
 30
0.0
 40
0.5
100
AcDbArc
 50
270.0
 51
0.0
  0
LINE
  5
1A1
330
1F
100
AcDbEntity
  8
0
  6
Continuous
 62
     7
370
    25
100
AcDbLine
 10
137.2599191926
 20
95.2821019626
 30
0.0
 11
145.3695309894
 21
95.2821019626
 31
0.0
  0
ARC
  5
1A2
330
1F
100
AcDbEntity
  8
0
  6
Continuous
 62
     7
370
    25
100
AcDbCircle
 10
137.2599191926
 20
95.7821019626
 30
0.0
 40
0.500000000000013
100
AcDbArc
 50
194.0362434679
 51
270.0
  0
LINE
  5
1A3
330
1F
100
AcDbEntity
  8
0
  6
Continuous
 62
     7
370
    25
100
AcDbLine
 10
135.5248479425
 20
100.6608341501
 30
0.0
 11
136.7748479425
 21
95.6608341501
 31
0.0
  0
ARC
  5
1A4
330
1F
100
AcDbEntity
  8
0
  6
Continuous
 62
     7
370
    25
100
AcDbCircle
 10
136.0099191926
 20
100.7821019626
 30
0.0
 40
0.5
100
AcDbArc
 50
90.0
 51
194.0362434679
  0
LINE
  5
1A5
330
1F
100
AcDbEntity
  8
0
  6
Continuous
 62
     7
370
    25
100
AcDbLine
 10
138.3695309894
 20
101.2821019626
 30
0.0
 11
136.0099191926
 21
101.2821019626
 31
0.0
  0
ARC
  5
1A6
330
1F
100
AcDbEntity
  8
0
  6
Continuous
 62
     7
370
    25
100
AcDbCircle
 10
138.3695309894
 20
101.7821019626
 30
0.0
 40
0.5
100
AcDbArc
 50
270.0
 51
0.0
  0
LINE
  5
1A7
330
1F
100
AcDbEntity
  8
0
  6
Continuous
 62
     7
370
    25
100
AcDbLine
 10
138.8695309894
 20
110.2821019626
 30
0.0
 11
138.8695309894
 21
101.7821019626
 31
0.0
  0
ARC
  5
1A8
330
1F
100
AcDbEntity
  8
0
  6
Continuous
 62
     7
370
    25
100
AcDbCircle
 10
136.8695309894
 20
110.2821019626
 30
0.0
 40
2.0
100
AcDbArc
 50
0.0
 51
90.0
  0
LINE
  5
1A9
330
1F
100
AcDbEntity
  8
0
  6
Continuous
 62
     7
370
    25
100
AcDbLine
 10
126.8695309894
 20
112.2821019626
 30
0.0
 11
136.8695309894
 21
112.2821019626
 31
0.0
  0
ARC
  5
1AA
330
1F
100
AcDbEntity
  8
0
  6
Continuous
 62
     7
370
    25
100
AcDbCircle
 10
126.8695309894
 20
110.2821019626
 30
0.0
 40
2.000000000000028
100
AcDbArc
 50
90.0
 51
180.0
  0
LINE
  5
1AB
330
1F
100
AcDbEntity
  8
0
  6
Continuous
 62
     7
370
    25
100
AcDbLine
 10
124.8695309894
 20
101.7821019626
 30
0.0
 11
124.8695309894
 21
110.2821019626
 31
0.0
  0
ARC
  5
1AC
330
1F
100
AcDbEntity
  8
0
  6
Continuous
 62
     7
370
    25
100
AcDbCircle
 10
125.3695309894
 20
101.7821019626
 30
0.0
 40
0.5000000000000284
100
AcDbArc
 50
180.0
 51
270.0
  0
LINE
  5
1AD
330
1F
100
AcDbEntity
  8
0
  6
Continuous
 62
     7
370
    25
100
AcDbLine
 10
127.7291427862
 20
101.2821019626
 30
0.0
 11
125.3695309894
 21
101.2821019626
 31
0.0
  0
ARC
  5
1AE
330
1F
100
AcDbEntity
  8
0
  6
Continuous
 62
     7
370
    25
100
AcDbCircle
 10
127.7291427862
 20
100.7821019626
 30
0.0
 40
0.5
100
AcDbArc
 50
345.9637565321
 51
90.0
  0
LINE
  5
1AF
330
1F
100
AcDbEntity
  8
0
  6
Continuous
 62
     7
370
    25
100
AcDbLine
 10
126.9642140363
 20
95.6608341501
 30
0.0
 11
128.2142140363
 21
100.6608341501
 31
0.0
  0
ARC
  5
1B0
330
1F
100
AcDbEntity
  8
0
  6
Continuous
 62
     7
370
    25
100
AcDbCircle
 10
126.4791427862
 20
95.7821019626
 30
0.0
 40
0.5
100
AcDbArc
 50
270.0
 51
345.9637565321
  0
LINE
  5
1B1
330
1F
100
AcDbEntity
  8
0
  6
Continuous
 62
     7
370
    25
100
AcDbLine
 10
109.2599191926
 20
95.2821019626
 30
0.0
 11
126.4791427862
 21
95.2821019626
 31
0.0
  0
ARC
  5
1B2
330
1F
100
AcDbEntity
  8
0
  6
Continuous
 62
     7
370
    25
100
AcDbCircle
 10
109.2599191926
 20
95.7821019626
 30
0.0
 40
0.5
100
AcDbArc
 50
194.0362434679
 51
270.0
  0
LINE
  5
1B3
330
1F
100
AcDbEntity
  8
0
  6
Continuous
 62
     7
370
    25
100
AcDbLine
 10
107.5248479425
 20
100.6608341501
 30
0.0
 11
108.7748479425
 21
95.6608341501
 31
0.0
  0
ARC
  5
1B4
330
1F
100
AcDbEntity
  8
0
  6
Continuous
 62
     7
370
    25
100
AcDbCircle
 10
108.0099191926
 20
100.7821019626
 30
0.0
 40
0.5
100
AcDbArc
 50
90.0
 51
194.0362434679
  0
LINE
  5
1B5
330
1F
100
AcDbEntity
  8
0
  6
Continuous
 62
     7
370
    25
100
AcDbLine
 10
110.3695309894
 20
101.2821019626
 30
0.0
 11
108.0099191926
 21
101.2821019626
 31
0.0
  0
ARC
  5
1B6
330
1F
100
AcDbEntity
  8
0
  6
Continuous
 62
     7
370
    25
100
AcDbCircle
 10
110.3695309894
 20
101.7821019626
 30
0.0
 40
0.5
100
AcDbArc
 50
270.0
 51
0.0
  0
LINE
  5
1B7
330
1F
100
AcDbEntity
  8
0
  6
Continuous
 62
     7
370
    25
100
AcDbLine
 10
110.8695309894
 20
110.2821019626
 30
0.0
 11
110.8695309894
 21
101.7821019626
 31
0.0
  0
ARC
  5
1B8
330
1F
100
AcDbEntity
  8
0
  6
Continuous
 62
     7
370
    25
100
AcDbCircle
 10
108.8695309894
 20
110.2821019626
 30
0.0
 40
2.0
100
AcDbArc
 50
0.0
 51
90.0
  0
LINE
  5
1B9
330
1F
100
AcDbEntity
  8
0
  6
Continuous
 62
     7
370
    25
100
AcDbLine
 10
98.8695309894
 20
112.2821019626
 30
0.0
 11
108.8695309894
 21
112.2821019626
 31
0.0
  0
ARC
  5
1BA
330
1F
100
AcDbEntity
  8
0
  6
Continuous
 62
     7
370
    25
100
AcDbCircle
 10
98.8695309894
 20
110.2821019626
 30
0.0
 40
2.0
100
AcDbArc
 50
90.0
 51
180.0
  0
LINE
  5
1BB
330
1F
100
AcDbEntity
  8
0
  6
Continuous
 62
     7
370
    25
100
AcDbLine
 10
96.8695309894
 20
101.7821019626
 30
0.0
 11
96.8695309894
 21
110.2821019626
 31
0.0
  0
ARC
  5
1BC
330
1F
100
AcDbEntity
  8
0
  6
Continuous
 62
     7
370
    25
100
AcDbCircle
 10
97.3695309894
 20
101.7821019626
 30
0.0
 40
0.5
100
AcDbArc
 50
180.0
 51
270.0
  0
LINE
  5
1BD
330
1F
100
AcDbEntity
  8
0
  6
Continuous
 62
     7
370
    25
100
AcDbLine
 10
99.7291427862
 20
101.2821019626
 30
0.0
 11
97.3695309894
 21
101.2821019626
 31
0.0
  0
ARC
  5
1BE
330
1F
100
AcDbEntity
  8
0
  6
Continuous
 62
     7
370
    25
100
AcDbCircle
 10
99.7291427862
 20
100.7821019626
 30
0.0
 40
0.5
100
AcDbArc
 50
345.9637565321
 51
90.0
  0
LINE
  5
1BF
330
1F
100
AcDbEntity
  8
0
  6
Continuous
 62
     7
370
    25
100
AcDbLine
 10
98.9642140363
 20
95.6608341501
 30
0.0
 11
100.2142140363
 21
100.6608341501
 31
0.0
  0
ARC
  5
1C0
330
1F
100
AcDbEntity
  8
0
  6
Continuous
 62
     7
370
    25
100
AcDbCircle
 10
98.4791427862
 20
95.7821019626
 30
0.0
 40
0.5
100
AcDbArc
 50
270.0
 51
345.9637565321
  0
LINE
  5
1C1
330
1F
100
AcDbEntity
  8
0
  6
Continuous
 62
     7
370
    25
100
AcDbLine
 10
81.2599191926
 20
95.2821019626
 30
0.0
 11
98.4791427862
 21
95.2821019626
 31
0.0
  0
ARC
  5
1C2
330
1F
100
AcDbEntity
  8
0
  6
Continuous
 62
     7
370
    25
100
AcDbCircle
 10
81.2599191926
 20
95.7821019626
 30
0.0
 40
0.5
100
AcDbArc
 50
194.0362434679
 51
270.0
  0
LINE
  5
1C3
330
1F
100
AcDbEntity
  8
0
  6
Continuous
 62
     7
370
    25
100
AcDbLine
 10
79.5248479425
 20
100.6608341501
 30
0.0
 11
80.7748479425
 21
95.6608341501
 31
0.0
  0
ARC
  5
1C4
330
1F
100
AcDbEntity
  8
0
  6
Continuous
 62
     7
370
    25
100
AcDbCircle
 10
80.0099191926
 20
100.7821019626
 30
0.0
 40
0.500000000000013
100
AcDbArc
 50
90.0
 51
194.0362434679
  0
LINE
  5
1C5
330
1F
100
AcDbEntity
  8
0
  6
Continuous
 62
     7
370
    25
100
AcDbLine
 10
82.3695309894
 20
101.2821019626
 30
0.0
 11
80.0099191926
 21
101.2821019626
 31
0.0
  0
ARC
  5
1C6
330
1F
100
AcDbEntity
  8
0
  6
Continuous
 62
     7
370
    25
100
AcDbCircle
 10
82.3695309894
 20
101.7821019626
 30
0.0
 40
0.5
100
AcDbArc
 50
270.0
 51
0.0
  0
LINE
  5
1C7
330
1F
100
AcDbEntity
  8
0
  6
Continuous
 62
     7
370
    25
100
AcDbLine
 10
82.8695309894
 20
110.2821019626
 30
0.0
 11
82.8695309894
 21
101.7821019626
 31
0.0
  0
ARC
  5
1C8
330
1F
100
AcDbEntity
  8
0
  6
Continuous
 62
     7
370
    25
100
AcDbCircle
 10
80.8695309894
 20
110.2821019626
 30
0.0
 40
2.0
100
AcDbArc
 50
0.0
 51
90.0
  0
LINE
  5
1C9
330
1F
100
AcDbEntity
  8
0
  6
Continuous
 62
     7
370
    25
100
AcDbLine
 10
70.8695309894
 20
112.2821019626
 30
0.0
 11
80.8695309894
 21
112.2821019626
 31
0.0
  0
ARC
  5
1CA
330
1F
100
AcDbEntity
  8
0
  6
Continuous
 62
     7
370
    25
100
AcDbCircle
 10
70.8695309894
 20
110.2821019626
 30
0.0
 40
2.0
100
AcDbArc
 50
90.0
 51
180.0
  0
LINE
  5
1CB
330
1F
100
AcDbEntity
  8
0
  6
Continuous
 62
     7
370
    25
100
AcDbLine
 10
68.8695309894
 20
101.7821019626
 30
0.0
 11
68.8695309894
 21
110.2821019626
 31
0.0
  0
ARC
  5
1CC
330
1F
100
AcDbEntity
  8
0
  6
Continuous
 62
     7
370
    25
100
AcDbCircle
 10
69.3695309894
 20
101.7821019626
 30
0.0
 40
0.5
100
AcDbArc
 50
180.0
 51
270.0
  0
LINE
  5
1CD
330
1F
100
AcDbEntity
  8
0
  6
Continuous
 62
     7
370
    25
100
AcDbLine
 10
71.7291427862
 20
101.2821019626
 30
0.0
 11
69.3695309894
 21
101.2821019626
 31
0.0
  0
ARC
  5
1CE
330
1F
100
AcDbEntity
  8
0
  6
Continuous
 62
     7
370
    25
100
AcDbCircle
 10
71.7291427862
 20
100.7821019626
 30
0.0
 40
0.500000000000013
100
AcDbArc
 50
345.9637565321
 51
90.0
  0
LINE
  5
1CF
330
1F
100
AcDbEntity
  8
0
  6
Continuous
 62
     7
370
    25
100
AcDbLine
 10
70.9642140363
 20
95.6608341501
 30
0.0
 11
72.2142140363
 21
100.6608341501
 31
0.0
  0
ARC
  5
1D0
330
1F
100
AcDbEntity
  8
0
  6
Continuous
 62
     7
370
    25
100
AcDbCircle
 10
70.4791427862
 20
95.7821019626
 30
0.0
 40
0.5
100
AcDbArc
 50
270.0
 51
345.9637565321
  0
LINE
  5
1D1
330
1F
100
AcDbEntity
  8
0
  6
Continuous
 62
     7
370
    25
100
AcDbLine
 10
62.3695309894
 20
95.2821019626
 30
0.0
 11
70.4791427862
 21
95.2821019626
 31
0.0
  0
ARC
  5
1D2
330
1F
100
AcDbEntity
  8
0
  6
Continuous
 62
     7
370
    25
100
AcDbCircle
 10
62.3695309894
 20
95.7821019626
 30
0.0
 40
0.5
100
AcDbArc
 50
180.0
 51
270.0
  0
LINE
  5
1D3
330
1F
100
AcDbEntity
  8
0
  6
Continuous
 62
     7
370
    25
100
AcDbLine
 10
61.8695309894
 20
95.7821019626
 30
0.0
 11
61.8695309894
 21
107.1266147222
 31
0.0
  0
LINE
  5
1D4
330
1F
100
AcDbEntity
  8
0
  6
Continuous
 62
     7
370
    25
100
AcDbLine
 10
145.8695309894
 20
107.1266147222
 30
0.0
 11
145.2771594425
 21
124.0899163772
 31
0.0
  0
LINE
  5
1D5
330
1F
100
AcDbEntity
  8
0
  6
Continuous
 62
     7
370
    25
100
AcDbLine
 10
145.8695309894
 20
95.7821019626
 30
0.0
 11
145.8695309894
 21
107.1266147222
 31
0.0
  0
LINE
  5
1D6
330
1F
100
AcDbEntity
  8
0
  6
Continuous
 62
     7
370
    25
100
AcDbLine
 10
62.4619025363
 20
124.0899163772
 30
0.0
 11
61.8695309894
 21
107.1266147222
 31
0.0
  0
LINE
  5
1D7
330
1F
100
AcDbEntity
  8
0
  6
Continuous
 62
     7
370
    25
100
AcDbLine
 10
62.6195309894
 20
128.6038046844
 30
0.0
 11
145.1195309894
 21
128.6038046844
 31
0.0
  0
LINE
  5
1D8
330
1F
100
AcDbEntity
  8
0
  6
Continuous
 62
     7
370
    25
100
AcDbLine
 10
145.1952962493
 20
126.4341715132
 30
0.0
 11
145.1195309894
 21
128.6038046844
 31
0.0
  0
LINE
  5
1D9
330
1F
100
AcDbEntity
  8
0
  6
Continuous
 62
     7
370
    25
100
AcDbLine
 10
62.6195309894
 20
128.6038046844
 30
0.0
 11
62.5437657296
 21
126.4341715132
 31
0.0
  0
LINE
  5
1DA
330
1F
100
AcDbEntity
  8
0
  6
Continuous
 62
     7
370
    25
100
AcDbLine
 10
145.8695309894
 20
143.2821019626
 30
0.0
 11
145.8695309894
 21
125.2821019626
 31
0.0
  0
LINE
  5
1DB
330
1F
100
AcDbEntity
  8
0
  6
Continuous
 62
     7
370
    25
100
AcDbLine
 10
61.8695309894
 20
143.2821019626
 30
0.0
 11
61.8695309894
 21
125.2821019626
 31
0.0
  0
DIMENSION
  5
1DC
330
1F
100
AcDbEntity
  8
FORMAT
100
AcDbDimension
  2
_D
 10
15.3483683727
 20
143.2821019626
 30
0.0
 11
15.3483683727
 21
134.2821019626
 31
0.0
 70
   160
  1
%%c<>
 71
     2
 42
-1.0
  3
SLDDIMSTYLE0
100
AcDbAlignedDimension
 13
24.0695309894
 23
125.2821019626
 33
0.0
 14
24.0695309894
 24
143.2821019626
 34
0.0
 50
90.0
100
AcDbRotatedDimension
  0
DIMENSION
  5
1E8
330
1F
100
AcDbEntity
  8
FORMAT
100
AcDbDimension
  2
_D_1
 10
103.8695309894
 20
85.2821019626
 30
0.0
 11
89.8695309894
 21
85.2821019626
 31
0.0
 70
   160
  1
<>
 71
     2
 42
-1.0
  3
SLDDIMSTYLE0
100
AcDbAlignedDimension
 13
75.8695309894
 23
99.7821019626
 33
0.0
 14
103.8695309894
 24
93.7821019626
 34
0.0
100
AcDbRotatedDimension
  0
DIMENSION
  5
1F2
330
1F
100
AcDbEntity
  8
FORMAT
100
AcDbDimension
  2
_D_2
 10
103.8695309894
 20
85.2821019626
 30
0.0
 11
117.8695309894
 21
85.2821019626
 31
0.0
 70
   160
  1
<>
 71
     2
 42
-1.0
  3
SLDDIMSTYLE0
100
AcDbAlignedDimension
 13
131.8695309894
 23
99.7821019626
 33
0.0
 14
103.8695309894
 24
93.7821019626
 34
0.0
100
AcDbRotatedDimension
  0
DIMENSION
  5
1FC
330
1F
100
AcDbEntity
  8
FORMAT
100
AcDbDimension
  2
_D_3
 10
145.8695309894
 20
73.2821019626
 30
0.0
 11
103.8695309894
 21
73.2821019626
 31
0.0
 70
   160
  1
<>
 71
     2
 42
-1.0
  3
SLDDIMSTYLE0
100
AcDbAlignedDimension
 13
61.8695309894
 23
95.7821019626
 33
0.0
 14
145.8695309894
 24
95.7821019626
 34
0.0
100
AcDbRotatedDimension
  0
DIMENSION
  5
206
330
1F
100
AcDbEntity
  8
FORMAT
100
AcDbDimension
  2
_D_4
 10
69.8695309894
 20
175.7821019626
 30
0.0
 11
49.8289473968
 21
175.7821019626
 31
0.0
 70
   160
  1
<>
 71
     2
 42
-1.0
  3
SLDDIMSTYLE0
100
AcDbAlignedDimension
 13
35.8695309894
 23
166.7821019626
 33
0.0
 14
69.8695309894
 24
160.7821019626
 34
0.0
100
AcDbRotatedDimension
  0
DIMENSION
  5
210
330
1F
100
AcDbEntity
  8
FORMAT
100
AcDbDimension
  2
_D_5
 10
103.8695309894
 20
175.7821019626
 30
0.0
 11
86.8695309894
 21
175.7821019626
 31
0.0
 70
   160
  1
<>
 71
     2
 42
-1.0
  3
SLDDIMSTYLE0
100
AcDbAlignedDimension
 13
69.8695309894
 23
160.7821019626
 33
0.0
 14
103.8695309894
 24
166.7821019626
 34
0.0
100
AcDbRotatedDimension
  0
DIMENSION
  5
21A
330
1F
100
AcDbEntity
  8
FORMAT
100
AcDbDimension
  2
_D_6
 10
137.8695309894
 20
175.7821019626
 30
0.0
 11
120.8695309894
 21
175.7821019626
 31
0.0
 70
   160
  1
<>
 71
     2
 42
-1.0
  3
SLDDIMSTYLE0
100
AcDbAlignedDimension
 13
103.8695309894
 23
166.7821019626
 33
0.0
 14
137.8695309894
 24
160.7821019626
 34
0.0
100
AcDbRotatedDimension
  0
DIMENSION
  5
224
330
1F
100
AcDbEntity
  8
FORMAT
100
AcDbDimension
  2
_D_7
 10
171.8695309894
 20
175.7821019626
 30
0.0
 11
157.8718901026
 21
175.7821019626
 31
0.0
 70
   160
  1
<>
 71
     2
 42
-1.0
  3
SLDDIMSTYLE0
100
AcDbAlignedDimension
 13
137.8695309894
 23
160.7821019626
 33
0.0
 14
171.8695309894
 24
166.7821019626
 34
0.0
100
AcDbRotatedDimension
  0
DIMENSION
  5
22E
330
1F
100
AcDbEntity
  8
FORMAT
100
AcDbDimension
  2
_D_8
 10
16.1483683727
 20
158.7821019626
 30
0.0
 11
16.1483683727
 21
162.2821019626
 31
0.0
 70
   160
  1
<>
 71
     2
 42
-1.0
  3
SLDDIMSTYLE1
100
AcDbAlignedDimension
 13
35.8695309894
 23
165.7821019626
 33
0.0
 14
27.8695309894
 24
158.7821019626
 34
0.0
 50
90.0
100
AcDbRotatedDimension
  0
DIMENSION
  5
23B
330
1F
100
AcDbEntity
  8
FORMAT
100
AcDbDimension
  2
_D_9
 10
87.8883618631
 20
165.7821019626
 30
0.0
 11
87.8883618631
 21
159.2821019626
 31
0.0
 70
   160
  1
<>
 71
     2
 42
-1.0
  3
SLDDIMSTYLE0
100
AcDbAlignedDimension
 13
77.8695309894
 23
152.7821019626
 33
0.0
 14
35.8695309894
 24
165.7821019626
 34
0.0
 50
90.0
100
AcDbRotatedDimension
  0
DIMENSION
  5
244
330
1F
100
AcDbEntity
  8
FORMAT
100
AcDbDimension
  2
_D_10
 10
95.6125702946
 20
158.7821019626
 30
0.0
 11
95.6125702946
 21
162.2821019626
 31
0.0
 70
   160
  1
<>
 71
     2
 42
-1.0
  3
SLDDIMSTYLE1
100
AcDbAlignedDimension
 13
35.8695309894
 23
165.7821019626
 33
0.0
 14
95.8695309894
 24
158.7821019626
 34
0.0
 50
90.0
100
AcDbRotatedDimension
  0
DIMENSION
  5
24F
330
1F
100
AcDbEntity
  8
FORMAT
100
AcDbDimension
  2
_D_11
 10
171.8695309894
 20
153.7821019626
 30
0.0
 11
192.6255149084
 21
171.4443433579
 31
0.0
 70
   164
  1
<>
 71
     1
 42
-1.0
  3
SLDDIMSTYLE2
100
AcDbRadialDimension
 15
181.00853114
 25
161.5589056921
 35
0.0
 40
0.0
  0
DIMENSION
  5
257
330
1F
100
AcDbEntity
  8
FORMAT
100
AcDbDimension
  2
_D_12
 10
103.8695309894
 20
181.7821019626
 30
0.0
 11
78.8695309894
 21
181.7821019626
 31
0.0
 70
   160
  1
<>
 71
     2
 42
-1.0
  3
SLDDIMSTYLE0
100
AcDbAlignedDimension
 13
53.8695309894
 23
155.7821019626
 33
0.0
 14
103.8695309894
 24
166.7821019626
 34
0.0
100
AcDbRotatedDimension
  0
DIMENSION
  5
262
330
1F
100
AcDbEntity
  8
FORMAT
100
AcDbDimension
  2
_D_13
 10
153.8695309894
 20
181.7821019626
 30
0.0
 11
128.8695309894
 21
181.7821019626
 31
0.0
 70
   160
  1
<>
 71
     2
 42
-1.0
  3
SLDDIMSTYLE0
100
AcDbAlignedDimension
 13
103.8695309894
 23
166.7821019626
 33
0.0
 14
153.8695309894
 24
164.7821019626
 34
0.0
100
AcDbRotatedDimension
  0
DIMENSION
  5
26D
330
1F
100
AcDbEntity
  8
FORMAT
100
AcDbDimension
  2
_D_14
 10
79.5170459288
 20
155.7821019626
 30
0.0
 11
79.5170459288
 21
160.7821019626
 31
0.0
 70
   160
  1
<>
 71
     2
 42
-1.0
  3
SLDDIMSTYLE0
100
AcDbAlignedDimension
 13
35.8695309894
 23
165.7821019626
 33
0.0
 14
53.8695309894
 24
155.7821019626
 34
0.0
 50
90.0
100
AcDbRotatedDimension
  0
DIMENSION
  5
276
330
1F
100
AcDbEntity
  8
FORMAT
100
AcDbDimension
  2
_D_15
 10
23.8695309894
 20
189.7636364334
 30
0.0
 11
103.8695309894
 21
189.7636364334
 31
0.0
 70
   160
  1
<>
 71
     2
 42
-1.0
  3
SLDDIMSTYLE0
100
AcDbAlignedDimension
 13
183.8695309894
 23
153.7821019626
 33
0.0
 14
23.8695309894
 24
153.7821019626
 34
0.0
100
AcDbRotatedDimension
  0
MTEXT
  5
284
330
1F
100
AcDbEntity
  8
FORMAT
100
AcDbMText
 10
99.1621755398
 20
117.1849640288
 30
0.0
 40
3.5
 41
0.0
 71
     1
 72
     1
  1
BBL
  7
SLDTEXTSTYLE0
 11
-3.491481338843133E-15
 21
1.0
 31
0.0
 73
     1
 44
1.0
  0
INSERT
  5
290
330
1F
100
AcDbEntity
  8
FORMAT
100
AcDbBlockReference
  2
SW_CENTERMARKSYMBOL_0
 10
35.8695309894
 20
158.7821019626
 30
0.0
  0
INSERT
  5
29C
330
1F
100
AcDbEntity
  8
FORMAT
100
AcDbBlockReference
  2
SW_CENTERMARKSYMBOL_1
 10
69.8695309894
 20
152.7821019626
 30
0.0
  0
INSERT
  5
2A8
330
1F
100
AcDbEntity
  8
FORMAT
100
AcDbBlockReference
  2
SW_CENTERMARKSYMBOL_2
 10
103.8695309894
 20
158.7821019626
 30
0.0
  0
INSERT
  5
2B4
330
1F
100
AcDbEntity
  8
FORMAT
100
AcDbBlockReference
  2
SW_CENTERMARKSYMBOL_3
 10
137.8695309894
 20
152.7821019626
 30
0.0
  0
INSERT
  5
2C0
330
1F
100
AcDbEntity
  8
FORMAT
100
AcDbBlockReference
  2
SW_CENTERMARKSYMBOL_4
 10
171.8695309894
 20
158.7821019626
 30
0.0
  0
INSERT
  5
2CC
330
1F
100
AcDbEntity
  8
FORMAT
100
AcDbBlockReference
  2
SW_CENTERMARKSYMBOL_5
 10
153.8695309894
 20
155.7821019626
 30
0.0
  0
INSERT
  5
2D8
330
1F
100
AcDbEntity
  8
FORMAT
100
AcDbBlockReference
  2
SW_CENTERMARKSYMBOL_6
 10
53.8695309894
 20
155.7821019626
 30
0.0
  0
LINE
  5
2D9
330
1F
100
AcDbEntity
  8
FORMAT
  6
CENTERX2
370
    18
100
AcDbLine
 10
103.8695309894
 20
93.7821019626
 30
0.0
 11
103.8695309894
 21
171.4290052307
 31
0.0
  0
LINE
  5
2DA
330
1F
100
AcDbEntity
  8
FORMAT
  6
CENTERX2
370
    18
100
AcDbLine
 10
75.8695309894
 20
116.3443380335
 30
0.0
 11
75.8695309894
 21
99.7821019626
 31
0.0
  0
LINE
  5
2DB
330
1F
100
AcDbEntity
  8
FORMAT
  6
CENTERX2
370
    18
100
AcDbLine
 10
131.8695309894
 20
116.9452616756
 30
0.0
 11
131.8695309894
 21
99.7821019626
 31
0.0
  0
LINE
  5
2DC
330
1F
100
AcDbEntity
  8
FORMAT
  6
CENTERX2
370
    18
100
AcDbLine
 10
186.2113992466
 20
134.2821019626
 30
0.0
 11
21.8695309894
 21
134.2821019626
 31
0.0
  0
LINE
  5
2DD
330
1F
100
AcDbEntity
  8
0
  6
CENTER
 62
     7
370
    18
100
AcDbLine
 10
192.7185572177
 20
161.7821019626
 30
0.0
 11
187.7185572177
 21
158.8953506166
 31
0.0
  0
LINE
  5
2DE
330
1F
100
AcDbEntity
  8
0
  6
CENTER
 62
     7
370
    18
100
AcDbLine
 10
187.7185572177
 20
152.6688533085
 30
0.0
 11
192.7185572177
 21
149.7821019626
 31
0.0
  0
LINE
  5
2DF
330
1F
100
AcDbEntity
  8
0
  6
CENTER
 62
     7
370
    18
100
AcDbLine
 10
192.7185572177
 20
149.7821019626
 30
0.0
 11
247.7185572177
 21
149.7821019626
 31
0.0
  0
LINE
  5
2E0
330
1F
100
AcDbEntity
  8
0
  6
CENTER
 62
     7
370
    18
100
AcDbLine
 10
247.7185572177
 20
161.7821019626
 30
0.0
 11
192.7185572177
 21
161.7821019626
 31
0.0
  0
LINE
  5
2E1
330
1F
100
AcDbEntity
  8
0
  6
Continuous
 62
     7
370
    25
100
AcDbLine
 10
250.7185572177
 20
151.5491964428
 30
0.0
 11
250.7185572177
 21
145.2821019626
 31
0.0
  0
LINE
  5
2E2
330
1F
100
AcDbEntity
  8
0
  6
Continuous
 62
     7
370
    25
100
AcDbLine
 10
247.7185572177
 20
145.2821019626
 30
0.0
 11
250.7185572177
 21
145.2821019626
 31
0.0
  0
LINE
  5
2E3
330
1F
100
AcDbEntity
  8
0
  6
Continuous
 62
     7
370
    25
100
AcDbLine
 10
247.7185572177
 20
153.5704435685
 30
0.0
 11
247.7185572177
 21
145.2821019626
 31
0.0
  0
ARC
  5
2E4
330
1F
100
AcDbEntity
  8
0
  6
Continuous
 62
     7
370
    18
100
AcDbCircle
 10
253.1950838629
 20
158.4619087626
 30
0.0
 40
7.342940544543501
100
AcDbArc
 50
221.7702483396
 51
250.289588329
  0
LINE
  5
2E5
330
1F
100
AcDbEntity
  8
0
  6
Continuous
 62
     7
370
    25
100
AcDbLine
 10
266.9218271177
 20
139.0214056823
 30
0.0
 11
268.8803434646
 21
141.2938963245
 31
0.0
  0
LINE
  5
2E6
330
1F
100
AcDbEntity
  8
0
  6
Continuous
 62
     7
370
    25
100
AcDbLine
 10
263.8592468959
 20
141.6608504029
 30
0.0
 11
266.9218271177
 21
139.0214056823
 31
0.0
  0
LINE
  5
2E7
330
1F
100
AcDbEntity
  8
0
  6
Continuous
 62
     7
370
    25
100
AcDbLine
 10
263.8592468959
 20
141.6608504029
 30
0.0
 11
265.8177632429
 21
143.9333410451
 31
0.0
  0
LINE
  5
2E8
330
1F
100
AcDbEntity
  8
0
  6
Continuous
 62
     7
370
    25
100
AcDbLine
 10
265.8177632429
 20
143.9333410451
 30
0.0
 11
268.8803434646
 21
141.2938963245
 31
0.0
  0
ARC
  5
2E9
330
1F
100
AcDbEntity
  8
0
  6
Continuous
 62
     7
370
    25
100
AcDbCircle
 10
251.2185572177
 20
145.2821019626
 30
0.0
 40
3.5
100
AcDbArc
 50
180.0
 51
205.3769335252
  0
ARC
  5
2EA
330
1F
100
AcDbEntity
  8
0
  6
Continuous
 62
     7
370
    25
100
AcDbCircle
 10
251.2185572177
 20
145.2821019626
 30
0.0
 40
0.5000000000000284
100
AcDbArc
 50
180.0
 51
270.0
  0
LINE
  5
2EB
330
1F
100
AcDbEntity
  8
0
  6
Continuous
 62
     7
370
    25
100
AcDbLine
 10
251.2185572177
 20
143.7821019626
 30
0.0
 11
248.0562795575
 21
143.7821019626
 31
0.0
  0
LINE
  5
2EC
330
1F
100
AcDbEntity
  8
0
  6
Continuous
 62
     7
370
    25
100
AcDbLine
 10
263.5328275048
 20
144.7821019626
 30
0.0
 11
251.2185572177
 21
144.7821019626
 31
0.0
  0
LINE
  5
2ED
330
1F
100
AcDbEntity
  8
0
  6
Continuous
 62
     7
370
    25
100
AcDbLine
 10
263.5328275048
 20
143.7821019626
 30
0.0
 11
251.2185572177
 21
143.7821019626
 31
0.0
  0
LINE
  5
2EE
330
1F
100
AcDbEntity
  8
0
  6
Continuous
 62
     7
370
    25
100
AcDbLine
 10
263.5328275048
 20
141.7821019626
 30
0.0
 11
251.2185572177
 21
141.7821019626
 31
0.0
  0
ARC
  5
2EF
330
1F
100
AcDbEntity
  8
0
  6
Continuous
 62
     7
370
    25
100
AcDbCircle
 10
251.2185572177
 20
145.2821019626
 30
0.0
 40
3.5
100
AcDbArc
 50
205.3769335252
 51
270.0
  0
LINE
  5
2F0
330
1F
100
AcDbEntity
  8
0
  6
Continuous
 62
     7
370
    25
100
AcDbLine
 10
263.5328275048
 20
141.7821019626
 30
0.0
 11
263.5328275048
 21
143.7821019626
 31
0.0
  0
ARC
  5
2F1
330
1F
100
AcDbEntity
  8
0
  6
Continuous
 62
     7
370
    25
100
AcDbCircle
 10
263.5328275048
 20
141.2821019626
 30
0.0
 40
3.500000000000012
100
AcDbArc
 50
49.2440225849
 51
90.0
  0
ARC
  5
2F2
330
1F
100
AcDbEntity
  8
0
  6
Continuous
 62
     7
370
    25
100
AcDbCircle
 10
263.5328275048
 20
141.2821019626
 30
0.0
 40
0.5
100
AcDbArc
 50
49.2440225849
 51
90.0
  0
LINE
  5
2F3
330
1F
100
AcDbEntity
  8
0
  6
Continuous
 62
     7
370
    25
100
AcDbLine
 10
247.7185572177
 20
165.7821019626
 30
0.0
 11
248.7386541988
 21
165.7821019626
 31
0.0
  0
ARC
  5
2F4
330
1F
100
AcDbEntity
  8
0
  6
Continuous
 62
     7
370
    18
100
AcDbCircle
 10
255.1562461006
 20
158.4901298652
 30
0.0
 40
9.713822259361587
100
AcDbArc
 50
131.3506840013
 51
139.9676125207
  0
LINE
  5
2F5
330
1F
100
AcDbEntity
  8
0
  6
Continuous
 62
     7
370
    25
100
AcDbLine
 10
247.7185572177
 20
165.7821019626
 30
0.0
 11
247.7185572177
 21
164.7382597429
 31
0.0
  0
LINE
  5
2F6
330
1F
100
AcDbEntity
  8
0
  6
Continuous
 62
     7
370
    25
100
AcDbLine
 10
247.7185572177
 20
162.0321019626
 30
0.0
 11
248.4685572177
 21
162.0321019626
 31
0.0
  0
LINE
  5
2F7
330
1F
100
AcDbEntity
  8
0
  6
Continuous
 62
     7
370
    25
100
AcDbLine
 10
248.4685572177
 20
155.5321019626
 30
0.0
 11
248.4685572177
 21
162.0321019626
 31
0.0
  0
LINE
  5
2F8
330
1F
100
AcDbEntity
  8
0
  6
Continuous
 62
     7
370
    25
100
AcDbLine
 10
248.4685572177
 20
155.5321019626
 30
0.0
 11
247.7185572177
 21
155.5321019626
 31
0.0
  0
LINE
  5
2F9
330
1F
100
AcDbEntity
  8
0
  6
Continuous
 62
     7
370
    25
100
AcDbLine
 10
247.7185572177
 20
161.7821019626
 30
0.0
 11
247.7185572177
 21
162.0321019626
 31
0.0
  0
LINE
  5
2FA
330
1F
100
AcDbEntity
  8
0
  6
Continuous
 62
     7
370
    25
100
AcDbLine
 10
250.7185572177
 20
153.2821019626
 30
0.0
 11
248.4685572177
 21
155.5321019626
 31
0.0
  0
LINE
  5
2FB
330
1F
100
AcDbEntity
  8
0
  6
Continuous
 62
     7
370
    25
100
AcDbLine
 10
250.7185572177
 20
151.5491964428
 30
0.0
 11
250.7185572177
 21
153.2821019626
 31
0.0
  0
LINE
  5
2FC
330
1F
100
AcDbEntity
  8
0
  6
Continuous
 62
     7
370
    25
100
AcDbLine
 10
248.4685572177
 20
162.0321019626
 30
0.0
 11
250.7185572177
 21
164.2821019626
 31
0.0
  0
LINE
  5
2FD
330
1F
100
AcDbEntity
  8
0
  6
Continuous
 62
     7
370
    25
100
AcDbLine
 10
250.7185572177
 20
153.2821019626
 30
0.0
 11
250.7185572177
 21
164.2821019626
 31
0.0
  0
LINE
  5
2FE
330
1F
100
AcDbEntity
  8
0
  6
Continuous
 62
     7
370
    25
100
AcDbLine
 10
248.7386541768
 20
165.7821019432
 30
0.0
 11
250.7185572177
 21
165.7821019626
 31
0.0
  0
LINE
  5
2FF
330
1F
100
AcDbEntity
  8
0
  6
Continuous
 62
     7
370
    25
100
AcDbLine
 10
250.7185572177
 20
164.2821019626
 30
0.0
 11
250.7185572177
 21
165.7821019626
 31
0.0
  0
LINE
  5
300
330
1F
100
AcDbEntity
  8
0
  6
Continuous
 62
     7
370
    25
100
AcDbLine
 10
247.7185572177
 20
162.0321019626
 30
0.0
 11
247.7185572069
 21
164.7382597299
 31
0.0
  0
LINE
  5
301
330
1F
100
AcDbEntity
  8
0
  6
CENTER
 62
     7
370
    18
100
AcDbLine
 10
187.7185572177
 20
154.5617608
 30
0.0
 11
187.7185572177
 21
158.8953506166
 31
0.0
  0
LINE
  5
302
330
1F
100
AcDbEntity
  8
0
  6
CENTER
 62
     7
370
    18
100
AcDbLine
 10
187.7185572177
 20
152.6688533085
 30
0.0
 11
187.7185572177
 21
154.5617608
 31
0.0
  0
LINE
  5
303
330
1F
100
AcDbEntity
  8
0
  6
CENTER
 62
     7
370
    18
100
AcDbLine
 10
192.7185572177
 20
153.4302027766
 30
0.0
 11
192.7185572177
 21
161.7821019626
 31
0.0
  0
LINE
  5
304
330
1F
100
AcDbEntity
  8
0
  6
CENTER
 62
     7
370
    18
100
AcDbLine
 10
192.7185572177
 20
149.7821019626
 30
0.0
 11
192.7185572177
 21
153.4302027766
 31
0.0
  0
LINE
  5
305
330
1F
100
AcDbEntity
  8
0
  6
CENTER
 62
     7
370
    18
100
AcDbLine
 10
247.7185572177
 20
153.5704435685
 30
0.0
 11
247.7185572177
 21
161.7821019626
 31
0.0
  0
CIRCLE
  5
306
330
1F
100
AcDbEntity
  8
0
  6
Continuous
 62
     7
370
    25
100
AcDbCircle
 10
274.7185572177
 20
134.2821019626
 30
0.0
 40
8.800000000000002
  0
CIRCLE
  5
307
330
1F
100
AcDbEntity
  8
0
  6
Continuous
 62
     7
370
    25
100
AcDbCircle
 10
274.7185572177
 20
134.2821019626
 30
0.0
 40
9.000000000000012
  0
ARC
  5
308
330
1F
100
AcDbEntity
  8
0
  6
Continuous
 62
     7
370
    25
100
AcDbCircle
 10
281.2185572177
 20
124.0899163772
 30
0.0
 40
0.5000000000000059
100
AcDbArc
 50
0.0
 51
42.0506415119
  0
LINE
  5
309
330
1F
100
AcDbEntity
  8
0
  6
Continuous
 62
     7
370
    25
100
AcDbLine
 10
279.6328121781
 20
126.5944431392
 30
0.0
 11
281.5898337761
 21
124.424809968
 31
0.0
  0
LINE
  5
30A
330
1F
100
AcDbEntity
  8
0
  6
Continuous
 62
     7
370
    25
100
AcDbLine
 10
281.8604715284
 20
128.6038046844
 30
0.0
 11
279.6328121781
 21
126.5944431392
 31
0.0
  0
LINE
  5
30B
330
1F
100
AcDbEntity
  8
0
  6
Continuous
 62
     7
370
    25
100
AcDbLine
 10
281.8604715284
 20
128.6038046844
 30
0.0
 11
283.8174931263
 21
126.4341715132
 31
0.0
  0
ARC
  5
30C
330
1F
100
AcDbEntity
  8
0
  6
Continuous
 62
     7
370
    25
100
AcDbCircle
 10
281.2185572177
 20
124.0899163772
 30
0.0
 40
3.500000000000008
100
AcDbArc
 50
0.0
 51
42.0506415119
  0
LINE
  5
30D
330
1F
100
AcDbEntity
  8
0
  6
Continuous
 62
     7
370
    25
100
AcDbLine
 10
284.7185572177
 20
124.0899163772
 30
0.0
 11
284.7185572177
 21
107.1266147222
 31
0.0
  0
LINE
  5
30E
330
1F
100
AcDbEntity
  8
0
  6
Continuous
 62
     7
370
    25
100
AcDbLine
 10
284.7185572177
 20
107.1266147222
 30
0.0
 11
281.7185572177
 21
107.1266147222
 31
0.0
  0
LINE
  5
30F
330
1F
100
AcDbEntity
  8
0
  6
Continuous
 62
     7
370
    25
100
AcDbLine
 10
281.7185572177
 20
124.0899163772
 30
0.0
 11
281.7185572177
 21
107.1266147222
 31
0.0
  0
LINE
  5
310
330
1F
100
AcDbEntity
  8
0
  6
Continuous
 62
     7
370
    25
100
AcDbLine
 10
284.7185572177
 20
95.7821019626
 30
0.0
 11
284.7185572177
 21
107.1266147222
 31
0.0
  0
LINE
  5
311
330
1F
100
AcDbEntity
  8
0
  6
Continuous
 62
     7
370
    25
100
AcDbLine
 10
281.7185572177
 20
95.7821019626
 30
0.0
 11
281.7185572177
 21
107.1266147222
 31
0.0
  0
LINE
  5
312
330
1F
100
AcDbEntity
  8
0
  6
Continuous
 62
     7
370
    25
100
AcDbLine
 10
284.7185572177
 20
95.2821019626
 30
0.0
 11
281.7185572177
 21
95.2821019626
 31
0.0
  0
LINE
  5
313
330
1F
100
AcDbEntity
  8
0
  6
Continuous
 62
     7
370
    25
100
AcDbLine
 10
284.7185572177
 20
95.7821019626
 30
0.0
 11
284.7185572177
 21
95.2821019626
 31
0.0
  0
LINE
  5
314
330
1F
100
AcDbEntity
  8
0
  6
Continuous
 62
     7
370
    25
100
AcDbLine
 10
281.7185572177
 20
95.2821019626
 30
0.0
 11
281.7185572177
 21
95.7821019626
 31
0.0
  0
HATCH
  5
315
330
1F
100
AcDbEntity
  8
0
  6
Continuous
 62
     7
370
    18
100
AcDbHatch
 10
0.0
 20
0.0
 30
0.0
210
0.0
220
0.0
230
1.0
  2
ANSI31
 70
     0
 71
     0
 91
        1
 92
        0
 93
        3
 72
     4
 94
        3
 73
     1
 74
     0
 95
       11
 96
        7
 40
0.0
 40
0.0
 40
0.0
 40
0.0
 40
0.0018070812714874
 40
0.0018070812714874
 40
0.0018070812714874
 40
0.0043120550115594
 40
0.0043120550115594
 40
0.0043120550115594
 40
0.0043120550115594
 10
247.7185572177044
 20
153.5704435684542
 42
1.0
 10
248.1087362278856
 20
153.1366558537766
 42
1.0
 10
248.5430306847482
 20
152.7579876329655
 42
1.0
 10
248.9689548582294
 20
152.4570714395213
 42
1.0
 10
249.5585390745779
 20
152.0405291318886
 42
1.0
 10
250.148210418604
 20
151.7602441248362
 42
1.0
 10
250.7185572177065
 20
151.5491964427787
 42
1.0
 72
     4
 94
        3
 73
     1
 74
     0
 95
        8
 96
        4
 40
0.0
 40
0.0
 40
0.0
 40
0.0
 40
0.0033456124068291
 40
0.0033456124068291
 40
0.0033456124068291
 40
0.0033456124068291
 10
250.7185572177064
 20
151.5491964427787
 42
1.0
 10
249.9343687474343
 20
151.839372804262
 42
1.0
 10
249.1418643274924
 20
152.2761358689303
 42
1.0
 10
248.4685572177064
 20
152.8437687558366
 42
1.0
 72
     4
 94
        3
 73
     1
 74
     0
 95
        8
 96
        4
 40
0.0
 40
0.0
 40
0.0
 40
0.0
 40
0.001048744054497
 40
0.001048744054497
 40
0.001048744054497
 40
0.001048744054497
 10
248.4685572177064
 20
152.8437687558366
 42
1.0
 10
248.2013032320243
 20
153.069077755586
 42
1.0
 10
247.9484009509277
 20
153.3149111457317
 42
1.0
 10
247.7185572177064
 20
153.570443568454
 42
1.0
 97
        0
 75
     0
 76
     1
 52
0.0
 41
0.25
 77
     0
 78
     1
 53
45.0
 43
0.0
 44
0.0
 45
-0.5612660075668221
 46
0.5612660075668221
 79
     0
 98
        1
 10
0.0
 20
0.0
  0
HATCH
  5
316
330
1F
100
AcDbEntity
  8
0
  6
Continuous
 62
     7
370
    18
100
AcDbHatch
 10
0.0
 20
0.0
 30
0.0
210
0.0
220
0.0
230
1.0
  2
ANSI31
 70
     0
 71
     0
 91
        1
 92
        0
 93
        2
 72
     4
 94
        3
 73
     1
 74
     0
 95
       11
 96
        7
 40
0.0
 40
0.0
 40
0.0
 40
0.0
 40
0.002682256304881
 40
0.002682256304881
 40
0.002682256304881
 40
0.0036307386040832
 40
0.0036307386040832
 40
0.0036307386040832
 40
0.0036307386040832
 10
247.7185572177066
 20
153.5704435684537
 42
1.0
 10
248.3164227227956
 20
152.9057570928368
 42
1.0
 10
249.0430754055356
 20
152.3376732152177
 42
1.0
 10
249.8369114012891
 20
151.9312403436107
 42
1.0
 10
250.1219562719506
 20
151.7853013764442
 42
1.0
 10
250.4181159515967
 20
151.6603699128615
 42
1.0
 10
250.7185572177066
 20
151.5491964427786
 42
1.0
 72
     4
 94
        3
 73
     1
 74
     0
 95
       11
 96
        7
 40
0.0
 40
0.0
 40
0.0
 40
0.0
 40
0.0025347213942085
 40
0.0025347213942085
 40
0.0025347213942085
 40
0.0043039819325944
 40
0.0043039819325944
 40
0.0043039819325944
 40
0.0043039819325944
 10
250.7185572177065
 20
151.5491964427787
 42
1.0
 10
250.1406235504231
 20
151.7630515236787
 42
1.0
 10
249.5424298269896
 20
152.0483877538339
 42
1.0
 10
248.9450368835701
 20
152.4740413997132
 42
1.0
 10
248.5269947475951
 20
152.7719042406942
 42
1.0
 10
248.1015375027421
 20
153.144659150848
 42
1.0
 10
247.7185572177064
 20
153.5704435684542
 42
1.0
 97
        0
 75
     0
 76
     1
 52
0.0
 41
0.25
 77
     0
 78
     1
 53
45.0
 43
0.0
 44
0.0
 45
-0.5612660075668221
 46
0.5612660075668221
 79
     0
 98
        1
 10
0.0
 20
0.0
  0
HATCH
  5
317
330
1F
100
AcDbEntity
  8
0
  6
Continuous
 62
     7
370
    18
100
AcDbHatch
 10
0.0
 20
0.0
 30
0.0
210
0.0
220
0.0
230
1.0
  2
ANSI31
 70
     0
 71
     0
 91
        1
 92
        0
 93
        2
 72
     4
 94
        3
 73
     1
 74
     0
 95
       11
 96
        7
 40
0.0
 40
0.0
 40
0.0
 40
0.0
 40
0.0018070812714874
 40
0.0018070812714874
 40
0.0018070812714874
 40
0.0043120550115595
 40
0.0043120550115595
 40
0.0043120550115595
 40
0.0043120550115595
 10
247.718557217704
 20
153.5704435684546
 42
1.0
 10
248.1087362278853
 20
153.1366558537769
 42
1.0
 10
248.5430306847478
 20
152.7579876329658
 42
1.0
 10
248.9689548582291
 20
152.4570714395215
 42
1.0
 10
249.5585390745775
 20
152.0405291318888
 42
1.0
 10
250.1482104186037
 20
151.7602441248364
 42
1.0
 10
250.7185572177061
 20
151.5491964427788
 42
1.0
 72
     4
 94
        3
 73
     1
 74
     0
 95
        9
 96
        5
 40
0.4905863456277195
 40
0.4905863456277195
 40
0.4905863456277195
 40
0.4905863456277195
 40
0.5024688489562102
 40
0.5496671247787782
 40
0.5496671247787782
 40
0.5496671247787782
 40
0.5496671247787782
 10
250.718557217697
 20
151.5491964427822
 42
1.0
 10
250.4896062422845
 20
151.6339160778214
 42
1.0
 10
249.3637764985888
 20
152.093053150025
 42
1.0
 10
248.3731987933527
 20
152.8426353945419
 42
1.0
 10
247.7185572189034
 20
153.5704435671233
 42
1.0
 97
        0
 75
     0
 76
     1
 52
0.0
 41
0.25
 77
     0
 78
     1
 53
45.0
 43
0.0
 44
0.0
 45
-0.5612660075668221
 46
0.5612660075668221
 79
     0
 98
        1
 10
0.0
 20
0.0
  0
HATCH
  5
318
330
1F
100
AcDbEntity
  8
0
  6
Continuous
 62
     7
370
    18
100
AcDbHatch
 10
0.0
 20
0.0
 30
0.0
210
0.0
220
0.0
230
1.0
  2
ANSI31
 70
     0
 71
     0
 91
        1
 92
        0
 93
        5
 72
     4
 94
        3
 73
     1
 74
     0
 95
        9
 96
        5
 40
0.4503328752212218
 40
0.4503328752212218
 40
0.4503328752212218
 40
0.4503328752212218
 40
0.4975311510437896
 40
0.5094136543723327
 40
0.5094136543723327
 40
0.5094136543723327
 40
0.5094136543723327
 10
247.7185572189034
 20
153.5704435671232
 42
1.0
 10
248.3731987933527
 20
152.8426353945419
 42
1.0
 10
249.3637764985897
 20
152.0930531500243
 42
1.0
 10
250.4896062422864
 20
151.6339160778206
 42
1.0
 10
250.7185572177
 20
151.5491964427811
 42
1.0
 72
     1
 10
250.718557217703
 20
151.54919644278
 11
250.7185572177061
 21
153.2821019625748
 72
     1
 10
250.7185572177061
 20
153.2821019625748
 11
248.4685572177061
 21
155.5321019625748
 72
     1
 10
248.4685572177061
 20
155.5321019625748
 11
247.7185572177061
 21
155.5321019625748
 72
     1
 10
247.7185572177061
 20
155.5321019625748
 11
247.7185572189034
 21
153.5704435671232
 97
        0
 75
     0
 76
     1
 52
0.0
 41
0.25
 77
     0
 78
     1
 53
45.0
 43
0.0
 44
0.0
 45
-0.5612660075668221
 46
0.5612660075668221
 79
     0
 98
        1
 10
0.0
 20
0.0
  0
HATCH
  5
319
330
1F
100
AcDbEntity
  8
0
  6
Continuous
 62
     7
370
    18
100
AcDbHatch
 10
0.0
 20
0.0
 30
0.0
210
0.0
220
0.0
230
1.0
  2
ANSI31
 70
     0
 71
     0
 91
        1
 92
        0
 93
        3
 72
     4
 94
        3
 73
     1
 74
     0
 95
        8
 96
        4
 40
0.0
 40
0.0
 40
0.0
 40
0.0
 40
0.0033456124068292
 40
0.0033456124068292
 40
0.0033456124068292
 40
0.0033456124068292
 10
248.4685572177062
 20
152.8437687558369
 42
1.0
 10
249.1418643274921
 20
152.2761358689305
 42
1.0
 10
249.934368747434
 20
151.8393728042621
 42
1.0
 10
250.7185572177061
 20
151.5491964427788
 42
1.0
 72
     4
 94
        3
 73
     1
 74
     0
 95
       11
 96
        7
 40
0.0
 40
0.0
 40
0.0
 40
0.0
 40
0.0025347213942083
 40
0.0025347213942083
 40
0.0025347213942083
 40
0.0043039819325944
 40
0.0043039819325944
 40
0.0043039819325944
 40
0.0043039819325944
 10
250.7185572177061
 20
151.5491964427788
 42
1.0
 10
250.1406235504228
 20
151.7630515236789
 42
1.0
 10
249.5424298269893
 20
152.048387753834
 42
1.0
 10
248.9450368835699
 20
152.4740413997133
 42
1.0
 10
248.5269947475948
 20
152.7719042406944
 42
1.0
 10
248.1015375027418
 20
153.1446591508484
 42
1.0
 10
247.7185572177061
 20
153.5704435684546
 42
1.0
 72
     4
 94
        3
 73
     1
 74
     0
 95
        8
 96
        4
 40
0.0
 40
0.0
 40
0.0
 40
0.0
 40
0.0010487440544971
 40
0.0010487440544971
 40
0.0010487440544971
 40
0.0010487440544971
 10
247.7185572177062
 20
153.5704435684542
 42
1.0
 10
247.9484009509274
 20
153.3149111457319
 42
1.0
 10
248.201303232024
 20
153.0690777555862
 42
1.0
 10
248.4685572177062
 20
152.8437687558369
 42
1.0
 97
        0
 75
     0
 76
     1
 52
0.0
 41
0.25
 77
     0
 78
     1
 53
45.0
 43
0.0
 44
0.0
 45
-0.5612660075668221
 46
0.5612660075668221
 79
     0
 98
        1
 10
0.0
 20
0.0
  0
HATCH
  5
31A
330
1F
100
AcDbEntity
  8
0
  6
Continuous
 62
     7
370
    18
100
AcDbHatch
 10
0.0
 20
0.0
 30
0.0
210
0.0
220
0.0
230
1.0
  2
ANSI31
 70
     0
 71
     0
 91
        1
 92
        0
 93
        4
 72
     4
 94
        3
 73
     1
 74
     0
 95
        8
 96
        4
 40
0.0
 40
0.0
 40
0.0
 40
0.0
 40
0.001048744054497
 40
0.001048744054497
 40
0.001048744054497
 40
0.001048744054497
 10
247.7185572177064
 20
153.570443568454
 42
1.0
 10
247.9484009509277
 20
153.3149111457317
 42
1.0
 10
248.2013032320242
 20
153.069077755586
 42
1.0
 10
248.4685572177064
 20
152.8437687558367
 42
1.0
 72
     4
 94
        3
 73
     1
 74
     0
 95
        8
 96
        4
 40
0.0
 40
0.0
 40
0.0
 40
0.0
 40
0.0033456124068291
 40
0.0033456124068291
 40
0.0033456124068291
 40
0.0033456124068291
 10
248.4685572177064
 20
152.8437687558367
 42
1.0
 10
249.1418643274924
 20
152.2761358689303
 42
1.0
 10
249.9343687474342
 20
151.839372804262
 42
1.0
 10
250.7185572177064
 20
151.5491964427787
 42
1.0
 72
     4
 94
        3
 73
     1
 74
     0
 95
        8
 96
        4
 40
0.0
 40
0.0
 40
0.0
 40
0.0
 40
0.0033456124068292
 40
0.0033456124068292
 40
0.0033456124068292
 40
0.0033456124068292
 10
250.7185572177062
 20
151.5491964427788
 42
1.0
 10
249.934368747434
 20
151.8393728042621
 42
1.0
 10
249.1418643274921
 20
152.2761358689305
 42
1.0
 10
248.4685572177062
 20
152.8437687558368
 42
1.0
 72
     4
 94
        3
 73
     1
 74
     0
 95
        8
 96
        4
 40
0.0
 40
0.0
 40
0.0
 40
0.0
 40
0.0010487440544971
 40
0.0010487440544971
 40
0.0010487440544971
 40
0.0010487440544971
 10
248.4685572177062
 20
152.8437687558368
 42
1.0
 10
248.201303232024
 20
153.0690777555862
 42
1.0
 10
247.9484009509275
 20
153.3149111457319
 42
1.0
 10
247.7185572177062
 20
153.5704435684542
 42
1.0
 97
        0
 75
     0
 76
     1
 52
0.0
 41
0.25
 77
     0
 78
     1
 53
45.0
 43
0.0
 44
0.0
 45
-0.5612660075668221
 46
0.5612660075668221
 79
     0
 98
        1
 10
0.0
 20
0.0
  0
HATCH
  5
31B
330
1F
100
AcDbEntity
  8
0
  6
Continuous
 62
     7
370
    18
100
AcDbHatch
 10
0.0
 20
0.0
 30
0.0
210
0.0
220
0.0
230
1.0
  2
ANSI31
 70
     0
 71
     0
 91
        1
 92
        0
 93
        4
 72
     1
 10
247.7185572177065
 20
164.7382597428749
 11
247.7185572069072
 21
164.7382597299404
 72
     4
 94
        3
 73
     1
 74
     0
 95
        8
 96
        4
 40
0.7453228075228263
 40
0.7453228075228263
 40
0.7453228075228263
 40
0.7453228075228263
 40
0.7696758778669108
 40
0.7696758778669108
 40
0.7696758778669108
 40
0.7696758778669108
 10
247.7185572069089
 20
164.7382597299424
 42
1.0
 10
248.0279400535869
 20
165.1088100214805
 42
1.0
 10
248.3690357171579
 20
165.4563340448341
 42
1.0
 10
248.7386541767821
 20
165.7821019431725
 42
1.0
 72
     1
 10
248.7386541767821
 20
165.7821019431725
 11
248.7386541987961
 21
165.7821019625748
 72
     4
 94
        3
 73
     1
 74
     0
 95
       11
 96
        7
 40
0.0
 40
0.0
 40
0.0
 40
0.0
 40
0.0026723619245879
 40
0.0026723619245879
 40
0.0026723619245879
 40
0.0051407579549224
 40
0.0051407579549224
 40
0.0051407579549224
 40
0.0051407579549224
 10
248.7386541987961
 20
165.7821019625748
 42
1.0
 10
248.7386541987961
 20
165.7821019625748
 42
1.0
 10
248.6184245962374
 20
165.6795973296605
 42
1.0
 10
248.4197889189165
 20
165.4887751630212
 42
1.0
 10
248.2353935339565
 20
165.3116331342027
 42
1.0
 10
247.9851626307926
 20
165.057575161383
 42
1.0
 10
247.7185572177065
 20
164.7382597428749
 42
1.0
 97
        0
 75
     0
 76
     1
 52
0.0
 41
0.25
 77
     0
 78
     1
 53
45.0
 43
0.0
 44
0.0
 45
-0.5612660075668221
 46
0.5612660075668221
 79
     0
 98
        1
 10
0.0
 20
0.0
  0
HATCH
  5
31C
330
1F
100
AcDbEntity
  8
0
  6
Continuous
 62
     7
370
    18
100
AcDbHatch
 10
0.0
 20
0.0
 30
0.0
210
0.0
220
0.0
230
1.0
  2
ANSI31
 70
     0
 71
     0
 91
        1
 92
        0
 93
        6
 72
     1
 10
247.7185572177061
 20
162.0321019625748
 11
248.4685572177061
 21
162.0321019625748
 72
     1
 10
248.4685572177061
 20
162.0321019625748
 11
250.7185572177061
 21
164.2821019625748
 72
     1
 10
250.7185572177061
 20
164.2821019625748
 11
250.7185572177061
 21
165.7821019625748
 72
     1
 10
250.7185572177061
 20
165.7821019625748
 11
248.7386541767821
 21
165.7821019431725
 72
     4
 94
        3
 73
     1
 74
     0
 95
        8
 96
        4
 40
0.230324122133089
 40
0.230324122133089
 40
0.230324122133089
 40
0.230324122133089
 40
0.2546771924771957
 40
0.2546771924771957
 40
0.2546771924771957
 40
0.2546771924771957
 10
248.7386541767821
 20
165.7821019431725
 42
1.0
 10
248.3690357171575
 20
165.4563340448338
 42
1.0
 10
248.0279400535863
 20
165.1088100214799
 42
1.0
 10
247.718557206908
 20
164.7382597299414
 42
1.0
 72
     1
 10
247.7185572069072
 20
164.7382597299404
 11
247.7185572177061
 21
162.0321019625748
 97
        0
 75
     0
 76
     1
 52
0.0
 41
0.25
 77
     0
 78
     1
 53
45.0
 43
0.0
 44
0.0
 45
-0.5612660075668221
 46
0.5612660075668221
 79
     0
 98
        1
 10
0.0
 20
0.0
  0
HATCH
  5
31D
330
1F
100
AcDbEntity
  8
0
  6
Continuous
 62
     7
370
    18
100
AcDbHatch
 10
0.0
 20
0.0
 30
0.0
210
0.0
220
0.0
230
1.0
  2
ANSI31
 70
     0
 71
     0
 91
        1
 92
        0
 93
        2
 72
     4
 94
        3
 73
     1
 74
     0
 95
       44
 96
       40
 40
0.0
 40
0.0
 40
0.0
 40
0.0
 40
0.0020049790571841
 40
0.0020049790571841
 40
0.0020049790571841
 40
0.0040347761781739
 40
0.0040347761781739
 40
0.0040347761781739
 40
0.0057598481666776
 40
0.0057598481666776
 40
0.0057598481666776
 40
0.0074825698442327
 40
0.0074825698442327
 40
0.0074825698442327
 40
0.0093635121949002
 40
0.0093635121949002
 40
0.0093635121949002
 40
0.0113887156987254
 40
0.0113887156987254
 40
0.0113887156987254
 40
0.0133821299587525
 40
0.0133821299587525
 40
0.0133821299587525
 40
0.0153155546884498
 40
0.0153155546884498
 40
0.0153155546884498
 40
0.017325464014008
 40
0.017325464014008
 40
0.017325464014008
 40
0.0193367713006158
 40
0.0193367713006158
 40
0.0193367713006158
 40
0.0211624350361964
 40
0.0211624350361964
 40
0.0211624350361964
 40
0.0228549034840208
 40
0.0228549034840208
 40
0.0228549034840208
 40
0.0242546395056113
 40
0.0242546395056113
 40
0.0242546395056113
 40
0.0242546395056113
 10
247.7185572177061
 20
153.5704435684544
 42
1.0
 10
247.2898585288147
 20
154.0470561480318
 42
1.0
 10
246.9063664078337
 20
154.5966957504875
 42
1.0
 10
246.6025213683515
 20
155.1890439944758
 42
1.0
 10
246.2964342088202
 20
155.7857632687634
 42
1.0
 10
246.0670660191956
 20
156.446006616786
 42
1.0
 10
245.9248511778045
 20
157.0882900212303
 42
1.0
 10
245.803299244968
 20
157.6372537473458
 42
1.0
 10
245.7401208859525
 20
158.1879458843312
 42
1.0
 10
245.7212060549703
 20
158.6909631022855
 42
1.0
 10
245.7022867632426
 20
159.1940989484108
 42
1.0
 10
245.7262042482805
 20
159.6625400725731
 42
1.0
 10
245.7695751546988
 20
160.0645327975941
 42
1.0
 10
245.8168850681516
 20
160.5030350701997
 42
1.0
 10
245.8879020815955
 20
160.8739066904019
 42
1.0
 10
245.9514843148497
 20
161.1524549103885
 42
1.0
 10
246.0197853160695
 20
161.4516756413911
 42
1.0
 10
246.079951608815
 20
161.6521396522999
 42
1.0
 10
246.1049454469997
 20
161.7357520735357
 42
1.0
 10
246.1295435235546
 20
161.8180405449301
 42
1.0
 10
246.1198519483945
 20
161.7889961982957
 42
1.0
 10
246.0802106761309
 20
161.6515096291745
 42
1.0
 10
246.041698739383
 20
161.5179398986558
 42
1.0
 10
245.9752889903389
 20
161.2792821218075
 42
1.0
 10
245.9084930124305
 20
160.9541708591588
 42
1.0
 10
245.8391293852112
 20
160.6165622615559
 42
1.0
 10
245.7684877604239
 20
160.1758997475043
 42
1.0
 10
245.7350212767064
 20
159.6661340260178
 42
1.0
 10
245.7016015806042
 20
159.157080979414
 42
1.0
 10
245.705573469657
 20
158.5619659169473
 42
1.0
 10
245.7799217924354
 20
157.9419561521629
 42
1.0
 10
245.8475188837965
 20
157.3782466406548
 42
1.0
 10
245.9763578543775
 20
156.7774390295635
 42
1.0
 10
246.17260483182
 20
156.2034184627511
 42
1.0
 10
246.3551403705049
 20
155.6695037255928
 42
1.0
 10
246.601587449494
 20
155.1460759314134
 42
1.0
 10
246.8946980486923
 20
154.6708287497395
 42
1.0
 10
247.1384934372872
 20
154.2755408561878
 42
1.0
 10
247.4168438604349
 20
153.9058781877527
 42
1.0
 10
247.7185572177061
 20
153.5704435684543
 42
1.0
 72
     4
 94
        3
 73
     1
 74
     0
 95
       35
 96
       31
 40
0.0
 40
0.0
 40
0.0
 40
0.0
 40
0.0025131283104893
 40
0.0025131283104893
 40
0.0025131283104893
 40
0.004068230903961
 40
0.004068230903961
 40
0.004068230903961
 40
0.0050767387777142
 40
0.0050767387777142
 40
0.0050767387777142
 40
0.0059999835908681
 40
0.0059999835908681
 40
0.0059999835908681
 40
0.0069191866835649
 40
0.0069191866835649
 40
0.0069191866835649
 40
0.007915433427549
 40
0.007915433427549
 40
0.007915433427549
 40
0.0089066922392233
 40
0.0089066922392233
 40
0.0089066922392233
 40
0.0100749720832807
 40
0.0100749720832807
 40
0.0100749720832807
 40
0.0114594138816794
 40
0.0114594138816794
 40
0.0114594138816794
 40
0.0140606825063956
 40
0.0140606825063956
 40
0.0140606825063956
 40
0.0140606825063956
 10
247.7185572177061
 20
153.5704435684543
 42
1.0
 10
247.1895143207497
 20
154.1586154158598
 42
1.0
 10
246.7309028153546
 20
154.8648813490093
 42
1.0
 10
246.412131594341
 20
155.5889342604023
 42
1.0
 10
246.2145501963697
 20
156.037718143663
 42
1.0
 10
246.0659556819052
 20
156.5010779177354
 42
1.0
 10
245.9652556366394
 20
156.9144738994679
 42
1.0
 10
245.8996113387319
 20
157.1839582766291
 42
1.0
 10
245.8526762574025
 20
157.4362846111058
 42
1.0
 10
245.820277298385
 20
157.6469151280922
 42
1.0
 10
245.7906287790382
 20
157.8396646221279
 42
1.0
 10
245.7723155500758
 20
158.0010967863542
 42
1.0
 10
245.7609632944894
 20
158.1139433170647
 42
1.0
 10
245.7496772673582
 20
158.2261315071178
 42
1.0
 10
245.7447536626376
 20
158.2925848835111
 42
1.0
 10
245.7437713847345
 20
158.3049449353223
 42
1.0
 10
245.7427096070691
 20
158.3183053366063
 42
1.0
 10
245.7461291473414
 20
158.2684129323129
 42
1.0
 10
245.7561930309907
 20
158.1626757410678
 42
1.0
 10
245.766225824782
 20
158.0572651984986
 42
1.0
 10
245.7834820210623
 20
157.8939913571701
 42
1.0
 10
245.8132659575713
 20
157.693312496616
 42
1.0
 10
245.8483212964888
 20
157.4571158653149
 42
1.0
 10
245.9023169331887
 20
157.1629178348038
 42
1.0
 10
245.9816334998293
 20
156.8484025525993
 42
1.0
 10
246.0757254984269
 20
156.4752980077922
 42
1.0
 10
246.2080720264343
 20
156.0653217253973
 42
1.0
 10
246.3794283393663
 20
155.6643271184366
 42
1.0
 10
246.699862904694
 20
154.9144712748932
 42
1.0
 10
247.1714005970741
 20
154.1787536359908
 42
1.0
 10
247.7185572177061
 20
153.5704435684544
 42
1.0
 97
        0
 75
     0
 76
     1
 52
90.0
 41
1.0
 77
     0
 78
     1
 53
135.0000000000002
 43
0.0
 44
0.0
 45
-2.245064030267281
 46
-2.245064030267296
 79
     0
 98
        1
 10
0.0
 20
0.0
  0
HATCH
  5
31E
330
1F
100
AcDbEntity
  8
0
  6
Continuous
 62
     7
370
    18
100
AcDbHatch
 10
0.0
 20
0.0
 30
0.0
210
0.0
220
0.0
230
1.0
  2
ANSI31
 70
     0
 71
     0
 91
        2
 92
        0
 93
        5
 72
     4
 94
        3
 73
     1
 74
     0
 95
       11
 96
        7
 40
0.0
 40
0.0
 40
0.0
 40
0.0
 40
0.0020139903942472
 40
0.0020139903942472
 40
0.0020139903942472
 40
0.0043952758051433
 40
0.0043952758051433
 40
0.0043952758051433
 40
0.0043952758051433
 10
247.2185572177065
 20
154.1879337483133
 42
1.0
 10
247.6066842742322
 20
153.6542540262212
 42
1.0
 10
248.0713717667801
 20
153.1691837034818
 42
1.0
 10
248.5423953860603
 20
152.7823258093987
 42
1.0
 10
249.0979240862897
 20
152.3260627808017
 42
1.0
 10
249.6720561022697
 20
151.9900637345341
 42
1.0
 10
250.2185572177064
 20
151.7501805344819
 42
1.0
 72
     4
 94
        3
 73
     1
 74
     0
 95
        8
 96
        4
 40
0.0
 40
0.0
 40
0.0
 40
0.0
 40
0.0003450859268444
 40
0.0003450859268444
 40
0.0003450859268444
 40
0.0003450859268444
 10
250.2185572177066
 20
151.7501805344815
 42
1.0
 10
250.317510022562
 20
151.706745828106
 42
1.0
 10
250.4176117291856
 20
151.6652982468104
 42
1.0
 10
250.5185572177066
 20
151.625525479359
 42
1.0
 72
     4
 94
        3
 73
     1
 74
     0
 95
        8
 96
        4
 40
0.0
 40
0.0
 40
0.0
 40
0.0
 40
0.0003450859268444
 40
0.0003450859268444
 40
0.0003450859268444
 40
0.0003450859268444
 10
250.5185572177065
 20
151.625525479359
 42
1.0
 10
250.4176117291855
 20
151.6652982468104
 42
1.0
 10
250.317510022562
 20
151.706745828106
 42
1.0
 10
250.2185572177065
 20
151.7501805344815
 42
1.0
 72
     4
 94
        3
 73
     1
 74
     0
 95
       14
 96
       10
 40
0.0
 40
0.0
 40
0.0
 40
0.0
 40
0.0006303639357383
 40
0.0006303639357383
 40
0.0006303639357383
 40
0.0026453904256929
 40
0.0026453904256929
 40
0.0026453904256929
 40
0.004435121067863
 40
0.004435121067863
 40
0.004435121067863
 40
0.004435121067863
 10
250.2185572177066
 20
151.7501805344814
 42
1.0
 10
250.0735260977492
 20
151.8138410251554
 42
1.0
 10
249.9275653944248
 20
151.8834680771679
 42
1.0
 10
249.7808369431472
 20
151.9602699136055
 42
1.0
 10
249.3171934078025
 20
152.2029541010066
 42
1.0
 10
248.8344366460744
 20
152.5231713395806
 42
1.0
 10
248.3723727755099
 20
152.9262573878704
 42
1.0
 10
247.9607429388227
 20
153.2853468012576
 42
1.0
 10
247.5605229531124
 20
153.7177264397324
 42
1.0
 10
247.2185572177065
 20
154.1879337483133
 42
1.0
 72
     4
 94
        3
 73
     1
 74
     0
 95
       44
 96
       40
 40
0.0
 40
0.0
 40
0.0
 40
0.0
 40
0.0007604708947779
 40
0.0007604708947779
 40
0.0007604708947779
 40
0.0017931074015572
 40
0.0017931074015572
 40
0.0017931074015572
 40
0.0027764560227118
 40
0.0027764560227118
 40
0.0027764560227118
 40
0.0037671765218764
 40
0.0037671765218764
 40
0.0037671765218764
 40
0.0047761027466478
 40
0.0047761027466478
 40
0.0047761027466478
 40
0.0057906652178351
 40
0.0057906652178351
 40
0.0057906652178351
 40
0.0068045106749911
 40
0.0068045106749911
 40
0.0068045106749911
 40
0.0078096418655611
 40
0.0078096418655611
 40
0.0078096418655611
 40
0.0087962326060124
 40
0.0087962326060124
 40
0.0087962326060124
 40
0.0097874745008874
 40
0.0097874745008874
 40
0.0097874745008874
 40
0.0108768578089556
 40
0.0108768578089556
 40
0.0108768578089556
 40
0.012156832172587
 40
0.012156832172587
 40
0.012156832172587
 40
0.0134236877738047
 40
0.0134236877738047
 40
0.0134236877738047
 40
0.0134236877738047
 10
247.2185572177065
 20
154.1879337483133
 42
1.0
 10
247.0855936623315
 20
154.3707603564764
 42
1.0
 10
246.9545108760385
 20
154.5682500883198
 42
1.0
 10
246.8306337589491
 20
154.7766184703911
 42
1.0
 10
246.663371940852
 20
155.0579623960335
 42
1.0
 10
246.5066720158774
 20
155.3647042299974
 42
1.0
 10
246.3729310915127
 20
155.6795775933365
 42
1.0
 10
246.2456804528221
 20
155.9791705323109
 42
1.0
 10
246.1362862072048
 20
156.2927092249042
 42
1.0
 10
246.0498196442406
 20
156.5949351416423
 42
1.0
 10
245.962803815235
 20
156.8990809037772
 42
1.0
 10
245.8966800079388
 20
157.199379885228
 42
1.0
 10
245.8497339944965
 20
157.4676900739908
 42
1.0
 10
245.8019444015694
 20
157.7408215660814
 42
1.0
 10
245.7722713916003
 20
157.9883610621091
 42
1.0
 10
245.753870555363
 20
158.1874343081255
 42
1.0
 10
245.735363320235
 20
158.3876586525093
 42
1.0
 10
245.7273171783902
 20
158.5446533310844
 42
1.0
 10
245.7230502075058
 20
158.6449438443861
 42
1.0
 10
245.7187857090192
 20
158.7451762466633
 42
1.0
 10
245.7179569961283
 20
158.79162420264
 42
1.0
 10
245.7182706839535
 20
158.7804301475609
 42
1.0
 10
245.7185817485862
 20
158.7693297019833
 42
1.0
 10
245.7200561255873
 20
158.701266537591
 42
1.0
 10
245.7259506373276
 20
158.5818146166946
 42
1.0
 10
245.7317385437779
 20
158.4645230454988
 42
1.0
 10
245.7421857942995
 20
158.2945287083572
 42
1.0
 10
245.7638360455798
 20
158.0858252247639
 42
1.0
 10
245.7855778493756
 20
157.8762391958053
 42
1.0
 10
245.8196082241598
 20
157.6217841577308
 42
1.0
 10
245.8720059842024
 20
157.3455152616509
 42
1.0
 10
245.9294228725057
 20
157.0427828483758
 42
1.0
 10
246.011382720329
 20
156.7044201986158
 42
1.0
 10
246.1183287552446
 20
156.3679861067942
 42
1.0
 10
246.243506859522
 20
155.9741970162333
 42
1.0
 10
246.4082666249221
 20
155.5693164651489
 42
1.0
 10
246.5966884878731
 20
155.2004391503226
 42
1.0
 10
246.7839972819253
 20
154.8337409131266
 42
1.0
 10
246.9992526405827
 20
154.4894803779676
 42
1.0
 10
247.2185572177065
 20
154.1879337483133
 42
1.0
 97
        0
 92
        0
 93
        2
 72
     4
 94
        3
 73
     1
 74
     0
 95
        8
 96
        4
 40
0.0
 40
0.0
 40
0.0
 40
0.0
 40
0.0011129107397544
 40
0.0011129107397544
 40
0.0011129107397544
 40
0.0011129107397544
 10
247.6783430289803
 20
153.615508812975
 42
1.0
 10
247.6233667636681
 20
153.6776084698974
 42
1.0
 10
247.5701487634857
 20
153.739753345133
 42
1.0
 10
247.5185572177065
 20
153.8019361561022
 42
1.0
 72
     4
 94
        3
 73
     1
 74
     0
 95
        8
 96
        4
 40
0.0
 40
0.0
 40
0.0
 40
0.0
 40
0.0002903772896823
 40
0.0002903772896823
 40
0.0002903772896823
 40
0.0002903772896823
 10
247.5185572177065
 20
153.8019361561022
 42
1.0
 10
247.5706138507705
 20
153.7391927797482
 42
1.0
 10
247.6238775938818
 20
153.6770314503265
 42
1.0
 10
247.6783430289803
 20
153.6155088129749
 42
1.0
 97
        0
 75
     0
 76
     1
 52
90.0
 41
1.0
 77
     0
 78
     1
 53
135.0000000000002
 43
0.0
 44
0.0
 45
-2.245064030267281
 46
-2.245064030267296
 79
     0
 98
        1
 10
0.0
 20
0.0
  0
HATCH
  5
31F
330
1F
100
AcDbEntity
  8
0
  6
Continuous
 62
     7
370
    18
100
AcDbHatch
 10
0.0
 20
0.0
 30
0.0
210
0.0
220
0.0
230
1.0
  2
ANSI31
 70
     0
 71
     0
 91
        2
 92
        0
 93
        5
 72
     4
 94
        3
 73
     1
 74
     0
 95
       11
 96
        7
 40
0.0
 40
0.0
 40
0.0
 40
0.0
 40
0.0020139903942466
 40
0.0020139903942466
 40
0.0020139903942466
 40
0.004395275805144
 40
0.004395275805144
 40
0.004395275805144
 40
0.004395275805144
 10
247.2185572177062
 20
154.1879337483138
 42
1.0
 10
247.6066842742317
 20
153.6542540262218
 42
1.0
 10
248.0713717667794
 20
153.1691837034825
 42
1.0
 10
248.5423953860594
 20
152.7823258093994
 42
1.0
 10
249.097924086289
 20
152.3260627808021
 42
1.0
 10
249.672056102269
 20
151.990063734535
 42
1.0
 10
250.2185572177059
 20
151.7501805344826
 42
1.0
 72
     4
 94
        3
 73
     1
 74
     0
 95
        8
 96
        4
 40
0.0
 40
0.0
 40
0.0
 40
0.0
 40
0.0003450859268446
 40
0.0003450859268446
 40
0.0003450859268446
 40
0.0003450859268446
 10
250.218557217706
 20
151.7501805344817
 42
1.0
 10
250.3175100225615
 20
151.7067458281062
 42
1.0
 10
250.4176117291852
 20
151.6652982468105
 42
1.0
 10
250.5185572177062
 20
151.6255254793591
 42
1.0
 72
     4
 94
        3
 73
     1
 74
     0
 95
        8
 96
        4
 40
0.0
 40
0.0
 40
0.0
 40
0.0
 40
0.0003450859268446
 40
0.0003450859268446
 40
0.0003450859268446
 40
0.0003450859268446
 10
250.5185572177062
 20
151.6255254793591
 42
1.0
 10
250.4176117291852
 20
151.6652982468105
 42
1.0
 10
250.3175100225616
 20
151.7067458281063
 42
1.0
 10
250.2185572177061
 20
151.7501805344818
 42
1.0
 72
     4
 94
        3
 73
     1
 74
     0
 95
       14
 96
       10
 40
0.0
 40
0.0
 40
0.0
 40
0.0
 40
0.0006303639357382
 40
0.0006303639357382
 40
0.0006303639357382
 40
0.0026453904256932
 40
0.0026453904256932
 40
0.0026453904256932
 40
0.0044351210678634
 40
0.0044351210678634
 40
0.0044351210678634
 40
0.0044351210678634
 10
250.2185572177065
 20
151.7501805344815
 42
1.0
 10
250.073526097749
 20
151.8138410251554
 42
1.0
 10
249.9275653944246
 20
151.8834680771679
 42
1.0
 10
249.7808369431471
 20
151.9602699136056
 42
1.0
 10
249.3171934078022
 20
152.2029541010067
 42
1.0
 10
248.834436646074
 20
152.5231713395809
 42
1.0
 10
248.3723727755094
 20
152.9262573878707
 42
1.0
 10
247.9607429388222
 20
153.285346801258
 42
1.0
 10
247.5605229531119
 20
153.7177264397328
 42
1.0
 10
247.2185572177062
 20
154.1879337483138
 42
1.0
 72
     4
 94
        3
 73
     1
 74
     0
 95
       44
 96
       40
 40
0.0
 40
0.0
 40
0.0
 40
0.0
 40
0.0007604708947768
 40
0.0007604708947768
 40
0.0007604708947768
 40
0.0017931074015562
 40
0.0017931074015562
 40
0.0017931074015562
 40
0.0027764560227108
 40
0.0027764560227108
 40
0.0027764560227108
 40
0.0037671765218754
 40
0.0037671765218754
 40
0.0037671765218754
 40
0.0047761027466468
 40
0.0047761027466468
 40
0.0047761027466468
 40
0.0057906652178342
 40
0.0057906652178342
 40
0.0057906652178342
 40
0.0068045106749901
 40
0.0068045106749901
 40
0.0068045106749901
 40
0.0078096418655601
 40
0.0078096418655601
 40
0.0078096418655601
 40
0.0087962326060115
 40
0.0087962326060115
 40
0.0087962326060115
 40
0.0097874745008864
 40
0.0097874745008864
 40
0.0097874745008864
 40
0.0108768578089546
 40
0.0108768578089546
 40
0.0108768578089546
 40
0.0121568321725859
 40
0.0121568321725859
 40
0.0121568321725859
 40
0.0134236877738035
 40
0.0134236877738035
 40
0.0134236877738035
 40
0.0134236877738035
 10
247.2185572177062
 20
154.1879337483138
 42
1.0
 10
247.0855936623313
 20
154.3707603564766
 42
1.0
 10
246.9545108760385
 20
154.5682500883198
 42
1.0
 10
246.8306337589493
 20
154.7766184703908
 42
1.0
 10
246.6633719408522
 20
155.0579623960331
 42
1.0
 10
246.5066720158775
 20
155.364704229997
 42
1.0
 10
246.3729310915128
 20
155.6795775933361
 42
1.0
 10
246.2456804528222
 20
155.9791705323105
 42
1.0
 10
246.1362862072049
 20
156.2927092249038
 42
1.0
 10
246.0498196442408
 20
156.5949351416419
 42
1.0
 10
245.9628038152351
 20
156.8990809037769
 42
1.0
 10
245.8966800079389
 20
157.1993798852277
 42
1.0
 10
245.8497339944966
 20
157.4676900739905
 42
1.0
 10
245.8019444015694
 20
157.7408215660811
 42
1.0
 10
245.7722713916004
 20
157.9883610621089
 42
1.0
 10
245.753870555363
 20
158.1874343081252
 42
1.0
 10
245.735363320235
 20
158.3876586525091
 42
1.0
 10
245.7273171783902
 20
158.5446533310842
 42
1.0
 10
245.7230502075058
 20
158.644943844386
 42
1.0
 10
245.7187857090192
 20
158.7451762466632
 42
1.0
 10
245.7179569961283
 20
158.79162420264
 42
1.0
 10
245.7182706839535
 20
158.7804301475609
 42
1.0
 10
245.7185817485862
 20
158.7693297019834
 42
1.0
 10
245.7200561255873
 20
158.7012665375911
 42
1.0
 10
245.7259506373276
 20
158.5818146166947
 42
1.0
 10
245.7317385437779
 20
158.4645230454989
 42
1.0
 10
245.7421857942995
 20
158.2945287083574
 42
1.0
 10
245.7638360455797
 20
158.0858252247641
 42
1.0
 10
245.7855778493755
 20
157.8762391958055
 42
1.0
 10
245.8196082241598
 20
157.6217841577311
 42
1.0
 10
245.8720059842023
 20
157.3455152616512
 42
1.0
 10
245.9294228725057
 20
157.0427828483762
 42
1.0
 10
246.0113827203289
 20
156.7044201986162
 42
1.0
 10
246.1183287552445
 20
156.3679861067945
 42
1.0
 10
246.2435068595218
 20
155.9741970162338
 42
1.0
 10
246.4082666249219
 20
155.5693164651493
 42
1.0
 10
246.5966884878728
 20
155.2004391503231
 42
1.0
 10
246.7839972819251
 20
154.8337409131271
 42
1.0
 10
246.9992526405824
 20
154.489480377968
 42
1.0
 10
247.2185572177062
 20
154.1879337483138
 42
1.0
 97
        0
 92
        0
 93
        2
 72
     4
 94
        3
 73
     1
 74
     0
 95
        8
 96
        4
 40
0.0
 40
0.0
 40
0.0
 40
0.0
 40
0.000379246590112
 40
0.000379246590112
 40
0.000379246590112
 40
0.000379246590112
 10
247.7201713513778
 20
153.5686495988946
 42
1.0
 10
247.6510040160559
 20
153.6454987098298
 42
1.0
 10
247.5838012220378
 20
153.7232981636378
 42
1.0
 10
247.5185572177062
 20
153.8019361561026
 42
1.0
 72
     4
 94
        3
 73
     1
 74
     0
 95
        8
 96
        4
 40
0.0
 40
0.0
 40
0.0
 40
0.0
 40
0.0010247419466422
 40
0.0010247419466422
 40
0.0010247419466422
 40
0.0010247419466422
 10
247.5185572177061
 20
153.8019361561028
 42
1.0
 10
247.5831726782501
 20
153.7240557416276
 42
1.0
 10
247.6502965045931
 20
153.6462847980403
 42
1.0
 10
247.7201713513771
 20
153.5686495988946
 42
1.0
 97
        0
 75
     0
 76
     1
 52
0.0
 41
1.0
 77
     0
 78
     1
 53
45.0
 43
0.0
 44
0.0
 45
-2.245064030267288
 46
2.245064030267288
 79
     0
 98
        1
 10
0.0
 20
0.0
  0
DIMENSION
  5
320
330
1F
100
AcDbEntity
  8
FORMAT
100
AcDbDimension
  2
_D_16
 10
235.4867513749
 20
141.7821019626
 30
0.0
 11
235.4867513749
 21
153.7821019529
 31
0.0
 70
   160
  1
<>
 71
     2
 42
-1.0
  3
SLDDIMSTYLE0
100
AcDbAlignedDimension
 13
248.7386541768
 23
165.7821019432
 33
0.0
 14
251.2185572177
 24
141.7821019626
 34
0.0
 50
90.0
100
AcDbRotatedDimension
  0
DIMENSION
  5
32B
330
1F
100
AcDbEntity
  8
FORMAT
100
AcDbDimension
  2
_D_17
 10
260.2813842715
 20
153.2821019626
 30
0.0
 11
260.2813842715
 21
158.7821019626
 31
0.0
 70
   160
  1
%%c<>
 71
     2
 42
-1.0
  3
SLDDIMSTYLE0
100
AcDbAlignedDimension
 13
250.7185572177
 23
164.2821019626
 33
0.0
 14
250.7185572177
 24
153.2821019626
 34
0.0
 50
90.0
100
AcDbRotatedDimension
  0
DIMENSION
  5
336
330
1F
100
AcDbEntity
  8
FORMAT
100
AcDbDimension
  2
_D_18
 10
250.7185572177
 20
164.2821019626
 30
0.0
 11
267.1318987274
 21
158.7821019626
 31
0.0
 70
   162
  1
<>
 71
     1
 42
-1.0
  3
SLDDIMSTYLE3
100
AcDb2LineAngularDimension
 13
250.7185572177
 23
153.2821019626
 33
0.0
 14
248.4685572177
 24
155.5321019626
 34
0.0
 15
248.4685572177
 25
162.0321019626
 35
0.0
 16
267.1318987274
 26
158.7821019626
 36
0.0
  0
DIMENSION
  5
341
330
1F
100
AcDbEntity
  8
FORMAT
100
AcDbDimension
  2
_D_19
 10
241.4082408253
 20
155.5321019626
 30
0.0
 11
241.4082408253
 21
172.183060773
 31
0.0
 70
   160
  1
%%c<>
 71
     2
 42
-1.0
  3
SLDDIMSTYLE1
100
AcDbAlignedDimension
 13
247.7185572177
 23
162.0321019626
 33
0.0
 14
247.7185572177
 24
155.5321019626
 34
0.0
 50
90.0
100
AcDbRotatedDimension
  0
INSERT
  5
359
330
1F
100
AcDbEntity
  8
FORMAT
100
AcDbBlockReference
  2
SW_CENTERMARKSYMBOL_7
 10
274.7185572177
 20
134.2821019626
 30
0.0
  0
LINE
  5
35A
330
1F
100
AcDbEntity
  8
FORMAT
  6
CENTERX2
370
    18
100
AcDbLine
 10
245.7185572177
 20
158.7821019626
 30
0.0
 11
248.4685572177
 21
158.7821019626
 31
0.0
  0
LINE
  5
35B
330
1F
100
AcDbEntity
  8
FORMAT
  6
CENTERX2
370
    18
100
AcDbLine
 10
252.7185572177
 20
158.7821019626
 30
0.0
 11
248.4685572177
 21
158.7821019626
 31
0.0
  0
LINE
  5
35C
330
1F
100
AcDbEntity
  8
FORMAT
  6
CENTERX2
370
    18
100
AcDbLine
 10
185.7185572177
 20
155.7821019626
 30
0.0
 11
249.7185572177
 21
155.7821019626
 31
0.0
  0
LINE
  5
35D
330
1F
100
AcDbEntity
  8
0
  6
CENTER
 62
     7
370
    18
100
AcDbLine
 10
192.7185572177
 20
80.558780322
 30
0.0
 11
241.1798980283
 21
80.558780322
 31
0.0
  0
LINE
  5
35E
330
1F
100
AcDbEntity
  8
0
  6
CENTER
 62
     7
370
    18
100
AcDbLine
 10
241.6083091585
 20
92.558780322
 30
0.0
 11
192.7185572177
 21
92.558780322
 31
0.0
  0
LINE
  5
35F
330
1F
100
AcDbEntity
  8
0
  6
CENTER
 62
     7
370
    18
100
AcDbLine
 10
192.7185572177
 20
92.558780322
 30
0.0
 11
187.7185572177
 21
89.6720289761
 31
0.0
  0
LINE
  5
360
330
1F
100
AcDbEntity
  8
0
  6
CENTER
 62
     7
370
    18
100
AcDbLine
 10
187.7185572177
 20
83.445531668
 30
0.0
 11
192.7185572177
 21
80.558780322
 31
0.0
  0
LINE
  5
361
330
1F
100
AcDbEntity
  8
0
  6
CENTER
 62
     7
370
    18
100
AcDbLine
 10
241.1798980283
 20
80.558780322
 30
0.0
 11
247.7185572177
 21
80.558780322
 31
0.0
  0
LINE
  5
362
330
1F
100
AcDbEntity
  8
0
  6
CENTER
 62
     7
370
    18
100
AcDbLine
 10
247.7185572177
 20
92.558780322
 30
0.0
 11
241.6083091585
 21
92.558780322
 31
0.0
  0
LINE
  5
363
330
1F
100
AcDbEntity
  8
0
  6
CENTER
 62
     7
370
    18
100
AcDbLine
 10
192.7185572177
 20
84.2068811361
 30
0.0
 11
192.7185572177
 21
92.558780322
 31
0.0
  0
LINE
  5
364
330
1F
100
AcDbEntity
  8
0
  6
CENTER
 62
     7
370
    18
100
AcDbLine
 10
192.7185572177
 20
80.558780322
 30
0.0
 11
192.7185572177
 21
84.2068811361
 31
0.0
  0
LINE
  5
365
330
1F
100
AcDbEntity
  8
0
  6
CENTER
 62
     7
370
    18
100
AcDbLine
 10
187.7185572177
 20
85.3384391595
 30
0.0
 11
187.7185572177
 21
89.6720289761
 31
0.0
  0
LINE
  5
366
330
1F
100
AcDbEntity
  8
0
  6
CENTER
 62
     7
370
    18
100
AcDbLine
 10
187.7185572177
 20
83.445531668
 30
0.0
 11
187.7185572177
 21
85.3384391595
 31
0.0
  0
LINE
  5
367
330
1F
100
AcDbEntity
  8
0
  6
Continuous
 62
     7
370
    25
100
AcDbLine
 10
266.9218271177
 20
69.7980840418
 30
0.0
 11
268.8803434646
 21
72.070574684
 31
0.0
  0
LINE
  5
368
330
1F
100
AcDbEntity
  8
0
  6
Continuous
 62
     7
370
    25
100
AcDbLine
 10
263.8592468959
 20
72.4375287624
 30
0.0
 11
266.9218271177
 21
69.7980840418
 31
0.0
  0
LINE
  5
369
330
1F
100
AcDbEntity
  8
0
  6
Continuous
 62
     7
370
    25
100
AcDbLine
 10
263.8592468959
 20
72.4375287624
 30
0.0
 11
265.8177632429
 21
74.7100194046
 31
0.0
  0
LINE
  5
36A
330
1F
100
AcDbEntity
  8
0
  6
Continuous
 62
     7
370
    25
100
AcDbLine
 10
265.8177632429
 20
74.7100194046
 30
0.0
 11
268.8803434646
 21
72.070574684
 31
0.0
  0
LINE
  5
36B
330
1F
100
AcDbEntity
  8
0
  6
Continuous
 62
     7
370
    25
100
AcDbLine
 10
250.7185572177
 20
76.4051987103
 30
0.0
 11
250.7185572177
 21
76.058780322
 31
0.0
  0
LINE
  5
36C
330
1F
100
AcDbEntity
  8
0
  6
Continuous
 62
     7
370
    25
100
AcDbLine
 10
247.7185572177
 20
76.058780322
 30
0.0
 11
250.7185572177
 21
76.058780322
 31
0.0
  0
LINE
  5
36D
330
1F
100
AcDbEntity
  8
0
  6
Continuous
 62
     7
370
    25
100
AcDbLine
 10
247.7185572177
 20
76.097603215
 30
0.0
 11
247.7185572177
 21
76.058780322
 31
0.0
  0
LWPOLYLINE
  5
36E
330
1F
100
AcDbEntity
  8
0
  6
Continuous
 62
     7
370
    18
100
AcDbPolyline
 90
        3
 70
   128
 43
0.0
 10
247.7185572177
 20
76.097603215
 10
249.214091229
 20
76.1543544295
 10
250.7185572177
 20
76.4051987103
  0
ARC
  5
36F
330
1F
100
AcDbEntity
  8
0
  6
Continuous
 62
     7
370
    25
100
AcDbCircle
 10
263.5328275048
 20
72.058780322
 30
0.0
 40
0.5000000000000236
100
AcDbArc
 50
49.2440225849
 51
90.0
  0
LINE
  5
370
330
1F
100
AcDbEntity
  8
0
  6
Continuous
 62
     7
370
    25
100
AcDbLine
 10
263.5328275048
 20
72.558780322
 30
0.0
 11
263.5328275048
 21
74.558780322
 31
0.0
  0
ARC
  5
371
330
1F
100
AcDbEntity
  8
0
  6
Continuous
 62
     7
370
    25
100
AcDbCircle
 10
263.5328275048
 20
72.058780322
 30
0.0
 40
3.500000000000028
100
AcDbArc
 50
49.2440225849
 51
90.0
  0
LINE
  5
372
330
1F
100
AcDbEntity
  8
0
  6
Continuous
 62
     7
370
    25
100
AcDbLine
 10
263.5328275048
 20
75.558780322
 30
0.0
 11
251.2185572177
 21
75.558780322
 31
0.0
  0
LINE
  5
373
330
1F
100
AcDbEntity
  8
0
  6
Continuous
 62
     7
370
    25
100
AcDbLine
 10
263.5328275048
 20
74.558780322
 30
0.0
 11
251.2185572177
 21
74.558780322
 31
0.0
  0
LINE
  5
374
330
1F
100
AcDbEntity
  8
0
  6
Continuous
 62
     7
370
    25
100
AcDbLine
 10
251.2185572177
 20
74.558780322
 30
0.0
 11
248.0562795575
 21
74.558780322
 31
0.0
  0
LINE
  5
375
330
1F
100
AcDbEntity
  8
0
  6
Continuous
 62
     7
370
    25
100
AcDbLine
 10
263.5328275048
 20
72.558780322
 30
0.0
 11
251.2185572177
 21
72.558780322
 31
0.0
  0
ARC
  5
376
330
1F
100
AcDbEntity
  8
0
  6
Continuous
 62
     7
370
    25
100
AcDbCircle
 10
251.2185572177
 20
76.058780322
 30
0.0
 40
3.500000000000014
100
AcDbArc
 50
205.3769335252
 51
270.0
  0
ARC
  5
377
330
1F
100
AcDbEntity
  8
0
  6
Continuous
 62
     7
370
    25
100
AcDbCircle
 10
251.2185572177
 20
76.058780322
 30
0.0
 40
3.5
100
AcDbArc
 50
180.0
 51
205.3769335252
  0
ARC
  5
378
330
1F
100
AcDbEntity
  8
0
  6
Continuous
 62
     7
370
    25
100
AcDbCircle
 10
251.2185572177
 20
76.058780322
 30
0.0
 40
0.5000000000000142
100
AcDbArc
 50
180.0
 51
270.0
  0
LINE
  5
379
330
1F
100
AcDbEntity
  8
0
  6
Continuous
 62
     7
370
    25
100
AcDbLine
 10
247.7185572177
 20
83.058780322
 30
0.0
 11
250.7185572177
 21
80.058780322
 31
0.0
  0
LINE
  5
37A
330
1F
100
AcDbEntity
  8
0
  6
Continuous
 62
     7
370
    25
100
AcDbLine
 10
247.7185572177
 20
80.558780322
 30
0.0
 11
247.7185572177
 21
76.097603215
 31
0.0
  0
LINE
  5
37B
330
1F
100
AcDbEntity
  8
0
  6
Continuous
 62
     7
370
    25
100
AcDbLine
 10
250.7185572177
 20
80.058780322
 30
0.0
 11
250.7185572179
 21
76.4051987104
 31
0.0
  0
LINE
  5
37C
330
1F
100
AcDbEntity
  8
0
  6
Continuous
 62
     7
370
    25
100
AcDbLine
 10
250.7185572177
 20
93.058780322
 30
0.0
 11
247.7185572177
 21
90.058780322
 31
0.0
  0
LINE
  5
37D
330
1F
100
AcDbEntity
  8
0
  6
Continuous
 62
     7
370
    25
100
AcDbLine
 10
250.7185572177
 20
80.058780322
 30
0.0
 11
250.7185572177
 21
93.058780322
 31
0.0
  0
LINE
  5
37E
330
1F
100
AcDbEntity
  8
0
  6
Continuous
 62
     7
370
    25
100
AcDbLine
 10
250.7185572177
 20
96.558780322
 30
0.0
 11
247.7185572177
 21
96.558780322
 31
0.0
  0
LINE
  5
37F
330
1F
100
AcDbEntity
  8
0
  6
Continuous
 62
     7
370
    25
100
AcDbLine
 10
247.7185572177
 20
96.558780322
 30
0.0
 11
247.7185572177
 21
92.558780322
 31
0.0
  0
LINE
  5
380
330
1F
100
AcDbEntity
  8
0
  6
Continuous
 62
     7
370
    25
100
AcDbLine
 10
250.7185572177
 20
96.558780322
 30
0.0
 11
250.7185572177
 21
93.058780322
 31
0.0
  0
LINE
  5
381
330
1F
100
AcDbEntity
  8
0
  6
CENTER
 62
     7
370
    18
100
AcDbLine
 10
247.7185572177
 20
80.558780322
 30
0.0
 11
247.7185572177
 21
92.558780322
 31
0.0
  0
CIRCLE
  5
382
330
1F
100
AcDbEntity
  8
0
  6
Continuous
 62
     7
370
    25
100
AcDbCircle
 10
274.7185572177
 20
65.058780322
 30
0.0
 40
8.8
  0
CIRCLE
  5
383
330
1F
100
AcDbEntity
  8
0
  6
Continuous
 62
     7
370
    25
100
AcDbCircle
 10
274.7185572177
 20
65.058780322
 30
0.0
 40
9.000000000000012
  0
ARC
  5
384
330
1F
100
AcDbEntity
  8
0
  6
Continuous
 62
     7
370
    25
100
AcDbCircle
 10
268.2185572177
 20
75.2509659075
 30
0.0
 40
0.5000000000000481
100
AcDbArc
 50
180.0
 51
222.0506415119
  0
LINE
  5
385
330
1F
100
AcDbEntity
  8
0
  6
Continuous
 62
     7
370
    25
100
AcDbLine
 10
269.8043022573
 20
72.7464391454
 30
0.0
 11
267.8472806593
 21
74.9160723166
 31
0.0
  0
LINE
  5
386
330
1F
100
AcDbEntity
  8
0
  6
Continuous
 62
     7
370
    25
100
AcDbLine
 10
268.2704027841
 20
71.3628529991
 30
0.0
 11
269.8043022573
 21
72.7464391454
 31
0.0
  0
LINE
  5
387
330
1F
100
AcDbEntity
  8
0
  6
Continuous
 62
     7
370
    25
100
AcDbLine
 10
264.7185572177
 20
75.3518100893
 30
0.0
 11
264.7185572177
 21
92.2142675624
 31
0.0
  0
LINE
  5
388
330
1F
100
AcDbEntity
  8
0
  6
Continuous
 62
     7
370
    25
100
AcDbLine
 10
264.7185572177
 20
92.2142675624
 30
0.0
 11
267.7185572177
 21
92.2142675624
 31
0.0
  0
LINE
  5
389
330
1F
100
AcDbEntity
  8
0
  6
Continuous
 62
     7
370
    25
100
AcDbLine
 10
267.7185572177
 20
75.2509659075
 30
0.0
 11
267.7185572177
 21
92.2142675624
 31
0.0
  0
LINE
  5
38A
330
1F
100
AcDbEntity
  8
0
  6
Continuous
 62
     7
370
    25
100
AcDbLine
 10
264.7185572177
 20
103.558780322
 30
0.0
 11
264.7185572177
 21
92.2142675624
 31
0.0
  0
LINE
  5
38B
330
1F
100
AcDbEntity
  8
0
  6
Continuous
 62
     7
370
    25
100
AcDbLine
 10
267.7185572177
 20
103.558780322
 30
0.0
 11
267.7185572177
 21
92.2142675624
 31
0.0
  0
LINE
  5
38C
330
1F
100
AcDbEntity
  8
0
  6
Continuous
 62
     7
370
    25
100
AcDbLine
 10
264.7185572177
 20
104.058780322
 30
0.0
 11
267.7185572177
 21
104.058780322
 31
0.0
  0
LINE
  5
38D
330
1F
100
AcDbEntity
  8
0
  6
Continuous
 62
     7
370
    25
100
AcDbLine
 10
264.7185572177
 20
103.558780322
 30
0.0
 11
264.7185572177
 21
104.058780322
 31
0.0
  0
LINE
  5
38E
330
1F
100
AcDbEntity
  8
0
  6
Continuous
 62
     7
370
    25
100
AcDbLine
 10
267.7185572177
 20
104.058780322
 30
0.0
 11
267.7185572177
 21
103.558780322
 31
0.0
  0
HATCH
  5
38F
330
1F
100
AcDbEntity
  8
0
  6
Continuous
 62
     7
370
    18
100
AcDbHatch
 10
0.0
 20
0.0
 30
0.0
210
0.0
220
0.0
230
1.0
  2
ANSI31
 70
     0
 71
     0
 91
        1
 92
        0
 93
        4
 72
     1
 10
247.7185572177067
 20
83.05878032205011
 11
247.7185572177056
 21
76.09760321499921
 72
     4
 94
        3
 73
     1
 74
     0
 95
        8
 96
        4
 40
0.6559959109695452
 40
0.6559959109695452
 40
0.6559959109695452
 40
0.6559959109695452
 40
0.6984239671036054
 40
0.6984239671036054
 40
0.6984239671036054
 40
0.6984239671036054
 10
247.7185572177056
 20
76.09760321499921
 42
1.0
 10
248.7248644199817
 20
76.07370581533051
 42
1.0
 10
249.7525473865715
 20
76.17556948382683
 42
1.0
 10
250.7185572178902
 20
76.40519871035478
 42
1.0
 72
     1
 10
250.7185572178902
 20
76.40519871035478
 11
250.7185572177067
 21
80.0587803220501
 72
     1
 10
250.7185572177067
 20
80.0587803220501
 11
247.7185572177067
 21
83.05878032205011
 97
        0
 75
     0
 76
     1
 52
0.0
 41
1.0
 77
     0
 78
     1
 53
45.0
 43
0.0
 44
0.0
 45
-2.245064030267288
 46
2.245064030267288
 79
     0
 98
        1
 10
0.0
 20
0.0
  0
HATCH
  5
390
330
1F
100
AcDbEntity
  8
0
  6
Continuous
 62
     7
370
    18
100
AcDbHatch
 10
0.0
 20
0.0
 30
0.0
210
0.0
220
0.0
230
1.0
  2
ANSI31
 70
     0
 71
     0
 91
        1
 92
        0
 93
        2
 72
     4
 94
        3
 73
     1
 74
     0
 95
        8
 96
        4
 40
0.0
 40
0.0
 40
0.0
 40
0.0
 40
0.0030301392671805
 40
0.0030301392671805
 40
0.0030301392671805
 40
0.0030301392671805
 10
247.7185572177062
 20
76.0976032149993
 42
1.0
 10
248.728037714421
 20
76.07363045714452
 42
1.0
 10
249.7576818679169
 20
76.1767899962472
 42
1.0
 10
250.7185572177063
 20
76.40519871031103
 42
1.0
 72
     4
 94
        3
 73
     1
 74
     0
 95
        8
 96
        4
 40
0.3015760328963945
 40
0.3015760328963945
 40
0.3015760328963945
 40
0.3015760328963945
 40
0.3440040890304546
 40
0.3440040890304546
 40
0.3440040890304546
 40
0.3440040890304546
 10
250.7185572178902
 20
76.40519871035478
 42
1.0
 10
249.7525473865716
 20
76.17556948382683
 42
1.0
 10
248.7248644199817
 20
76.07370581533051
 42
1.0
 10
247.7185572177056
 20
76.09760321499921
 42
1.0
 97
        0
 75
     0
 76
     1
 52
0.0
 41
1.0
 77
     0
 78
     1
 53
45.0
 43
0.0
 44
0.0
 45
-2.245064030267288
 46
2.245064030267288
 79
     0
 98
        1
 10
0.0
 20
0.0
  0
HATCH
  5
391
330
1F
100
AcDbEntity
  8
0
  6
Continuous
 62
     7
370
    18
100
AcDbHatch
 10
0.0
 20
0.0
 30
0.0
210
0.0
220
0.0
230
1.0
  2
ANSI31
 70
     0
 71
     0
 91
        1
 92
        0
 93
        4
 72
     1
 10
247.7185572177068
 20
96.55878032205013
 11
247.7185572177068
 21
90.05878032205011
 72
     1
 10
247.7185572177068
 20
90.05878032205011
 11
250.7185572177068
 21
93.0587803220501
 72
     1
 10
250.7185572177068
 20
93.0587803220501
 11
250.7185572177068
 21
96.55878032205011
 72
     1
 10
250.7185572177068
 20
96.55878032205011
 11
247.7185572177068
 21
96.55878032205013
 97
        0
 75
     0
 76
     1
 52
0.0
 41
1.0
 77
     0
 78
     1
 53
45.0
 43
0.0
 44
0.0
 45
-2.245064030267288
 46
2.245064030267288
 79
     0
 98
        1
 10
0.0
 20
0.0
  0
HATCH
  5
392
330
1F
100
AcDbEntity
  8
0
  6
Continuous
 62
     7
370
    18
100
AcDbHatch
 10
0.0
 20
0.0
 30
0.0
210
0.0
220
0.0
230
1.0
  2
ANSI31
 70
     0
 71
     0
 91
        2
 92
        0
 93
        1
 72
     4
 94
        3
 73
     1
 74
     0
 95
       62
 96
       58
 40
0.0
 40
0.0
 40
0.0
 40
0.0
 40
0.0019879541124171
 40
0.0019879541124171
 40
0.0019879541124171
 40
0.003976072245404
 40
0.003976072245404
 40
0.003976072245404
 40
0.0059682163226634
 40
0.0059682163226634
 40
0.0059682163226634
 40
0.0079845191101193
 40
0.0079845191101193
 40
0.0079845191101193
 40
0.009978891725092
 40
0.009978891725092
 40
0.009978891725092
 40
0.0119949104999247
 40
0.0119949104999247
 40
0.0119949104999247
 40
0.0139888182200459
 40
0.0139888182200459
 40
0.0139888182200459
 40
0.0159774714931387
 40
0.0159774714931387
 40
0.0159774714931387
 40
0.0180049530617078
 40
0.0180049530617078
 40
0.0180049530617078
 40
0.0200115519055769
 40
0.0200115519055769
 40
0.0200115519055769
 40
0.0220195855534405
 40
0.0220195855534405
 40
0.0220195855534405
 40
0.0240346501076151
 40
0.0240346501076151
 40
0.0240346501076151
 40
0.0260498586571304
 40
0.0260498586571304
 40
0.0260498586571304
 40
0.0280625643291179
 40
0.0280625643291179
 40
0.0280625643291179
 40
0.0300760375134535
 40
0.0300760375134535
 40
0.0300760375134535
 40
0.0320911718652305
 40
0.0320911718652305
 40
0.0320911718652305
 40
0.0341065217954148
 40
0.0341065217954148
 40
0.0341065217954148
 40
0.0361075944991738
 40
0.0361075944991738
 40
0.0361075944991738
 40
0.0375499832742189
 40
0.0375499832742189
 40
0.0375499832742189
 40
0.0375499832742189
 10
241.181725682078
 20
84.20688113605168
 42
1.0
 10
241.1332468393683
 20
83.59889378269946
 42
1.0
 10
241.0994259828189
 20
83.02540298241219
 42
1.0
 10
241.0887756097604
 20
82.53401533270531
 42
1.0
 10
241.078123951604
 20
82.04256839106205
 42
1.0
 10
241.0904095521879
 20
81.61998894646372
 42
1.0
 10
241.1121806064068
 20
81.30089674770463
 42
1.0
 10
241.1339997592048
 20
80.98109958164467
 42
1.0
 10
241.1640020824674
 20
80.75626093354724
 42
1.0
 10
241.1798368780935
 20
80.64445229184183
 42
1.0
 10
241.1958542761381
 20
80.53135430426478
 42
1.0
 10
241.1959087694669
 20
80.53105871051986
 42
1.0
 10
241.1799588683089
 20
80.64359126533469
 42
1.0
 10
241.1641736521206
 20
80.7549619057159
 42
1.0
 10
241.1341435514295
 20
80.97962633511293
 42
1.0
 10
241.1122769107453
 20
81.29948663707233
 42
1.0
 10
241.0901850508597
 20
81.62264139485495
 42
1.0
 10
241.0778564843806
 20
82.05228800591921
 42
1.0
 10
241.0891801438817
 20
82.5522689445786
 42
1.0
 10
241.1003827719115
 20
83.04690590158
 42
1.0
 10
241.1349285306909
 20
83.6238104074043
 42
1.0
 10
241.1839631708717
 20
84.23485212325825
 42
1.0
 10
241.232890549544
 20
84.84455720737478
 42
1.0
 10
241.2965104623566
 20
85.50475834144358
 42
1.0
 10
241.3539260349248
 20
86.16396867426137
 42
1.0
 10
241.412418727581
 20
86.83554583823638
 42
1.0
 10
241.4641811076088
 20
87.52510031606522
 42
1.0
 10
241.4927558103146
 20
88.17511589810168
 42
1.0
 10
241.5210471701502
 20
88.81868601393057
 42
1.0
 10
241.5326642119611
 20
89.44075663994677
 42
1.0
 10
241.5419083719993
 20
89.98945359744303
 42
1.0
 10
241.5511593920189
 20
90.53855773643194
 42
1.0
 10
241.5586318964428
 20
91.0293604881137
 42
1.0
 10
241.56828467992
 20
91.42144717608463
 42
1.0
 10
241.5779703274218
 20
91.81486876881057
 42
1.0
 10
241.589630212981
 20
92.11973131766699
 42
1.0
 10
241.5982284857178
 20
92.31080991721666
 42
1.0
 10
241.6068271345659
 20
92.50189687505366
 42
1.0
 10
241.6117497538623
 20
92.5844519698096
 42
1.0
 10
241.6100073744565
 20
92.55159882424584
 42
1.0
 10
241.6082670805213
 20
92.51878500092454
 42
1.0
 10
241.6000251805636
 20
92.3699514912916
 42
1.0
 10
241.5900821420418
 20
92.1174385230629
 42
1.0
 10
241.5801352743349
 20
91.8648283090182
 42
1.0
 10
241.5690950085736
 20
91.5014939275906
 42
1.0
 10
241.5602302682282
 20
91.05745139335839
 42
1.0
 10
241.5513584159724
 20
90.61305261736081
 42
1.0
 10
241.5446639151913
 20
90.07554244036376
 42
1.0
 10
241.5327365182599
 20
89.48954375704486
 42
1.0
 10
241.5208092563149
 20
88.9035517056693
 42
1.0
 10
241.5023398493246
 20
88.25266624832261
 42
1.0
 10
241.4623579820773
 20
87.59221350081434
 42
1.0
 10
241.4226432018479
 20
86.9361727121993
 42
1.0
 10
241.3627466300152
 20
86.25298089675967
 42
1.0
 10
241.3033850536818
 20
85.59704232484142
 42
1.0
 10
241.2603100734863
 20
85.12106876180687
 42
1.0
 10
241.217143995929
 20
84.6510725749316
 42
1.0
 10
241.181725682078
 20
84.20688113605168
 42
1.0
 97
        0
 92
        0
 93
        1
 72
     4
 94
        3
 73
     1
 74
     0
 95
       62
 96
       58
 40
0.0
 40
0.0
 40
0.0
 40
0.0
 40
0.0005371599952468
 40
0.0005371599952468
 40
0.0005371599952468
 40
0.001389659179625
 40
0.001389659179625
 40
0.001389659179625
 40
0.0022386628182452
 40
0.0022386628182452
 40
0.0022386628182452
 40
0.0030842034848168
 40
0.0030842034848168
 40
0.0030842034848168
 40
0.0039284318928285
 40
0.0039284318928285
 40
0.0039284318928285
 40
0.0047725489312234
 40
0.0047725489312234
 40
0.0047725489312234
 40
0.0056174386411387
 40
0.0056174386411387
 40
0.0056174386411387
 40
0.0064650437894391
 40
0.0064650437894391
 40
0.0064650437894391
 40
0.0073166383125516
 40
0.0073166383125516
 40
0.0073166383125516
 40
0.008169193822343
 40
0.008169193822343
 40
0.008169193822343
 40
0.0090180853149494
 40
0.0090180853149494
 40
0.0090180853149494
 40
0.009863762160712
 40
0.009863762160712
 40
0.009863762160712
 40
0.0107097535002085
 40
0.0107097535002085
 40
0.0107097535002085
 40
0.0115560007240062
 40
0.0115560007240062
 40
0.0115560007240062
 40
0.0124022980480531
 40
0.0124022980480531
 40
0.0124022980480531
 40
0.0132485394647516
 40
0.0132485394647516
 40
0.0132485394647516
 40
0.0140945266542755
 40
0.0140945266542755
 40
0.0140945266542755
 40
0.0149403894115126
 40
0.0149403894115126
 40
0.0149403894115126
 40
0.0157862624439326
 40
0.0157862624439326
 40
0.0157862624439326
 40
0.0157862624439326
 10
241.4590819086444
 20
87.53873831621598
 42
1.0
 10
241.4488882142748
 20
87.37428136115942
 42
1.0
 10
241.4370534271779
 20
87.20137046608451
 42
1.0
 10
241.4240570293526
 20
87.0259349121861
 42
1.0
 10
241.403607125791
 20
86.74988610183608
 42
1.0
 10
241.3797552471335
 20
86.46116005794904
 42
1.0
 10
241.3556367166557
 20
86.18363134851512
 42
1.0
 10
241.3316137498778
 20
85.90720227781406
 42
1.0
 10
241.3067671660155
 20
85.63425889854553
 42
1.0
 10
241.2843614945787
 20
85.38715089212378
 42
1.0
 10
241.2620463522156
 20
85.14104131411239
 42
1.0
 10
241.2415956815534
 20
84.91383357301125
 42
1.0
 10
241.2250800401848
 20
84.72428776644728
 42
1.0
 10
241.2085905982069
 20
84.5350426436136
 42
1.0
 10
241.1955371794739
 20
84.37817946826323
 42
1.0
 10
241.1865357411709
 20
84.26679649072932
 42
1.0
 10
241.1775357290894
 20
84.15543116113048
 42
1.0
 10
241.1722597217227
 20
84.08647799102451
 42
1.0
 10
241.1706618060354
 20
84.06571366650455
 42
1.0
 10
241.1690624743427
 20
84.04493094151627
 42
1.0
 10
241.1710822345425
 20
84.07185168152371
 42
1.0
 10
241.1767660535126
 20
84.1442166380728
 42
1.0
 10
241.1824677083512
 20
84.21680867642307
 42
1.0
 10
241.1920809847161
 20
84.33714710147055
 42
1.0
 10
241.2054080176871
 20
84.49508068951872
 42
1.0
 10
241.218796769564
 20
84.65374568479625
 42
1.0
 10
241.2363753425046
 20
84.85476059150895
 42
1.0
 10
241.2567136573833
 20
85.08117546987083
 42
1.0
 10
241.2770761220261
 20
85.30785919380469
 42
1.0
 10
241.3007528198732
 20
85.5662792682115
 42
1.0
 10
241.3248247592257
 20
85.83498483651731
 42
1.0
 10
241.348796778395
 20
86.10257503521171
 42
1.0
 10
241.3737290748956
 20
86.38773245287261
 42
1.0
 10
241.3962569497843
 20
86.6671528129349
 42
1.0
 10
241.418700116748
 20
86.94552251380044
 42
1.0
 10
241.4392802032611
 20
87.22582165525174
 42
1.0
 10
241.4557135800044
 20
87.48501362346566
 42
1.0
 10
241.4721516286992
 20
87.74427927904811
 42
1.0
 10
241.4847264182367
 20
87.98953156198957
 42
1.0
 10
241.4938551983386
 20
88.20031150422514
 42
1.0
 10
241.5029867327858
 20
88.41115504320987
 42
1.0
 10
241.5092081533673
 20
88.59331369588791
 42
1.0
 10
241.5135533282352
 20
88.73162678900508
 42
1.0
 10
241.5178987774565
 20
88.86994861518066
 42
1.0
 10
241.5204972330502
 20
88.96824027409092
 42
1.0
 10
241.5218210175759
 20
89.0183446600141
 42
1.0
 10
241.5231447187076
 20
89.06844588952815
 42
1.0
 10
241.5232246669833
 20
89.0717490715959
 42
1.0
 10
241.5220748699585
 20
89.02798032482289
 42
1.0
 10
241.5209254098023
 20
88.98422440146
 42
1.0
 10
241.5185205431451
 20
88.89221766296409
 42
1.0
 10
241.5144243485036
 20
88.75958948835664
 42
1.0
 10
241.5103287605741
 20
88.62698095810092
 42
1.0
 10
241.5044224120383
 20
88.45010357125226
 42
1.0
 10
241.4957087161148
 20
88.24366129423385
 42
1.0
 10
241.4869949944585
 20
88.03721840756579
 42
1.0
 10
241.47499842822
 20
87.7955227801797
 42
1.0
 10
241.4590819086444
 20
87.53873831621598
 42
1.0
 97
        0
 75
     0
 76
     1
 52
0.0
 41
1.0
 77
     0
 78
     1
 53
45.0
 43
0.0
 44
0.0
 45
-2.245064030267288
 46
2.245064030267288
 79
     0
 98
        1
 10
0.0
 20
0.0
  0
HATCH
  5
393
330
1F
100
AcDbEntity
  8
0
  6
Continuous
 62
     7
370
    18
100
AcDbHatch
 10
0.0
 20
0.0
 30
0.0
210
0.0
220
0.0
230
1.0
  2
ANSI31
 70
     0
 71
     0
 91
        1
 92
        0
 93
        1
 72
     4
 94
        3
 73
     1
 74
     0
 95
       62
 96
       58
 40
0.0
 40
0.0
 40
0.0
 40
0.0
 40
0.0006320186430872
 40
0.0006320186430872
 40
0.0006320186430872
 40
0.0016478263162694
 40
0.0016478263162694
 40
0.0016478263162694
 40
0.0026637484695137
 40
0.0026637484695137
 40
0.0026637484695137
 40
0.0036796637980866
 40
0.0036796637980866
 40
0.0036796637980866
 40
0.004695424004617
 40
0.004695424004617
 40
0.004695424004617
 40
0.0057104363079335
 40
0.0057104363079335
 40
0.0057104363079335
 40
0.0067254795425527
 40
0.0067254795425527
 40
0.0067254795425527
 40
0.0077468955620406
 40
0.0077468955620406
 40
0.0077468955620406
 40
0.0087703223479315
 40
0.0087703223479315
 40
0.0087703223479315
 40
0.0097889697737163
 40
0.0097889697737163
 40
0.0097889697737163
 40
0.0108035322052667
 40
0.0108035322052667
 40
0.0108035322052667
 40
0.0118174411294689
 40
0.0118174411294689
 40
0.0118174411294689
 40
0.0128314485157148
 40
0.0128314485157148
 40
0.0128314485157148
 40
0.0138454455747063
 40
0.0138454455747063
 40
0.0138454455747063
 40
0.0148615378429626
 40
0.0148615378429626
 40
0.0148615378429626
 40
0.0158829293937609
 40
0.0158829293937609
 40
0.0158829293937609
 40
0.0169064278309172
 40
0.0169064278309172
 40
0.0169064278309172
 40
0.0179262459899079
 40
0.0179262459899079
 40
0.0179262459899079
 40
0.0189463455162765
 40
0.0189463455162765
 40
0.0189463455162765
 40
0.0189463455162765
 10
241.4626696044574
 20
87.59736714289406
 42
1.0
 10
241.4745874314506
 20
87.79469600320105
 42
1.0
 10
241.4843635092105
 20
87.98548740991257
 42
1.0
 10
241.4922376096902
 20
88.16336874903564
 42
1.0
 10
241.5047833315701
 20
88.44678522485881
 42
1.0
 10
241.513041901387
 20
88.70329868315248
 42
1.0
 10
241.5189068561311
 20
88.91152762132475
 42
1.0
 10
241.5247725246473
 20
89.1197819012121
 42
1.0
 10
241.5284267911853
 20
89.2854979055403
 42
1.0
 10
241.5307639518755
 20
89.39492363826096
 42
1.0
 10
241.5331011025329
 20
89.50434890124558
 42
1.0
 10
241.5341563068478
 20
89.56050541954721
 42
1.0
 10
241.534121525868
 20
89.55873878064305
 42
1.0
 10
241.5340867500499
 20
89.55697240392192
 42
1.0
 10
241.5329620959598
 20
89.49725180790463
 42
1.0
 10
241.5305412557454
 20
89.38452543267627
 42
1.0
 10
241.5281221535681
 20
89.27187998910702
 42
1.0
 10
241.52437109393
 20
89.10320120224797
 42
1.0
 10
241.518366816724
 20
88.8924641429508
 42
1.0
 10
241.5123624376095
 20
88.68172350688536
 42
1.0
 10
241.5039157043373
 20
88.42310518696729
 42
1.0
 10
241.4911124834079
 20
88.13813993707214
 42
1.0
 10
241.4782313257137
 20
87.85144002448513
 42
1.0
 10
241.4598418054357
 20
87.53012966796553
 42
1.0
 10
241.4367210319364
 20
87.2012751665955
 42
1.0
 10
241.4135531832988
 20
86.87175109977518
 42
1.0
 10
241.3853197661774
 20
86.52548118966813
 42
1.0
 10
241.3562875191509
 20
86.19112326439884
 42
1.0
 10
241.327385806388
 20
85.85826867318066
 42
1.0
 10
241.2970691453406
 20
85.52802548537458
 42
1.0
 10
241.269889656994
 20
85.22735289649147
 42
1.0
 10
241.2428184759974
 20
84.92787845567149
 42
1.0
 10
241.2182191803342
 20
84.64955741384192
 42
1.0
 10
241.1987266764931
 20
84.41536748394141
 42
1.0
 10
241.179247887209
 20
84.181342325647
 42
1.0
 10
241.1642774315113
 20
83.98500400131731
 42
1.0
 10
241.1540579326218
 20
83.84277568810141
 42
1.0
 10
241.143837599789
 20
83.70053576860819
 42
1.0
 10
241.1379302241455
 20
83.60850452238473
 42
1.0
 10
241.1357291312534
 20
83.57437947825304
 42
1.0
 10
241.1335280560889
 20
83.54025470896256
 42
1.0
 10
241.1349144924905
 20
83.56309158414263
 42
1.0
 10
241.1400905879962
 20
83.64098293508285
 42
1.0
 10
241.1452770683187
 20
83.71903055968663
 42
1.0
 10
241.1545327873845
 20
83.85452151582071
 42
1.0
 10
241.168389577373
 20
84.03606645244035
 42
1.0
 10
241.1823170662928
 20
84.2185376521425
 42
1.0
 10
241.2014234598197
 20
84.45260338886757
 42
1.0
 10
241.2245743547093
 20
84.7184821605747
 42
1.0
 10
241.2477739611172
 20
84.98492036459326
 42
1.0
 10
241.27566976363
 20
85.2906839893633
 42
1.0
 10
241.3045875761904
 20
85.61033231396408
 42
1.0
 10
241.3334056452984
 20
85.92887810608855
 42
1.0
 10
241.363885823208
 20
86.27000394831097
 42
1.0
 10
241.3912847848081
 20
86.6058488789476
 42
1.0
 10
241.4186884344516
 20
86.9417512736447
 42
1.0
 10
241.4436020446742
 20
87.28165691795387
 42
1.0
 10
241.4626696044574
 20
87.59736714289406
 42
1.0
 97
        0
 75
     0
 76
     1
 52
90.0
 41
1.0
 77
     0
 78
     1
 53
135.0000000000002
 43
0.0
 44
0.0
 45
-2.245064030267281
 46
-2.245064030267296
 79
     0
 98
        1
 10
0.0
 20
0.0
  0
DIMENSION
  5
394
330
1F
100
AcDbEntity
  8
FORMAT
100
AcDbDimension
  2
_D_20
 10
250.7185572177
 20
114.0587803221
 30
0.0
 11
241.6518323161
 21
114.0587803221
 31
0.0
 70
   160
  1
<>
 71
     2
 42
-1.0
  3
SLDDIMSTYLE1
100
AcDbAlignedDimension
 13
247.7185572177
 23
96.5587803221
 33
0.0
 14
250.7185572177
 24
96.5587803221
 34
0.0
 50
0.0
100
AcDbRotatedDimension
  0
DIMENSION
  5
3A0
330
1F
100
AcDbEntity
  8
FORMAT
100
AcDbDimension
  2
_D_21
 10
267.7185572177
 20
114.0587803221
 30
0.0
 11
274.2752309332
 21
114.0587803221
 31
0.0
 70
   160
  1
<>
 71
     2
 42
-1.0
  3
SLDDIMSTYLE1
100
AcDbAlignedDimension
 13
264.7185572177
 23
104.058780322
 33
0.0
 14
267.7185572177
 24
104.058780322
 34
0.0
 50
0.0
100
AcDbRotatedDimension
  0
DIMENSION
  5
3AC
330
1F
100
AcDbEntity
  8
FORMAT
100
AcDbDimension
  2
_D_22
 10
264.7185572177
 20
120.0587803221
 30
0.0
 11
257.7185572177
 21
120.0587803221
 31
0.0
 70
   160
  1
<>
 71
     2
 42
-1.0
  3
SLDDIMSTYLE0
100
AcDbAlignedDimension
 13
250.7185572177
 23
96.5587803221
 33
0.0
 14
264.7185572177
 24
103.558780322
 34
0.0
 50
0.0
100
AcDbRotatedDimension
  0
DIMENSION
  5
3B6
330
1F
100
AcDbEntity
  8
FORMAT
100
AcDbDimension
  2
_D_23
 10
280.0751244876
 20
65.058780322
 30
0.0
 11
280.0751244876
 21
84.558780322
 31
0.0
 70
   160
  1
<>
 71
     2
 42
-1.0
  3
SLDDIMSTYLE0
100
AcDbAlignedDimension
 13
267.7185572177
 23
104.058780322
 33
0.0
 14
274.7185572177
 24
65.058780322
 34
0.0
 50
90.0
100
AcDbRotatedDimension
  0
DIMENSION
  5
3C0
330
1F
100
AcDbEntity
  8
FORMAT
100
AcDbDimension
  2
_D_24
 10
247.7185572177
 20
90.0587803221
 30
0.0
 11
263.8078531384
 21
86.5587803221
 31
0.0
 70
   162
  1
<>
 71
     1
 42
-1.0
  3
SLDDIMSTYLE3
100
AcDb2LineAngularDimension
 13
247.7185572177
 23
83.0587803221
 33
0.0
 14
250.7185572177
 24
80.0587803221
 34
0.0
 15
250.7185572177
 25
93.0587803221
 35
0.0
 16
263.8078531384
 26
86.558780322
 36
0.0
  0
DIMENSION
  5
3CA
330
1F
100
AcDbEntity
  8
FORMAT
100
AcDbDimension
  2
_D_25
 10
257.2363311651
 20
80.0587803221
 30
0.0
 11
257.2363311651
 21
86.5587803221
 31
0.0
 70
   160
  1
%%c<>
 71
     2
 42
-1.0
  3
SLDDIMSTYLE0
100
AcDbAlignedDimension
 13
250.7185572177
 23
93.0587803221
 33
0.0
 14
250.7185572177
 24
80.0587803221
 34
0.0
 50
90.0
100
AcDbRotatedDimension
  0
DIMENSION
  5
3D5
330
1F
100
AcDbEntity
  8
FORMAT
100
AcDbDimension
  2
_D_26
 10
238.2582297139
 20
83.0587803221
 30
0.0
 11
238.2582297139
 21
86.5587803221
 31
0.0
 70
   160
  1
%%c<>
 71
     2
 42
-1.0
  3
SLDDIMSTYLE1
100
AcDbAlignedDimension
 13
247.7185572177
 23
90.0587803221
 33
0.0
 14
247.7185572177
 24
83.0587803221
 34
0.0
 50
90.0
100
AcDbRotatedDimension
  0
DIMENSION
  5
3E2
330
1F
100
AcDbEntity
  8
FORMAT
100
AcDbDimension
  2
_D_27
 10
247.7185572177
 20
58.6091523326
 30
0.0
 11
217.7185572177
 21
58.6091523326
 31
0.0
 70
   160
  1
<>
 71
     2
 42
-1.0
  3
SLDDIMSTYLE0
100
AcDbAlignedDimension
 13
187.7185572177
 23
83.445531668
 33
0.0
 14
247.7185572177
 24
76.0587803221
 34
0.0
 50
0.0
100
AcDbRotatedDimension
  0
INSERT
  5
3F1
102
{ACAD_REACTORS
330
3F8
102
}
330
1F
100
AcDbEntity
  8
FORMAT
100
AcDbBlockReference
  2
SW_NOTE_0_10
 10
169.2077702703
 20
104.0731978263
 30
0.0
  0
LEADER
  5
3F8
330
1F
100
AcDbEntity
  8
FORMAT
100
AcDbLeader
  3
SLDDIMSTYLE4
 73
     2
 76
     3
 10
222.3253205085
 20
90.4571863351
 30
0.0
 10
222.7701259349
 20
104.0731978263
 30
0.0
 10
169.2077702703
 20
104.0731978263
 30
0.0
340
3F1
  0
INSERT
  5
404
330
1F
100
AcDbEntity
  8
FORMAT
100
AcDbBlockReference
  2
SW_CENTERMARKSYMBOL_8
 10
274.7185572177
 20
65.058780322
 30
0.0
  0
LINE
  5
405
330
1F
100
AcDbEntity
  8
FORMAT
  6
CENTERX2
370
    18
100
AcDbLine
 10
183.3525217225
 20
86.558780322
 30
0.0
 11
252.7185572177
 21
86.558780322
 31
0.0
  0
ENDSEC
  0
SECTION
  2
OBJECTS
  0
DICTIONARY
  5
C
330
0
100
AcDbDictionary
281
     1
  3
ACAD_GROUP
350
D
  3
ACAD_LAYOUT
350
1A
  3
ACAD_MLINESTYLE
350
17
  3
ACAD_PLOTSETTINGS
350
19
  3
ACAD_PLOTSTYLENAME
350
E
  3
ACAD_SCALELIST
350
47
  3
DWGPROPS
350
406
  0
DICTIONARY
  5
D
102
{ACAD_REACTORS
330
C
102
}
330
C
100
AcDbDictionary
281
     1
  0
DICTIONARY
  5
1A
102
{ACAD_REACTORS
330
C
102
}
330
C
100
AcDbDictionary
281
     1
  3
Layout1
350
1E
  3
Layout2
350
26
  3
Model
350
22
  0
DICTIONARY
  5
17
102
{ACAD_REACTORS
330
C
102
}
330
C
100
AcDbDictionary
281
     1
  3
Standard
350
18
  0
DICTIONARY
  5
19
102
{ACAD_REACTORS
330
C
102
}
330
C
100
AcDbDictionary
281
     1
  0
ACDBDICTIONARYWDFLT
  5
E
102
{ACAD_REACTORS
330
C
102
}
330
C
100
AcDbDictionary
281
     1
  3
Normal
350
F
100
AcDbDictionaryWithDefault
340
F
  0
DICTIONARY
  5
47
102
{ACAD_REACTORS
330
C
102
}
330
C
100
AcDbDictionary
281
     1
  3
A0
350
48
  3
A1
350
49
  3
A2
350
4A
  3
A3
350
4B
  3
A4
350
4C
  3
A5
350
4D
  3
A6
350
4E
  3
A7
350
4F
  3
A8
350
50
  3
A9
350
51
  3
B0
350
52
  3
B1
350
53
  3
B2
350
54
  3
B3
350
55
  3
B4
350
56
  3
B5
350
57
  3
B6
350
58
  3
B7
350
59
  3
B8
350
5A
  3
B9
350
5B
  3
C0
350
5C
  3
C1
350
5D
  3
C2
350
5E
  3
C3
350
5F
  3
C4
350
60
  3
C5
350
61
  3
C6
350
62
  3
C7
350
63
  3
C8
350
64
  3
C9
350
65
  3
D0
350
66
  3
D1
350
67
  3
D2
350
68
  0
XRECORD
  5
406
102
{ACAD_REACTORS
330
C
102
}
330
C
100
AcDbXrecord
280
     1
  1
DWGPROPS COOKIE
  2

  3

  4

  6

  7

  8
blumenstein
  9

300
=
301
=
302
=
303
=
304
=
305
=
306
=
307
=
308
=
309
=
 40
0.0
 41
2459704.360404757
 42
2459704.360409016
  1

 90
        0
  0
LAYOUT
  5
1E
102
{ACAD_REACTORS
330
1A
102
}
330
1A
100
AcDbPlotSettings
  1

  2
none_device
  4

  6

 40
0.0
 41
0.0
 42
0.0
 43
0.0
 44
0.0
 45
0.0
 46
0.0
 47
0.0
 48
0.0
 49
0.0
140
0.0
141
0.0
142
1.0
143
1.0
 70
   688
 72
     1
 73
     0
 74
     5
  7

 75
    16
147
1.0
148
0.0
149
0.0
100
AcDbLayout
  1
Layout1
 70
     1
 71
     1
 10
0.0
 20
0.0
 11
420.0
 21
297.0
 12
0.0
 22
0.0
 32
0.0
 14
1.0000000000E+20
 24
1.0000000000E+20
 34
1.0000000000E+20
 15
-1.0000000000E+20
 25
-1.0000000000E+20
 35
-1.0000000000E+20
146
0.0
 13
0.0
 23
0.0
 33
0.0
 16
1.0
 26
0.0
 36
0.0
 17
0.0
 27
1.0
 37
0.0
 76
     0
330
1B
  0
LAYOUT
  5
26
102
{ACAD_REACTORS
330
1A
102
}
330
1A
100
AcDbPlotSettings
  1

  2
none_device
  4

  6

 40
0.0
 41
0.0
 42
0.0
 43
0.0
 44
0.0
 45
0.0
 46
0.0
 47
0.0
 48
0.0
 49
0.0
140
0.0
141
0.0
142
1.0
143
1.0
 70
   688
 72
     1
 73
     0
 74
     5
  7

 75
    16
147
1.0
148
0.0
149
0.0
100
AcDbLayout
  1
Layout2
 70
     1
 71
     2
 10
0.0
 20
0.0
 11
0.0
 21
0.0
 12
0.0
 22
0.0
 32
0.0
 14
0.0
 24
0.0
 34
0.0
 15
0.0
 25
0.0
 35
0.0
146
0.0
 13
0.0
 23
0.0
 33
0.0
 16
1.0
 26
0.0
 36
0.0
 17
0.0
 27
1.0
 37
0.0
 76
     0
330
23
  0
LAYOUT
  5
22
102
{ACAD_REACTORS
330
1A
102
}
330
1A
100
AcDbPlotSettings
  1

  2
none_device
  4
Letter_(8.50_x_11.00_Inches)
  6

 40
6.35
 41
6.35
 42
6.35000508
 43
6.35000508
 44
215.9
 45
279.4
 46
0.0
 47
0.0
 48
0.0
 49
0.0
140
0.0
141
0.0
142
1.0
143
1.0
 70
  1712
 72
     1
 73
     0
 74
     0
  7

 75
     0
147
1.0
148
0.0
149
0.0
100
AcDbLayout
  1
Model
 70
     1
 71
     0
 10
0.0
 20
0.0
 11
297.0
 21
210.0
 12
0.0
 22
0.0
 32
0.0
 14
0.0
 24
0.0
 34
0.0
 15
297.0
 25
210.0
 35
0.0
146
0.0
 13
0.0
 23
0.0
 33
0.0
 16
1.0
 26
0.0
 36
0.0
 17
0.0
 27
1.0
 37
0.0
 76
     0
330
1F
331
29
  0
MLINESTYLE
  5
18
102
{ACAD_REACTORS
330
17
102
}
330
17
100
AcDbMlineStyle
  2
Standard
 70
     0
  3

 62
   256
 51
90.0
 52
90.0
 71
     2
 49
0.5
 62
   256
  6
BYLAYER
 49
-0.5
 62
   256
  6
BYLAYER
  0
ACDBPLACEHOLDER
  5
F
102
{ACAD_REACTORS
330
E
102
}
330
E
  0
SCALE
  5
48
102
{ACAD_REACTORS
330
47
102
}
330
47
100
AcDbScale
 70
     0
300
1:1
140
1.0
141
1.0
290
     1
  0
SCALE
  5
49
102
{ACAD_REACTORS
330
47
102
}
330
47
100
AcDbScale
 70
     0
300
1:2
140
1.0
141
2.0
290
     0
  0
SCALE
  5
4A
102
{ACAD_REACTORS
330
47
102
}
330
47
100
AcDbScale
 70
     0
300
1:4
140
1.0
141
4.0
290
     0
  0
SCALE
  5
4B
102
{ACAD_REACTORS
330
47
102
}
330
47
100
AcDbScale
 70
     0
300
1:5
140
1.0
141
5.0
290
     0
  0
SCALE
  5
4C
102
{ACAD_REACTORS
330
47
102
}
330
47
100
AcDbScale
 70
     0
300
1:8
140
1.0
141
8.0
290
     0
  0
SCALE
  5
4D
102
{ACAD_REACTORS
330
47
102
}
330
47
100
AcDbScale
 70
     0
300
1:10
140
1.0
141
10.0
290
     0
  0
SCALE
  5
4E
102
{ACAD_REACTORS
330
47
102
}
330
47
100
AcDbScale
 70
     0
300
1:16
140
1.0
141
16.0
290
     0
  0
SCALE
  5
4F
102
{ACAD_REACTORS
330
47
102
}
330
47
100
AcDbScale
 70
     0
300
1:20
140
1.0
141
20.0
290
     0
  0
SCALE
  5
50
102
{ACAD_REACTORS
330
47
102
}
330
47
100
AcDbScale
 70
     0
300
1:30
140
1.0
141
30.0
290
     0
  0
SCALE
  5
51
102
{ACAD_REACTORS
330
47
102
}
330
47
100
AcDbScale
 70
     0
300
1:40
140
1.0
141
40.0
290
     0
  0
SCALE
  5
52
102
{ACAD_REACTORS
330
47
102
}
330
47
100
AcDbScale
 70
     0
300
1:50
140
1.0
141
50.0
290
     0
  0
SCALE
  5
53
102
{ACAD_REACTORS
330
47
102
}
330
47
100
AcDbScale
 70
     0
300
1:100
140
1.0
141
100.0
290
     0
  0
SCALE
  5
54
102
{ACAD_REACTORS
330
47
102
}
330
47
100
AcDbScale
 70
     0
300
2:1
140
2.0
141
1.0
290
     0
  0
SCALE
  5
55
102
{ACAD_REACTORS
330
47
102
}
330
47
100
AcDbScale
 70
     0
300
4:1
140
4.0
141
1.0
290
     0
  0
SCALE
  5
56
102
{ACAD_REACTORS
330
47
102
}
330
47
100
AcDbScale
 70
     0
300
8:1
140
8.0
141
1.0
290
     0
  0
SCALE
  5
57
102
{ACAD_REACTORS
330
47
102
}
330
47
100
AcDbScale
 70
     0
300
10:1
140
10.0
141
1.0
290
     0
  0
SCALE
  5
58
102
{ACAD_REACTORS
330
47
102
}
330
47
100
AcDbScale
 70
     0
300
100:1
140
100.0
141
1.0
290
     0
  0
SCALE
  5
59
102
{ACAD_REACTORS
330
47
102
}
330
47
100
AcDbScale
 70
     0
300
1/128" = 1'-0"
140
0.0078125
141
12.0
290
     0
  0
SCALE
  5
5A
102
{ACAD_REACTORS
330
47
102
}
330
47
100
AcDbScale
 70
     0
300
1/64" = 1'-0"
140
0.015625
141
12.0
290
     0
  0
SCALE
  5
5B
102
{ACAD_REACTORS
330
47
102
}
330
47
100
AcDbScale
 70
     0
300
1/32" = 1'-0"
140
0.03125
141
12.0
290
     0
  0
SCALE
  5
5C
102
{ACAD_REACTORS
330
47
102
}
330
47
100
AcDbScale
 70
     0
300
1/16" = 1'-0"
140
0.0625
141
12.0
290
     0
  0
SCALE
  5
5D
102
{ACAD_REACTORS
330
47
102
}
330
47
100
AcDbScale
 70
     0
300
3/32" = 1'-0"
140
0.09375
141
12.0
290
     0
  0
SCALE
  5
5E
102
{ACAD_REACTORS
330
47
102
}
330
47
100
AcDbScale
 70
     0
300
1/8" = 1'-0"
140
0.125
141
12.0
290
     0
  0
SCALE
  5
5F
102
{ACAD_REACTORS
330
47
102
}
330
47
100
AcDbScale
 70
     0
300
3/16" = 1'-0"
140
0.1875
141
12.0
290
     0
  0
SCALE
  5
60
102
{ACAD_REACTORS
330
47
102
}
330
47
100
AcDbScale
 70
     0
300
1/4" = 1'-0"
140
0.25
141
12.0
290
     0
  0
SCALE
  5
61
102
{ACAD_REACTORS
330
47
102
}
330
47
100
AcDbScale
 70
     0
300
3/8" = 1'-0"
140
0.375
141
12.0
290
     0
  0
SCALE
  5
62
102
{ACAD_REACTORS
330
47
102
}
330
47
100
AcDbScale
 70
     0
300
1/2" = 1'-0"
140
0.5
141
12.0
290
     0
  0
SCALE
  5
63
102
{ACAD_REACTORS
330
47
102
}
330
47
100
AcDbScale
 70
     0
300
3/4" = 1'-0"
140
0.75
141
12.0
290
     0
  0
SCALE
  5
64
102
{ACAD_REACTORS
330
47
102
}
330
47
100
AcDbScale
 70
     0
300
1" = 1'-0"
140
1.0
141
12.0
290
     0
  0
SCALE
  5
65
102
{ACAD_REACTORS
330
47
102
}
330
47
100
AcDbScale
 70
     0
300
1-1/2" = 1'-0"
140
1.5
141
12.0
290
     0
  0
SCALE
  5
66
102
{ACAD_REACTORS
330
47
102
}
330
47
100
AcDbScale
 70
     0
300
3" = 1'-0"
140
3.0
141
12.0
290
     0
  0
SCALE
  5
67
102
{ACAD_REACTORS
330
47
102
}
330
47
100
AcDbScale
 70
     0
300
6" = 1'-0"
140
6.0
141
12.0
290
     0
  0
SCALE
  5
68
102
{ACAD_REACTORS
330
47
102
}
330
47
100
AcDbScale
 70
     0
300
1'-0" = 1'-0"
140
12.0
141
12.0
290
     0
  0
ENDSEC
  0
EOF
